  0
SECTION
  2
HEADER
  9
$ACADVER
  1
AC1018
  9
$ACADMAINTVER
 70
     0
  9
$DWGCODEPAGE
  3
ANSI_932
  9
$LASTSAVEDBY
  1
小谷 浩和
  9
$INSBASE
 10
0.0
 20
0.0
 30
0.0
  9
$EXTMIN
 10
13.17293928923982
 20
12.36078143228923
 30
0.0
  9
$EXTMAX
 10
1813.228598531786
 20
1213.909269339783
 30
0.0
  9
$LIMMIN
 10
0.0
 20
0.0
  9
$LIMMAX
 10
420.0
 20
297.0
  9
$ORTHOMODE
 70
     0
  9
$REGENMODE
 70
     1
  9
$FILLMODE
 70
     1
  9
$QTEXTMODE
 70
     0
  9
$MIRRTEXT
 70
     0
  9
$LTSCALE
 40
1.0
  9
$ATTMODE
 70
     1
  9
$TEXTSIZE
 40
2.5
  9
$TRACEWID
 40
1.0
  9
$TEXTSTYLE
  7
Standard
  9
$CLAYER
  8
C寸法
  9
$CELTYPE
  6
ByLayer
  9
$CECOLOR
 62
   256
  9
$CELTSCALE
 40
1.0
  9
$DISPSILH
 70
     0
  9
$DIMSCALE
 40
1.0
  9
$DIMASZ
 40
2.5
  9
$DIMEXO
 40
0.625
  9
$DIMDLI
 40
3.75
  9
$DIMRND
 40
0.0
  9
$DIMDLE
 40
0.0
  9
$DIMEXE
 40
1.25
  9
$DIMTP
 40
0.0
  9
$DIMTM
 40
0.0
  9
$DIMTXT
 40
2.5
  9
$DIMCEN
 40
2.5
  9
$DIMTSZ
 40
0.0
  9
$DIMTOL
 70
     0
  9
$DIMLIM
 70
     0
  9
$DIMTIH
 70
     0
  9
$DIMTOH
 70
     0
  9
$DIMSE1
 70
     0
  9
$DIMSE2
 70
     0
  9
$DIMTAD
 70
     1
  9
$DIMZIN
 70
     8
  9
$DIMBLK
  1
OPEN
  9
$DIMASO
 70
     1
  9
$DIMSHO
 70
     1
  9
$DIMPOST
  1

  9
$DIMAPOST
  1

  9
$DIMALT
 70
     0
  9
$DIMALTD
 70
     3
  9
$DIMALTF
 40
0.03937007874016
  9
$DIMLFAC
 40
1.0
  9
$DIMTOFL
 70
     1
  9
$DIMTVP
 40
0.0
  9
$DIMTIX
 70
     0
  9
$DIMSOXD
 70
     0
  9
$DIMSAH
 70
     0
  9
$DIMBLK1
  1

  9
$DIMBLK2
  1

  9
$DIMSTYLE
  2
JIS-1
  9
$DIMCLRD
 70
     0
  9
$DIMCLRE
 70
     0
  9
$DIMCLRT
 70
     0
  9
$DIMTFAC
 40
1.0
  9
$DIMGAP
 40
0.625
  9
$DIMJUST
 70
     0
  9
$DIMSD1
 70
     0
  9
$DIMSD2
 70
     0
  9
$DIMTOLJ
 70
     0
  9
$DIMTZIN
 70
     8
  9
$DIMALTZ
 70
     0
  9
$DIMALTTZ
 70
     0
  9
$DIMUPT
 70
     0
  9
$DIMDEC
 70
     2
  9
$DIMTDEC
 70
     2
  9
$DIMALTU
 70
     2
  9
$DIMALTTD
 70
     3
  9
$DIMTXSTY
  7
Standard
  9
$DIMAUNIT
 70
     0
  9
$DIMADEC
 70
     0
  9
$DIMALTRND
 40
0.0
  9
$DIMAZIN
 70
     0
  9
$DIMDSEP
 70
    44
  9
$DIMATFIT
 70
     3
  9
$DIMFRAC
 70
     0
  9
$DIMLDRBLK
  1
OPEN
  9
$DIMLUNIT
 70
     2
  9
$DIMLWD
 70
    -2
  9
$DIMLWE
 70
    -2
  9
$DIMTMOVE
 70
     0
  9
$LUNITS
 70
     2
  9
$LUPREC
 70
     3
  9
$SKETCHINC
 40
1.0
  9
$FILLETRAD
 40
10.0
  9
$AUNITS
 70
     0
  9
$AUPREC
 70
     0
  9
$MENU
  1
.
  9
$ELEVATION
 40
0.0
  9
$PELEVATION
 40
0.0
  9
$THICKNESS
 40
0.0
  9
$LIMCHECK
 70
     0
  9
$CHAMFERA
 40
10.0
  9
$CHAMFERB
 40
10.0
  9
$CHAMFERC
 40
20.0
  9
$CHAMFERD
 40
0.0
  9
$SKPOLY
 70
     0
  9
$TDCREATE
 40
2455023.012359514
  9
$TDUCREATE
 40
2455022.637359514
  9
$TDUPDATE
 40
2457240.696333322
  9
$TDUUPDATE
 40
2457240.321333322
  9
$TDINDWG
 40
0.0164991898
  9
$TDUSRTIMER
 40
2457240.321296678
  9
$USRTIMER
 70
     1
  9
$ANGBASE
 50
0.0
  9
$ANGDIR
 70
     0
  9
$PDMODE
 70
     0
  9
$PDSIZE
 40
0.0
  9
$PLINEWID
 40
0.0
  9
$SPLFRAME
 70
     0
  9
$SPLINETYPE
 70
     6
  9
$SPLINESEGS
 70
     8
  9
$HANDSEED
  5
480
  9
$SURFTAB1
 70
     6
  9
$SURFTAB2
 70
     6
  9
$SURFTYPE
 70
     6
  9
$SURFU
 70
     6
  9
$SURFV
 70
     6
  9
$UCSBASE
  2

  9
$UCSNAME
  2

  9
$UCSORG
 10
0.0
 20
0.0
 30
0.0
  9
$UCSXDIR
 10
1.0
 20
0.0
 30
0.0
  9
$UCSYDIR
 10
0.0
 20
1.0
 30
0.0
  9
$UCSORTHOREF
  2

  9
$UCSORTHOVIEW
 70
     0
  9
$UCSORGTOP
 10
0.0
 20
0.0
 30
0.0
  9
$UCSORGBOTTOM
 10
0.0
 20
0.0
 30
0.0
  9
$UCSORGLEFT
 10
0.0
 20
0.0
 30
0.0
  9
$UCSORGRIGHT
 10
0.0
 20
0.0
 30
0.0
  9
$UCSORGFRONT
 10
0.0
 20
0.0
 30
0.0
  9
$UCSORGBACK
 10
0.0
 20
0.0
 30
0.0
  9
$PUCSBASE
  2

  9
$PUCSNAME
  2

  9
$PUCSORG
 10
0.0
 20
0.0
 30
0.0
  9
$PUCSXDIR
 10
1.0
 20
0.0
 30
0.0
  9
$PUCSYDIR
 10
0.0
 20
1.0
 30
0.0
  9
$PUCSORTHOREF
  2

  9
$PUCSORTHOVIEW
 70
     0
  9
$PUCSORGTOP
 10
0.0
 20
0.0
 30
0.0
  9
$PUCSORGBOTTOM
 10
0.0
 20
0.0
 30
0.0
  9
$PUCSORGLEFT
 10
0.0
 20
0.0
 30
0.0
  9
$PUCSORGRIGHT
 10
0.0
 20
0.0
 30
0.0
  9
$PUCSORGFRONT
 10
0.0
 20
0.0
 30
0.0
  9
$PUCSORGBACK
 10
0.0
 20
0.0
 30
0.0
  9
$USERI1
 70
     0
  9
$USERI2
 70
     0
  9
$USERI3
 70
     0
  9
$USERI4
 70
     0
  9
$USERI5
 70
     0
  9
$USERR1
 40
0.0
  9
$USERR2
 40
0.0
  9
$USERR3
 40
0.0
  9
$USERR4
 40
0.0
  9
$USERR5
 40
0.0
  9
$WORLDVIEW
 70
     1
  9
$SHADEDGE
 70
     3
  9
$SHADEDIF
 70
    70
  9
$TILEMODE
 70
     1
  9
$MAXACTVP
 70
    64
  9
$PINSBASE
 10
0.0
 20
0.0
 30
0.0
  9
$PLIMCHECK
 70
     0
  9
$PEXTMIN
 10
1.000000000000000E+20
 20
1.000000000000000E+20
 30
1.000000000000000E+20
  9
$PEXTMAX
 10
-1.000000000000000E+20
 20
-1.000000000000000E+20
 30
-1.000000000000000E+20
  9
$PLIMMIN
 10
0.0
 20
0.0
  9
$PLIMMAX
 10
0.0
 20
0.0
  9
$UNITMODE
 70
     0
  9
$VISRETAIN
 70
     1
  9
$PLINEGEN
 70
     0
  9
$PSLTSCALE
 70
     1
  9
$TREEDEPTH
 70
  3020
  9
$CMLSTYLE
  2
Standard
  9
$CMLJUST
 70
     0
  9
$CMLSCALE
 40
20.0
  9
$PROXYGRAPHICS
 70
     1
  9
$MEASUREMENT
 70
     1
  9
$CELWEIGHT
370
    -1
  9
$ENDCAPS
280
     0
  9
$JOINSTYLE
280
     0
  9
$LWDISPLAY
290
     0
  9
$INSUNITS
 70
     4
  9
$HYPERLINKBASE
  1

  9
$STYLESHEET
  1

  9
$XEDIT
290
     1
  9
$CEPSNTYPE
380
     0
  9
$PSTYLEMODE
290
     0
  9
$FINGERPRINTGUID
  2
{EC6BB858-51AA-46EC-B484-6C9CC7AB3E2E}
  9
$VERSIONGUID
  2
{FAEB1C32-E019-11D5-929B-00C0DF256EC4}
  9
$EXTNAMES
290
     1
  9
$PSVPSCALE
 40
0.0
  9
$OLESTARTUP
290
     0
  9
$SORTENTS
280
   127
  9
$INDEXCTL
280
     0
  9
$HIDETEXT
280
     1
  9
$XCLIPFRAME
290
     0
  9
$HALOGAP
280
     0
  9
$OBSCOLOR
 70
   257
  9
$OBSLTYPE
280
     0
  9
$INTERSECTIONDISPLAY
280
     0
  9
$INTERSECTIONCOLOR
 70
   257
  9
$DIMASSOC
280
     2
  9
$PROJECTNAME
  1

  0
ENDSEC
  0
SECTION
  2
CLASSES
  0
CLASS
  1
ACDBDICTIONARYWDFLT
  2
AcDbDictionaryWithDefault
  3
ObjectDBX Classes
 90
        0
 91
        9
280
     0
281
     0
  0
CLASS
  1
VISUALSTYLE
  2
AcDbVisualStyle
  3
ObjectDBX Classes
 90
     4095
 91
        9
280
     0
281
     0
  0
CLASS
  1
TABLESTYLE
  2
AcDbTableStyle
  3
ObjectDBX Classes
 90
     4095
 91
        9
280
     0
281
     0
  0
CLASS
  1
DICTIONARYVAR
  2
AcDbDictionaryVar
  3
ObjectDBX Classes
 90
        0
 91
        9
280
     0
281
     0
  0
CLASS
  1
SCALE
  2
AcDbScale
  3
ObjectDBX Classes
 90
     1153
 91
        9
280
     0
281
     0
  0
CLASS
  1
CELLSTYLEMAP
  2
AcDbCellStyleMap
  3
ObjectDBX Classes
 90
     1152
 91
        9
280
     0
281
     0
  0
CLASS
  1
RASTERVARIABLES
  2
AcDbRasterVariables
  3
ISM
 90
        0
 91
        9
280
     0
281
     0
  0
CLASS
  1
DIMASSOC
  2
AcDbDimAssoc
  3
"AcDbDimAssoc|Product Desc:     AcDim ARX App For Dimension|Company:          Autodesk, Inc.|WEB Address:      www.autodesk.com"
 90
        0
 91
        8
280
     0
281
     0
  0
CLASS
  1
MATERIAL
  2
AcDbMaterial
  3
ObjectDBX Classes
 90
     1153
 91
        9
280
     0
281
     0
  0
CLASS
  1
SUN
  2
AcDbSun
  3
SCENEOE
 90
     1153
 91
        9
280
     0
281
     0
  0
CLASS
  1
MLEADERSTYLE
  2
AcDbMLeaderStyle
  3
ACDB_MLEADERSTYLE_CLASS
 90
     4095
 91
        9
280
     0
281
     0
  0
CLASS
  1
SORTENTSTABLE
  2
AcDbSortentsTable
  3
ObjectDBX Classes
 90
        0
 91
        7
280
     0
281
     0
  0
ENDSEC
  0
SECTION
  2
TABLES
  0
TABLE
  2
VPORT
  5
8
330
0
100
AcDbSymbolTable
 70
     1
  0
VPORT
  5
29
330
8
100
AcDbSymbolTableRecord
100
AcDbViewportTableRecord
  2
*Active
 70
     0
 10
0.0
 20
0.0
 11
1.0
 21
1.0
 12
958.1849563709857
 22
577.1051527288047
 13
0.0
 23
0.0
 14
10.0
 24
10.0
 15
10.0
 25
10.0
 16
0.0
 26
0.0
 36
1.0
 17
-134.1869158878511
 27
0.0
 37
0.0
 40
1771.448728382624
 41
1.664884135472371
 42
50.0
 43
0.0
 44
0.0
 50
0.0
 51
0.0
 71
    16
 72
  1000
 73
     1
 74
     3
 75
     0
 76
     0
 77
     0
 78
     0
281
     0
 65
     1
110
0.0
120
0.0
130
0.0
111
1.0
121
0.0
131
0.0
112
0.0
122
1.0
132
0.0
 79
     0
146
0.0
  0
ENDTAB
  0
TABLE
  2
LTYPE
  5
5
330
0
100
AcDbSymbolTable
 70
     3
  0
LTYPE
  5
14
330
5
100
AcDbSymbolTableRecord
100
AcDbLinetypeTableRecord
  2
ByBlock
 70
     0
  3

 72
    65
 73
     0
 40
0.0
  0
LTYPE
  5
15
330
5
100
AcDbSymbolTableRecord
100
AcDbLinetypeTableRecord
  2
ByLayer
 70
     0
  3

 72
    65
 73
     0
 40
0.0
  0
LTYPE
  5
16
330
5
100
AcDbSymbolTableRecord
100
AcDbLinetypeTableRecord
  2
Continuous
 70
     0
  3
Solid line
 72
    65
 73
     0
 40
0.0
  0
LTYPE
  5
E0
330
5
100
AcDbSymbolTableRecord
100
AcDbLinetypeTableRecord
  2
CENTER
 70
     0
  3
 Center ____ _ ____ _ ____ _ ____ _ ____ _ ____
 72
    65
 73
     4
 40
2.0
 49
1.25
 74
     0
 49
-0.25
 74
     0
 49
0.25
 74
     0
 49
-0.25
 74
     0
  0
LTYPE
  5
E4
330
5
100
AcDbSymbolTableRecord
100
AcDbLinetypeTableRecord
  2
DASHED
 70
     0
  3
__ __ __ __ __ __ __ __ __ __ __ __ __ __ __
 72
    65
 73
     2
 40
0.75
 49
0.5
 74
     0
 49
-0.25
 74
     0
  0
ENDTAB
  0
TABLE
  2
LAYER
  5
2
102
{ACAD_XDICTIONARY
360
256
102
}
330
0
100
AcDbSymbolTable
 70
     7
  0
LAYER
  5
10
330
2
100
AcDbSymbolTableRecord
100
AcDbLayerTableRecord
  2
0
 70
     0
 62
     7
  6
Continuous
370
    -3
390
F
  0
LAYER
  5
7E
330
2
100
AcDbSymbolTableRecord
100
AcDbLayerTableRecord
  2
Defpoints
 70
     0
 62
     7
  6
Continuous
290
     0
370
    -3
390
F
  0
LAYER
  5
DE
330
2
100
AcDbSymbolTableRecord
100
AcDbLayerTableRecord
  2
C2
 70
     0
 62
     1
  6
CENTER
370
    -3
390
F
  0
LAYER
  5
E1
330
2
100
AcDbSymbolTableRecord
100
AcDbLayerTableRecord
  2
C4
 70
     0
 62
     3
  6
Continuous
370
    -3
390
F
  0
LAYER
  5
E2
330
2
100
AcDbSymbolTableRecord
100
AcDbLayerTableRecord
  2
C寸法
 70
     0
 62
     4
  6
Continuous
370
    -3
390
F
  0
LAYER
  5
E3
330
2
100
AcDbSymbolTableRecord
100
AcDbLayerTableRecord
  2
C5
 70
     0
 62
     2
  6
DASHED
370
    -3
390
F
  0
LAYER
  5
3BE
102
{ACAD_XDICTIONARY
360
3BF
102
}
330
2
100
AcDbSymbolTableRecord
100
AcDbLayerTableRecord
  2
寸法線
 70
     0
 62
     4
  6
Continuous
370
    -3
390
F
  0
ENDTAB
  0
TABLE
  2
STYLE
  5
3
330
0
100
AcDbSymbolTable
 70
     2
  0
STYLE
  5
11
330
3
100
AcDbSymbolTableRecord
100
AcDbTextStyleTableRecord
  2
Standard
 70
     0
 40
0.138
 41
1.0
 50
0.0
 71
     0
 42
2.5
  3
arial.ttf
  4

1001
ACAD
1000
Arial
1071
        0
  0
STYLE
  5
F3
330
3
100
AcDbSymbolTableRecord
100
AcDbTextStyleTableRecord
  2
KANJI
 70
     0
 40
0.0
 41
1.0
 50
0.0
 71
     0
 42
2.5
  3
romans
  4
bigfont
  0
ENDTAB
  0
TABLE
  2
VIEW
  5
6
330
0
100
AcDbSymbolTable
 70
     0
  0
ENDTAB
  0
TABLE
  2
UCS
  5
7
330
0
100
AcDbSymbolTable
 70
     0
  0
ENDTAB
  0
TABLE
  2
APPID
  5
9
330
0
100
AcDbSymbolTable
 70
    11
  0
APPID
  5
12
330
9
100
AcDbSymbolTableRecord
100
AcDbRegAppTableRecord
  2
ACAD
 70
     0
  0
APPID
  5
EE
330
9
100
AcDbSymbolTableRecord
100
AcDbRegAppTableRecord
  2
ACAD_DSTYLE_DIMBREAK
 70
     0
  0
APPID
  5
EF
330
9
100
AcDbSymbolTableRecord
100
AcDbRegAppTableRecord
  2
ACAD_DSTYLE_DIMJAG
 70
     0
  0
APPID
  5
F0
330
9
100
AcDbSymbolTableRecord
100
AcDbRegAppTableRecord
  2
ACAD_DSTYLE_DIMTALN
 70
     0
  0
APPID
  5
F1
330
9
100
AcDbSymbolTableRecord
100
AcDbRegAppTableRecord
  2
ACAD_NAV_VCDISPLAY
 70
     0
  0
APPID
  5
F2
330
9
100
AcDbSymbolTableRecord
100
AcDbRegAppTableRecord
  2
PLOTTRANSPARENCY
 70
     0
  0
APPID
  5
3CC
330
9
100
AcDbSymbolTableRecord
100
AcDbRegAppTableRecord
  2
ACAD_DSTYLE_DIMRADIAL_EXTENSION
 70
     0
  0
APPID
  5
3CD
330
9
100
AcDbSymbolTableRecord
100
AcDbRegAppTableRecord
  2
ACAD_PSEXT
 70
     0
  0
APPID
  5
479
330
9
100
AcDbSymbolTableRecord
100
AcDbRegAppTableRecord
  2
ACAD_DSTYLE_DIMFLIPARROW_SYMBOL
 70
     0
  0
APPID
  5
47A
330
9
100
AcDbSymbolTableRecord
100
AcDbRegAppTableRecord
  2
ACAD_DSTYLE_DIMFLIPARROW_WHICH_SYMBOL
 70
     0
  0
APPID
  5
47E
330
9
100
AcDbSymbolTableRecord
100
AcDbRegAppTableRecord
  2
ACAD_MLEADERVER
 70
     0
  0
ENDTAB
  0
TABLE
  2
DIMSTYLE
  5
A
330
0
100
AcDbSymbolTable
 70
     5
100
AcDbDimStyleTable
  0
DIMSTYLE
105
27
330
A
100
AcDbSymbolTableRecord
100
AcDbDimStyleTableRecord
  2
ISO-25
 70
     0
 41
2.5
 42
0.625
 43
3.75
 44
1.25
 73
     0
 74
     0
 77
     1
 78
     8
140
2.5
141
2.5
143
0.03937007874016
147
0.625
171
     3
172
     1
178
     0
271
     2
272
     2
274
     3
278
    44
283
     0
284
     8
340
11
  0
DIMSTYLE
105
72
330
A
100
AcDbSymbolTableRecord
100
AcDbDimStyleTableRecord
  2
GB-1
 70
     0
 41
2.5
 42
0.625
 43
3.75
 44
1.25
 73
     0
 74
     0
 77
     1
 78
     8
140
2.5
141
2.5
143
0.03937007874016
147
0.625
171
     3
172
     1
178
     0
271
     2
272
     2
274
     3
278
    44
283
     0
284
     8
340
11
341
76
342
76
  0
DIMSTYLE
105
8E
102
{ACAD_REACTORS
330
3A0
330
3AD
330
42F
330
43A
330
450
330
45B
102
}
330
A
100
AcDbSymbolTableRecord
100
AcDbDimStyleTableRecord
  2
JIS-1
 70
     0
 41
2.5
 42
0.625
 43
3.75
 44
1.25
 73
     0
 74
     0
 77
     1
 78
     8
140
2.5
141
2.5
143
0.03937007874016
147
0.625
171
     3
172
     1
178
     0
271
     2
272
     2
274
     3
278
    44
283
     0
284
     8
340
11
341
90
342
90
  0
DIMSTYLE
105
E5
330
A
100
AcDbSymbolTableRecord
100
AcDbDimStyleTableRecord
  2
Standard
 70
     0
178
     0
340
11
  0
DIMSTYLE
105
E7
102
{ACAD_REACTORS
330
300
330
301
330
302
330
303
330
304
330
305
330
306
330
30B
330
30C
330
310
102
}
330
A
100
AcDbSymbolTableRecord
100
AcDbDimStyleTableRecord
  2
実寸
 70
     0
 41
25.0
 42
10.0
 43
6.0
 44
0.0
 47
5.0
 73
     0
 74
     0
 77
     1
 78
     8
140
25.0
141
0.0
144
5.0
147
5.0
178
     0
271
     1
272
     1
284
     8
340
11
341
90
342
90
1001
ACAD_DSTYLE_DIMBREAK
1070
   391
1040
0.125
1001
ACAD_DSTYLE_DIMJAG
1070
   388
1040
1.5
1001
ACAD_DSTYLE_DIMTALN
1070
   392
1070
     0
  0
ENDTAB
  0
TABLE
  2
BLOCK_RECORD
  5
1
330
0
100
AcDbSymbolTable
 70
    41
  0
BLOCK_RECORD
  5
1F
330
1
100
AcDbSymbolTableRecord
100
AcDbBlockTableRecord
  2
*Model_Space
340
22
  0
BLOCK_RECORD
  5
1B
330
1
100
AcDbSymbolTableRecord
100
AcDbBlockTableRecord
  2
*Paper_Space
340
1E
  0
BLOCK_RECORD
  5
23
330
1
100
AcDbSymbolTableRecord
100
AcDbBlockTableRecord
  2
*Paper_Space0
340
26
  0
BLOCK_RECORD
  5
76
330
1
100
AcDbSymbolTableRecord
100
AcDbBlockTableRecord
  2
_CLOSED
340
0
  0
BLOCK_RECORD
  5
90
330
1
100
AcDbSymbolTableRecord
100
AcDbBlockTableRecord
  2
_OPEN
340
0
102
{BLKREFS
331
317
331
318
331
323
331
324
331
32F
331
330
331
33E
331
33F
331
34A
331
34B
331
356
331
357
331
362
331
363
331
37D
331
37E
331
38B
331
38C
331
397
331
398
331
3A8
331
3A7
331
3B7
331
437
331
442
331
458
331
466
331
3B8
102
}
  0
BLOCK_RECORD
  5
311
330
1
100
AcDbSymbolTableRecord
100
AcDbBlockTableRecord
  2
*D16
340
0
  0
BLOCK_RECORD
  5
31D
330
1
100
AcDbSymbolTableRecord
100
AcDbBlockTableRecord
  2
*D17
340
0
  0
BLOCK_RECORD
  5
329
330
1
100
AcDbSymbolTableRecord
100
AcDbBlockTableRecord
  2
*D18
340
0
  0
BLOCK_RECORD
  5
335
330
1
100
AcDbSymbolTableRecord
100
AcDbBlockTableRecord
  2
*D19
340
0
  0
BLOCK_RECORD
  5
344
330
1
100
AcDbSymbolTableRecord
100
AcDbBlockTableRecord
  2
*D20
340
0
  0
BLOCK_RECORD
  5
350
330
1
100
AcDbSymbolTableRecord
100
AcDbBlockTableRecord
  2
*D21
340
0
  0
BLOCK_RECORD
  5
35C
330
1
100
AcDbSymbolTableRecord
100
AcDbBlockTableRecord
  2
*D22
340
0
  0
BLOCK_RECORD
  5
374
330
1
100
AcDbSymbolTableRecord
100
AcDbBlockTableRecord
  2
*D24
340
0
  0
BLOCK_RECORD
  5
383
330
1
100
AcDbSymbolTableRecord
100
AcDbBlockTableRecord
  2
*D25
340
0
  0
BLOCK_RECORD
  5
391
330
1
100
AcDbSymbolTableRecord
100
AcDbBlockTableRecord
  2
*D26
340
0
  0
BLOCK_RECORD
  5
3A1
330
1
100
AcDbSymbolTableRecord
100
AcDbBlockTableRecord
  2
*D27
340
0
  0
BLOCK_RECORD
  5
3AE
330
1
100
AcDbSymbolTableRecord
100
AcDbBlockTableRecord
  2
*D28
340
0
  0
BLOCK_RECORD
  5
432
330
1
100
AcDbSymbolTableRecord
100
AcDbBlockTableRecord
  2
*D36
340
0
  0
BLOCK_RECORD
  5
43D
330
1
100
AcDbSymbolTableRecord
100
AcDbBlockTableRecord
  2
*D37
340
0
  0
BLOCK_RECORD
  5
453
330
1
100
AcDbSymbolTableRecord
100
AcDbBlockTableRecord
  2
*D39
340
0
  0
BLOCK_RECORD
  5
45E
330
1
100
AcDbSymbolTableRecord
100
AcDbBlockTableRecord
  2
*D40
340
0
  0
ENDTAB
  0
ENDSEC
  0
SECTION
  2
BLOCKS
  0
BLOCK
  5
20
330
1F
100
AcDbEntity
  8
0
100
AcDbBlockBegin
  2
*Model_Space
 70
     0
 10
0.0
 20
0.0
 30
0.0
  3
*Model_Space
  1
*Model_Space
  0
ENDBLK
  5
21
330
1F
100
AcDbEntity
  8
0
100
AcDbBlockEnd
  0
BLOCK
  5
1C
330
1B
100
AcDbEntity
 67
     1
  8
0
100
AcDbBlockBegin
  2
*Paper_Space
 70
     0
 10
0.0
 20
0.0
 30
0.0
  3
*Paper_Space
  1
*Paper_Space
  0
ENDBLK
  5
1D
330
1B
100
AcDbEntity
 67
     1
  8
0
100
AcDbBlockEnd
  0
BLOCK
  5
24
330
23
100
AcDbEntity
  8
0
100
AcDbBlockBegin
  2
*Paper_Space0
 70
     0
 10
0.0
 20
0.0
 30
0.0
  3
*Paper_Space0
  1
*Paper_Space0
  0
ENDBLK
  5
25
330
23
100
AcDbEntity
  8
0
100
AcDbBlockEnd
  0
BLOCK
  5
77
330
76
100
AcDbEntity
  8
0
100
AcDbBlockBegin
  2
_CLOSED
 70
     0
 10
0.0
 20
0.0
 30
0.0
  3
_CLOSED
  1
_CLOSED
  0
LINE
  5
78
330
76
100
AcDbEntity
  8
0
  6
ByBlock
 62
     0
370
    -2
100
AcDbLine
 10
-1.0
 20
0.166667
 30
0.0
 11
0.0
 21
0.0
 31
0.0
  0
LINE
  5
79
330
76
100
AcDbEntity
  8
0
  6
ByBlock
 62
     0
370
    -2
100
AcDbLine
 10
0.0
 20
0.0
 30
0.0
 11
-1.0
 21
-0.166667
 31
0.0
  0
LINE
  5
7A
330
76
100
AcDbEntity
  8
0
  6
ByBlock
 62
     0
370
    -2
100
AcDbLine
 10
-1.0
 20
0.166667
 30
0.0
 11
-1.0
 21
-0.166667
 31
0.0
  0
LINE
  5
7B
330
76
100
AcDbEntity
  8
0
  6
ByBlock
 62
     0
370
    -2
100
AcDbLine
 10
0.0
 20
0.0
 30
0.0
 11
-1.0
 21
0.0
 31
0.0
  0
ENDBLK
  5
7C
330
76
100
AcDbEntity
  8
0
100
AcDbBlockEnd
  0
BLOCK
  5
91
330
90
100
AcDbEntity
  8
0
100
AcDbBlockBegin
  2
_OPEN
 70
     0
 10
0.0
 20
0.0
 30
0.0
  3
_OPEN
  1
_OPEN
  0
LINE
  5
92
330
90
100
AcDbEntity
  8
0
  6
ByBlock
 62
     0
370
    -2
100
AcDbLine
 10
-1.0
 20
0.166667
 30
0.0
 11
0.0
 21
0.0
 31
0.0
  0
LINE
  5
93
330
90
100
AcDbEntity
  8
0
  6
ByBlock
 62
     0
370
    -2
100
AcDbLine
 10
-1.0
 20
-0.166667
 30
0.0
 11
0.0
 21
0.0
 31
0.0
  0
LINE
  5
94
330
90
100
AcDbEntity
  8
0
  6
ByBlock
 62
     0
370
    -2
100
AcDbLine
 10
0.0
 20
0.0
 30
0.0
 11
-1.0
 21
0.0
 31
0.0
  0
ENDBLK
  5
95
330
90
100
AcDbEntity
  8
0
100
AcDbBlockEnd
  0
BLOCK
  5
312
330
311
100
AcDbEntity
  8
0
100
AcDbBlockBegin
  2
*D16
 70
     1
 10
0.0
 20
0.0
 30
0.0
  3
*D16
  1
*D16
  0
LINE
  5
314
330
311
100
AcDbEntity
  8
C寸法
 62
     0
370
    -2
100
AcDbLine
 10
955.8842559375182
 20
1022.11954373213
 30
0.0
 11
1195.884255937518
 21
1022.11954373213
 31
0.0
  0
LINE
  5
315
330
311
100
AcDbEntity
  8
C寸法
 62
     0
370
    -2
100
AcDbLine
 10
831.4612469311094
 20
502.1195437321305
 30
0.0
 11
1195.884255937518
 21
502.1195437321305
 31
0.0
  0
LINE
  5
316
330
311
100
AcDbEntity
  8
C寸法
 62
     0
370
    -2
100
AcDbLine
 10
1195.884255937518
 20
997.1195437321298
 30
0.0
 11
1195.884255937518
 21
527.1195437321305
 31
0.0
  0
INSERT
  5
317
330
311
100
AcDbEntity
  8
C寸法
 62
     0
370
    -2
100
AcDbBlockReference
  2
_OPEN
 10
1195.884255937518
 20
1022.11954373213
 30
0.0
 41
25.0
 42
25.0
 43
25.0
 50
90.0
  0
INSERT
  5
318
330
311
100
AcDbEntity
  8
C寸法
 62
     0
370
    -2
100
AcDbBlockReference
  2
_OPEN
 10
1195.884255937518
 20
502.1195437321305
 30
0.0
 41
25.0
 42
25.0
 43
25.0
 50
270.0
  0
MTEXT
  5
319
330
311
100
AcDbEntity
  8
C寸法
 62
     0
370
    13
100
AcDbMText
 10
1178.384255937518
 20
762.1195437321302
 30
0.0
 40
25.0
 41
0.0
 71
     5
 72
     1
  1
\A1;520
  7
KANJI
 11
0.0
 21
1.0
 31
0.0
 73
     1
 44
1.0
  0
POINT
  5
31A
330
311
100
AcDbEntity
  8
Defpoints
 62
     0
100
AcDbPoint
 10
945.8842559375182
 20
1022.11954373213
 30
0.0
  0
POINT
  5
31B
330
311
100
AcDbEntity
  8
Defpoints
 62
     0
100
AcDbPoint
 10
821.4612469311094
 20
502.1195437321305
 30
0.0
  0
POINT
  5
31C
330
311
100
AcDbEntity
  8
Defpoints
 62
     0
100
AcDbPoint
 10
1195.884255937518
 20
502.1195437321305
 30
0.0
  0
ENDBLK
  5
313
330
311
100
AcDbEntity
  8
0
100
AcDbBlockEnd
  0
BLOCK
  5
31E
330
31D
100
AcDbEntity
  8
0
100
AcDbBlockBegin
  2
*D17
 70
     1
 10
0.0
 20
0.0
 30
0.0
  3
*D17
  1
*D17
  0
LINE
  5
320
330
31D
100
AcDbEntity
  8
C寸法
 62
     0
370
    -2
100
AcDbLine
 10
955.8842559375182
 20
1022.11954373213
 30
0.0
 11
1145.884255937518
 21
1022.11954373213
 31
0.0
  0
LINE
  5
321
330
31D
100
AcDbEntity
  8
C寸法
 62
     0
370
    -2
100
AcDbLine
 10
826.7507823115425
 20
517.1195437321301
 30
0.0
 11
1145.884255937518
 21
517.1195437321301
 31
0.0
  0
LINE
  5
322
330
31D
100
AcDbEntity
  8
C寸法
 62
     0
370
    -2
100
AcDbLine
 10
1145.884255937518
 20
997.1195437321298
 30
0.0
 11
1145.884255937518
 21
542.1195437321301
 31
0.0
  0
INSERT
  5
323
330
31D
100
AcDbEntity
  8
C寸法
 62
     0
370
    -2
100
AcDbBlockReference
  2
_OPEN
 10
1145.884255937518
 20
1022.11954373213
 30
0.0
 41
25.0
 42
25.0
 43
25.0
 50
90.0
  0
INSERT
  5
324
330
31D
100
AcDbEntity
  8
C寸法
 62
     0
370
    -2
100
AcDbBlockReference
  2
_OPEN
 10
1145.884255937518
 20
517.1195437321301
 30
0.0
 41
25.0
 42
25.0
 43
25.0
 50
270.0
  0
MTEXT
  5
325
330
31D
100
AcDbEntity
  8
C寸法
 62
     0
370
    13
100
AcDbMText
 10
1128.384255937518
 20
769.61954373213
 30
0.0
 40
25.0
 41
0.0
 71
     5
 72
     1
  1
\A1;505
  7
KANJI
 11
0.0
 21
1.0
 31
0.0
 73
     1
 44
1.0
  0
POINT
  5
326
330
31D
100
AcDbEntity
  8
Defpoints
 62
     0
100
AcDbPoint
 10
945.8842559375182
 20
1022.11954373213
 30
0.0
  0
POINT
  5
327
330
31D
100
AcDbEntity
  8
Defpoints
 62
     0
100
AcDbPoint
 10
816.7507823115425
 20
517.1195437321301
 30
0.0
  0
POINT
  5
328
330
31D
100
AcDbEntity
  8
Defpoints
 62
     0
100
AcDbPoint
 10
1145.884255937518
 20
517.1195437321301
 30
0.0
  0
ENDBLK
  5
31F
330
31D
100
AcDbEntity
  8
0
100
AcDbBlockEnd
  0
BLOCK
  5
32A
330
329
100
AcDbEntity
  8
0
100
AcDbBlockBegin
  2
*D18
 70
     1
 10
0.0
 20
0.0
 30
0.0
  3
*D18
  1
*D18
  0
LINE
  5
32C
330
329
100
AcDbEntity
  8
C寸法
 62
     0
370
    -2
100
AcDbLine
 10
877.6117938796492
 20
1022.11954373213
 30
0.0
 11
1095.884255937514
 21
1022.11954373213
 31
0.0
  0
LINE
  5
32D
330
329
100
AcDbEntity
  8
C寸法
 62
     0
370
    -2
100
AcDbLine
 10
954.9743521582932
 20
852.1195437321287
 30
0.0
 11
1095.884255937514
 21
852.1195437321287
 31
0.0
  0
LINE
  5
32E
330
329
100
AcDbEntity
  8
C寸法
 62
     0
370
    -2
100
AcDbLine
 10
1095.884255937514
 20
997.1195437321298
 30
0.0
 11
1095.884255937514
 21
877.1195437321287
 31
0.0
  0
INSERT
  5
32F
330
329
100
AcDbEntity
  8
C寸法
 62
     0
370
    -2
100
AcDbBlockReference
  2
_OPEN
 10
1095.884255937514
 20
1022.11954373213
 30
0.0
 41
25.0
 42
25.0
 43
25.0
 50
90.0
  0
INSERT
  5
330
330
329
100
AcDbEntity
  8
C寸法
 62
     0
370
    -2
100
AcDbBlockReference
  2
_OPEN
 10
1095.884255937514
 20
852.1195437321287
 30
0.0
 41
25.0
 42
25.0
 43
25.0
 50
270.0
  0
MTEXT
  5
331
330
329
100
AcDbEntity
  8
C寸法
 62
     0
370
    13
100
AcDbMText
 10
1078.384255937514
 20
937.1195437321293
 30
0.0
 40
25.0
 41
0.0
 71
     5
 72
     1
  1
\A1;170
  7
KANJI
 11
0.0
 21
1.0
 31
0.0
 73
     1
 44
1.0
  0
POINT
  5
332
330
329
100
AcDbEntity
  8
Defpoints
 62
     0
100
AcDbPoint
 10
867.6117938796492
 20
1022.11954373213
 30
0.0
  0
POINT
  5
333
330
329
100
AcDbEntity
  8
Defpoints
 62
     0
100
AcDbPoint
 10
944.9743521582932
 20
852.1195437321287
 30
0.0
  0
POINT
  5
334
330
329
100
AcDbEntity
  8
Defpoints
 62
     0
100
AcDbPoint
 10
1095.884255937514
 20
852.1195437321287
 30
0.0
  0
ENDBLK
  5
32B
330
329
100
AcDbEntity
  8
0
100
AcDbBlockEnd
  0
BLOCK
  5
336
330
335
100
AcDbEntity
  8
0
100
AcDbBlockBegin
  2
*D19
 70
     1
 10
0.0
 20
0.0
 30
0.0
  3
*D19
  1
*D19
  0
LINE
  5
338
330
335
100
AcDbEntity
  8
C寸法
 62
     0
370
    -2
100
AcDbLine
 10
1005.884255937514
 20
517.1195437321301
 30
0.0
 11
1145.884255937518
 21
517.1195437321301
 31
0.0
  0
LINE
  5
339
330
335
100
AcDbEntity
  8
C寸法
 62
     0
370
    -2
100
AcDbLine
 10
1005.884255937521
 20
502.11954373213
 30
0.0
 11
1145.884255937518
 21
502.11954373213
 31
0.0
  0
LINE
  5
33A
330
335
100
AcDbEntity
  8
C寸法
 62
     0
370
    -2
100
AcDbLine
 10
1145.884255937518
 20
502.11954373213
 30
0.0
 11
1145.884255937518
 21
405.0287699226061
 31
0.0
  0
LINE
  5
33B
330
335
100
AcDbEntity
  8
C寸法
 62
     0
370
    -2
100
AcDbLine
 10
1145.884255937518
 20
517.1195437321301
 30
0.0
 11
1145.884255937518
 21
502.11954373213
 31
0.0
  0
LINE
  5
33C
330
335
100
AcDbEntity
  8
C寸法
 62
     0
370
    -2
100
AcDbLine
 10
1145.884255937518
 20
542.1195437321301
 30
0.0
 11
1145.884255937518
 21
567.1195437321301
 31
0.0
  0
LINE
  5
33D
330
335
100
AcDbEntity
  8
C寸法
 62
     0
370
    -2
100
AcDbLine
 10
1145.884255937518
 20
477.11954373213
 30
0.0
 11
1145.884255937518
 21
452.11954373213
 31
0.0
  0
INSERT
  5
33E
330
335
100
AcDbEntity
  8
C寸法
 62
     0
370
    -2
100
AcDbBlockReference
  2
_OPEN
 10
1145.884255937518
 20
517.1195437321301
 30
0.0
 41
25.0
 42
25.0
 43
25.0
 50
270.0
  0
INSERT
  5
33F
330
335
100
AcDbEntity
  8
C寸法
 62
     0
370
    -2
100
AcDbBlockReference
  2
_OPEN
 10
1145.884255937518
 20
502.11954373213
 30
0.0
 41
25.0
 42
25.0
 43
25.0
 50
90.0
  0
MTEXT
  5
340
330
335
100
AcDbEntity
  8
C寸法
 62
     0
370
    13
100
AcDbMText
 10
1128.384255937518
 20
428.574156827368
 30
0.0
 40
25.0
 41
0.0
 71
     5
 72
     1
  1
\A1;15
  7
KANJI
 11
0.0
 21
1.0
 31
0.0
 73
     1
 44
1.0
  0
POINT
  5
341
330
335
100
AcDbEntity
  8
Defpoints
 62
     0
100
AcDbPoint
 10
995.8842559375141
 20
517.1195437321301
 30
0.0
  0
POINT
  5
342
330
335
100
AcDbEntity
  8
Defpoints
 62
     0
100
AcDbPoint
 10
995.8842559375212
 20
502.11954373213
 30
0.0
  0
POINT
  5
343
330
335
100
AcDbEntity
  8
Defpoints
 62
     0
100
AcDbPoint
 10
1145.884255937518
 20
502.11954373213
 30
0.0
  0
ENDBLK
  5
337
330
335
100
AcDbEntity
  8
0
100
AcDbBlockEnd
  0
BLOCK
  5
345
330
344
100
AcDbEntity
  8
0
100
AcDbBlockBegin
  2
*D20
 70
     1
 10
0.0
 20
0.0
 30
0.0
  3
*D20
  1
*D20
  0
LINE
  5
347
330
344
100
AcDbEntity
  8
C寸法
 62
     0
370
    -2
100
AcDbLine
 10
265.8842559375144
 20
581.5409094119625
 30
0.0
 11
265.8842559375144
 21
352.1195437321301
 31
0.0
  0
LINE
  5
348
330
344
100
AcDbEntity
  8
C寸法
 62
     0
370
    -2
100
AcDbLine
 10
915.8842559375144
 20
580.9769416752838
 30
0.0
 11
915.8842559375144
 21
352.1195437321301
 31
0.0
  0
LINE
  5
349
330
344
100
AcDbEntity
  8
C寸法
 62
     0
370
    -2
100
AcDbLine
 10
290.8842559375144
 20
352.1195437321301
 30
0.0
 11
890.8842559375144
 21
352.1195437321301
 31
0.0
  0
INSERT
  5
34A
330
344
100
AcDbEntity
  8
C寸法
 62
     0
370
    -2
100
AcDbBlockReference
  2
_OPEN
 10
265.8842559375144
 20
352.1195437321301
 30
0.0
 41
25.0
 42
25.0
 43
25.0
 50
180.0
  0
INSERT
  5
34B
330
344
100
AcDbEntity
  8
C寸法
 62
     0
370
    -2
100
AcDbBlockReference
  2
_OPEN
 10
915.8842559375144
 20
352.1195437321301
 30
0.0
 41
25.0
 42
25.0
 43
25.0
  0
MTEXT
  5
34C
330
344
100
AcDbEntity
  8
C寸法
 62
     0
370
    13
100
AcDbMText
 10
590.8842559375144
 20
369.6195437321301
 30
0.0
 40
25.0
 41
0.0
 71
     5
 72
     1
  1
\A1;650
  7
KANJI
 73
     1
 44
1.0
  0
POINT
  5
34D
330
344
100
AcDbEntity
  8
Defpoints
 62
     0
100
AcDbPoint
 10
265.8842559375144
 20
591.5409094119625
 30
0.0
  0
POINT
  5
34E
330
344
100
AcDbEntity
  8
Defpoints
 62
     0
100
AcDbPoint
 10
915.8842559375144
 20
590.9769416752838
 30
0.0
  0
POINT
  5
34F
330
344
100
AcDbEntity
  8
Defpoints
 62
     0
100
AcDbPoint
 10
915.8842559375144
 20
352.1195437321301
 30
0.0
  0
ENDBLK
  5
346
330
344
100
AcDbEntity
  8
0
100
AcDbBlockEnd
  0
BLOCK
  5
351
330
350
100
AcDbEntity
  8
0
100
AcDbBlockBegin
  2
*D21
 70
     1
 10
0.0
 20
0.0
 30
0.0
  3
*D21
  1
*D21
  0
LINE
  5
353
330
350
100
AcDbEntity
  8
C寸法
 62
     0
370
    -2
100
AcDbLine
 10
955.8842559375141
 20
267.8195437321302
 30
0.0
 11
1095.884255937521
 21
267.8195437321302
 31
0.0
  0
LINE
  5
354
330
350
100
AcDbEntity
  8
C寸法
 62
     0
370
    -2
100
AcDbLine
 10
722.8895712897289
 20
77.81954373213026
 30
0.0
 11
1095.884255937521
 21
77.81954373213023
 31
0.0
  0
LINE
  5
355
330
350
100
AcDbEntity
  8
C寸法
 62
     0
370
    -2
100
AcDbLine
 10
1095.884255937521
 20
242.8195437321302
 30
0.0
 11
1095.884255937521
 21
102.8195437321302
 31
0.0
  0
INSERT
  5
356
330
350
100
AcDbEntity
  8
C寸法
 62
     0
370
    -2
100
AcDbBlockReference
  2
_OPEN
 10
1095.884255937521
 20
267.8195437321302
 30
0.0
 41
25.0
 42
25.0
 43
25.0
 50
90.0
  0
INSERT
  5
357
330
350
100
AcDbEntity
  8
C寸法
 62
     0
370
    -2
100
AcDbBlockReference
  2
_OPEN
 10
1095.884255937521
 20
77.81954373213023
 30
0.0
 41
25.0
 42
25.0
 43
25.0
 50
270.0
  0
MTEXT
  5
358
330
350
100
AcDbEntity
  8
C寸法
 62
     0
370
    13
100
AcDbMText
 10
1078.384255937521
 20
172.8195437321302
 30
0.0
 40
25.0
 41
0.0
 71
     5
 72
     1
  1
\A1;190
  7
KANJI
 11
0.0
 21
1.0
 31
0.0
 73
     1
 44
1.0
  0
POINT
  5
359
330
350
100
AcDbEntity
  8
Defpoints
 62
     0
100
AcDbPoint
 10
945.8842559375141
 20
267.8195437321302
 30
0.0
  0
POINT
  5
35A
330
350
100
AcDbEntity
  8
Defpoints
 62
     0
100
AcDbPoint
 10
712.8895712897289
 20
77.81954373213026
 30
0.0
  0
POINT
  5
35B
330
350
100
AcDbEntity
  8
Defpoints
 62
     0
100
AcDbPoint
 10
1095.884255937521
 20
77.81954373213023
 30
0.0
  0
ENDBLK
  5
352
330
350
100
AcDbEntity
  8
0
100
AcDbBlockEnd
  0
BLOCK
  5
35D
330
35C
100
AcDbEntity
  8
0
100
AcDbBlockBegin
  2
*D22
 70
     1
 10
0.0
 20
0.0
 30
0.0
  3
*D22
  1
*D22
  0
LINE
  5
35F
330
35C
100
AcDbEntity
  8
C寸法
 62
     0
370
    -2
100
AcDbLine
 10
265.8842559375144
 20
492.11954373213
 30
0.0
 11
265.8842559375144
 21
402.1195437321301
 31
0.0
  0
LINE
  5
360
330
35C
100
AcDbEntity
  8
C寸法
 62
     0
370
    -2
100
AcDbLine
 10
515.8842559375144
 20
492.11954373213
 30
0.0
 11
515.8842559375144
 21
402.1195437321301
 31
0.0
  0
LINE
  5
361
330
35C
100
AcDbEntity
  8
C寸法
 62
     0
370
    -2
100
AcDbLine
 10
290.8842559375144
 20
402.1195437321301
 30
0.0
 11
490.8842559375144
 21
402.1195437321301
 31
0.0
  0
INSERT
  5
362
330
35C
100
AcDbEntity
  8
C寸法
 62
     0
370
    -2
100
AcDbBlockReference
  2
_OPEN
 10
265.8842559375144
 20
402.1195437321301
 30
0.0
 41
25.0
 42
25.0
 43
25.0
 50
180.0
  0
INSERT
  5
363
330
35C
100
AcDbEntity
  8
C寸法
 62
     0
370
    -2
100
AcDbBlockReference
  2
_OPEN
 10
515.8842559375144
 20
402.1195437321301
 30
0.0
 41
25.0
 42
25.0
 43
25.0
  0
MTEXT
  5
364
330
35C
100
AcDbEntity
  8
C寸法
 62
     0
370
    13
100
AcDbMText
 10
390.8842559375144
 20
419.6195437321301
 30
0.0
 40
25.0
 41
0.0
 71
     5
 72
     1
  1
\A1;250
  7
KANJI
 73
     1
 44
1.0
  0
POINT
  5
365
330
35C
100
AcDbEntity
  8
Defpoints
 62
     0
100
AcDbPoint
 10
265.8842559375144
 20
502.11954373213
 30
0.0
  0
POINT
  5
366
330
35C
100
AcDbEntity
  8
Defpoints
 62
     0
100
AcDbPoint
 10
515.8842559375144
 20
502.11954373213
 30
0.0
  0
POINT
  5
367
330
35C
100
AcDbEntity
  8
Defpoints
 62
     0
100
AcDbPoint
 10
515.8842559375144
 20
402.1195437321301
 30
0.0
  0
ENDBLK
  5
35E
330
35C
100
AcDbEntity
  8
0
100
AcDbBlockEnd
  0
BLOCK
  5
375
330
374
100
AcDbEntity
  8
0
100
AcDbBlockBegin
  2
*D24
 70
     1
 10
0.0
 20
0.0
 30
0.0
  3
*D24
  1
*D24
  0
LINE
  5
377
330
374
100
AcDbEntity
  8
C5
 62
     0
370
    -2
100
AcDbLine
 10
877.5908489034366
 20
1022.11954373213
 30
0.0
 11
1045.884255937514
 21
1022.11954373213
 31
0.0
  0
LINE
  5
378
330
374
100
AcDbEntity
  8
C5
 62
     0
370
    -2
100
AcDbLine
 10
756.5576129655452
 20
987.618883040316
 30
0.0
 11
1045.884255937514
 21
987.618883040316
 31
0.0
  0
LINE
  5
379
330
374
100
AcDbEntity
  8
C5
 62
     0
370
    -2
100
AcDbLine
 10
1045.884255937514
 20
1022.11954373213
 30
0.0
 11
1045.884255937514
 21
1158.310019922606
 31
0.0
  0
LINE
  5
37A
330
374
100
AcDbEntity
  8
C5
 62
     0
370
    -2
100
AcDbLine
 10
1045.884255937514
 20
1022.11954373213
 30
0.0
 11
1045.884255937514
 21
987.618883040316
 31
0.0
  0
LINE
  5
37B
330
374
100
AcDbEntity
  8
C5
 62
     0
370
    -2
100
AcDbLine
 10
1045.884255937514
 20
1047.11954373213
 30
0.0
 11
1045.884255937514
 21
1072.11954373213
 31
0.0
  0
LINE
  5
37C
330
374
100
AcDbEntity
  8
C5
 62
     0
370
    -2
100
AcDbLine
 10
1045.884255937514
 20
962.618883040316
 30
0.0
 11
1045.884255937514
 21
937.618883040316
 31
0.0
  0
INSERT
  5
37D
330
374
100
AcDbEntity
  8
C5
 62
     0
370
    -2
100
AcDbBlockReference
  2
_OPEN
 10
1045.884255937514
 20
1022.11954373213
 30
0.0
 41
25.0
 42
25.0
 43
25.0
 50
270.0
  0
INSERT
  5
37E
330
374
100
AcDbEntity
  8
C5
 62
     0
370
    -2
100
AcDbBlockReference
  2
_OPEN
 10
1045.884255937514
 20
987.618883040316
 30
0.0
 41
25.0
 42
25.0
 43
25.0
 50
90.0
  0
MTEXT
  5
37F
330
374
100
AcDbEntity
  8
C5
 62
     0
370
    13
100
AcDbMText
 10
1028.384255937514
 20
1115.214781827368
 30
0.0
 40
25.0
 41
0.0
 71
     5
 72
     1
  1
\A1;34.5
  7
KANJI
 11
0.0
 21
1.0
 31
0.0
 73
     1
 44
1.0
  0
POINT
  5
380
330
374
100
AcDbEntity
  8
Defpoints
 62
     0
100
AcDbPoint
 10
867.5908489034366
 20
1022.11954373213
 30
0.0
  0
POINT
  5
381
330
374
100
AcDbEntity
  8
Defpoints
 62
     0
100
AcDbPoint
 10
746.5576129655452
 20
987.618883040316
 30
0.0
  0
POINT
  5
382
330
374
100
AcDbEntity
  8
Defpoints
 62
     0
100
AcDbPoint
 10
1045.884255937514
 20
987.618883040316
 30
0.0
  0
ENDBLK
  5
376
330
374
100
AcDbEntity
  8
0
100
AcDbBlockEnd
  0
BLOCK
  5
384
330
383
100
AcDbEntity
  8
0
100
AcDbBlockBegin
  2
*D25
 70
     1
 10
0.0
 20
0.0
 30
0.0
  3
*D25
  1
*D25
  0
LINE
  5
386
330
383
100
AcDbEntity
  8
C寸法
 62
     0
370
    -2
100
AcDbLine
 10
935.5168174076853
 20
267.8195437321302
 30
0.0
 11
1045.884255937521
 21
267.8195437321302
 31
0.0
  0
LINE
  5
387
330
383
100
AcDbEntity
  8
C寸法
 62
     0
370
    -2
100
AcDbLine
 10
914.927200591292
 20
252.8195437321302
 30
0.0
 11
1045.884255937521
 21
252.8195437321302
 31
0.0
  0
LINE
  5
388
330
383
100
AcDbEntity
  8
C寸法
 62
     0
370
    -2
100
AcDbLine
 10
1045.884255937521
 20
227.8195437321302
 30
0.0
 11
1045.884255937521
 21
155.7287699226064
 31
0.0
  0
LINE
  5
389
330
383
100
AcDbEntity
  8
C寸法
 62
     0
370
    -2
100
AcDbLine
 10
1045.884255937521
 20
267.8195437321302
 30
0.0
 11
1045.884255937521
 21
252.8195437321302
 31
0.0
  0
LINE
  5
38A
330
383
100
AcDbEntity
  8
C寸法
 62
     0
370
    -2
100
AcDbLine
 10
1045.884255937521
 20
292.8195437321302
 30
0.0
 11
1045.884255937521
 21
317.8195437321302
 31
0.0
  0
INSERT
  5
38B
330
383
100
AcDbEntity
  8
C寸法
 62
     0
370
    -2
100
AcDbBlockReference
  2
_OPEN
 10
1045.884255937521
 20
267.8195437321302
 30
0.0
 41
25.0
 42
25.0
 43
25.0
 50
270.0
  0
INSERT
  5
38C
330
383
100
AcDbEntity
  8
C寸法
 62
     0
370
    -2
100
AcDbBlockReference
  2
_OPEN
 10
1045.884255937521
 20
252.8195437321302
 30
0.0
 41
25.0
 42
25.0
 43
25.0
 50
90.0
  0
MTEXT
  5
38D
330
383
100
AcDbEntity
  8
C寸法
 62
     0
370
    13
100
AcDbMText
 10
1028.384255937521
 20
179.2741568273683
 30
0.0
 40
25.0
 41
0.0
 71
     5
 72
     1
  1
\A1;15
  7
KANJI
 11
0.0
 21
1.0
 31
0.0
 73
     1
 44
1.0
  0
POINT
  5
38E
330
383
100
AcDbEntity
  8
Defpoints
 62
     0
100
AcDbPoint
 10
925.5168174076853
 20
267.8195437321302
 30
0.0
  0
POINT
  5
38F
330
383
100
AcDbEntity
  8
Defpoints
 62
     0
100
AcDbPoint
 10
904.927200591292
 20
252.8195437321302
 30
0.0
  0
POINT
  5
390
330
383
100
AcDbEntity
  8
Defpoints
 62
     0
100
AcDbPoint
 10
1045.884255937521
 20
252.8195437321302
 30
0.0
  0
ENDBLK
  5
385
330
383
100
AcDbEntity
  8
0
100
AcDbBlockEnd
  0
BLOCK
  5
392
330
391
100
AcDbEntity
  8
0
100
AcDbBlockBegin
  2
*D26
 70
     1
 10
0.0
 20
0.0
 30
0.0
  3
*D26
  1
*D26
  0
LINE
  5
394
330
391
100
AcDbEntity
  8
C寸法
 62
     0
370
    -2
100
AcDbLine
 10
606.2771361703852
 20
842.1183853583502
 30
0.0
 11
606.2771361703852
 21
692.1470241351899
 31
0.0
  0
LINE
  5
395
330
391
100
AcDbEntity
  8
C寸法
 62
     0
370
    -2
100
AcDbLine
 10
425.4668043995769
 20
841.8725580724811
 30
0.0
 11
425.4668043995769
 21
692.1470241351899
 31
0.0
  0
LINE
  5
396
330
391
100
AcDbEntity
  8
C寸法
 62
     0
370
    -2
100
AcDbLine
 10
581.2771361703852
 20
692.1470241351899
 30
0.0
 11
450.4668043995769
 21
692.1470241351899
 31
0.0
  0
INSERT
  5
397
330
391
100
AcDbEntity
  8
C寸法
 62
     0
370
    -2
100
AcDbBlockReference
  2
_OPEN
 10
606.2771361703852
 20
692.1470241351899
 30
0.0
 41
25.0
 42
25.0
 43
25.0
  0
INSERT
  5
398
330
391
100
AcDbEntity
  8
C寸法
 62
     0
370
    -2
100
AcDbBlockReference
  2
_OPEN
 10
425.4668043995769
 20
692.1470241351899
 30
0.0
 41
25.0
 42
25.0
 43
25.0
 50
180.0
  0
MTEXT
  5
399
330
391
100
AcDbEntity
  8
C寸法
 62
     0
370
    13
100
AcDbMText
 10
529.9533933948677
 20
709.6470241351899
 30
0.0
 40
25.0
 41
0.0
 71
     5
 72
     1
  1
\A1;Φ181
  7
KANJI
 73
     1
 44
1.0
  0
POINT
  5
39A
330
391
100
AcDbEntity
  8
Defpoints
 62
     0
100
AcDbPoint
 10
606.2771361703852
 20
852.1183853583502
 30
0.0
  0
POINT
  5
39B
330
391
100
AcDbEntity
  8
Defpoints
 62
     0
100
AcDbPoint
 10
425.4668043995769
 20
851.8725580724811
 30
0.0
  0
POINT
  5
39C
330
391
100
AcDbEntity
  8
Defpoints
 62
     0
100
AcDbPoint
 10
425.4668043995769
 20
692.1470241351899
 30
0.0
  0
ENDBLK
  5
393
330
391
100
AcDbEntity
  8
0
100
AcDbBlockEnd
  0
BLOCK
  5
3A2
330
3A1
100
AcDbEntity
  8
0
100
AcDbBlockBegin
  2
*D27
 70
     1
 10
0.0
 20
0.0
 30
0.0
  3
*D27
  1
*D27
  0
LINE
  5
3A4
330
3A1
100
AcDbEntity
  8
C寸法
 62
     0
370
    -2
100
AcDbLine
 10
317.2770540464235
 20
1051.056935478377
 30
0.0
 11
317.2770540464235
 21
1119.423902995073
 31
0.0
  0
LINE
  5
3A5
330
3A1
100
AcDbEntity
  8
C寸法
 62
     0
370
    -2
100
AcDbLine
 10
715.9039465382036
 20
1050.968346620832
 30
0.0
 11
715.9039465382036
 21
1119.423902995073
 31
0.0
  0
LINE
  5
3A6
330
3A1
100
AcDbEntity
  8
C寸法
 62
     0
370
    -2
100
AcDbLine
 10
342.2770540464235
 20
1118.173902995073
 30
0.0
 11
690.9039465382036
 21
1118.173902995073
 31
0.0
  0
INSERT
  5
3A7
330
3A1
100
AcDbEntity
  8
C寸法
 62
     0
370
    -2
100
AcDbBlockReference
  2
_OPEN
 10
317.2770540464235
 20
1118.173902995073
 30
0.0
 41
25.0
 42
25.0
 43
25.0
 50
180.0
  0
INSERT
  5
3A8
330
3A1
100
AcDbEntity
  8
C寸法
 62
     0
370
    -2
100
AcDbBlockReference
  2
_OPEN
 10
715.9039465382036
 20
1118.173902995073
 30
0.0
 41
25.0
 42
25.0
 43
25.0
  0
MTEXT
  5
3A9
330
3A1
100
AcDbEntity
  8
C寸法
 62
     0
370
    13
100
AcDbMText
 10
529.2125711663763
 20
1135.673902995073
 30
0.0
 40
25.0
 41
0.0
 71
     5
 72
     1
  1
400
  7
KANJI
 73
     1
 44
1.0
  0
POINT
  5
3AA
330
3A1
100
AcDbEntity
  8
Defpoints
 62
     0
100
AcDbPoint
 10
317.2770540464235
 20
1046.056935478377
 30
0.0
  0
POINT
  5
3AB
330
3A1
100
AcDbEntity
  8
Defpoints
 62
     0
100
AcDbPoint
 10
715.9039465382036
 20
1045.968346620832
 30
0.0
  0
POINT
  5
3AC
330
3A1
100
AcDbEntity
  8
Defpoints
 62
     0
100
AcDbPoint
 10
715.9039465382036
 20
1118.173902995073
 30
0.0
  0
ENDBLK
  5
3A3
330
3A1
100
AcDbEntity
  8
0
100
AcDbBlockEnd
  0
BLOCK
  5
3AF
330
3AE
100
AcDbEntity
  8
0
100
AcDbBlockBegin
  2
*D28
 70
     1
 10
0.0
 20
0.0
 30
0.0
  3
*D28
  1
*D28
  0
LINE
  5
3B1
330
3AE
100
AcDbEntity
  8
0
 62
     0
370
    -2
100
AcDbLine
 10
698.1643110556431
 20
988.19756447493
 30
0.0
 11
698.1643110556431
 21
1083.149202790909
 31
0.0
  0
LINE
  5
3B2
330
3AE
100
AcDbEntity
  8
0
 62
     0
370
    -2
100
AcDbLine
 10
734.4401290579765
 20
988.19756447493
 30
0.0
 11
734.4401290579765
 21
1083.149202790909
 31
0.0
  0
LINE
  5
3B3
330
3AE
100
AcDbEntity
  8
0
 62
     0
370
    -2
100
AcDbLine
 10
734.4401290579765
 20
1081.899202790909
 30
0.0
 11
951.0172747768605
 21
1081.899202790909
 31
0.0
  0
LINE
  5
3B4
330
3AE
100
AcDbEntity
  8
0
 62
     0
370
    -2
100
AcDbLine
 10
698.1643110556431
 20
1081.899202790909
 30
0.0
 11
734.4401290579765
 21
1081.899202790909
 31
0.0
  0
LINE
  5
3B5
330
3AE
100
AcDbEntity
  8
0
 62
     0
370
    -2
100
AcDbLine
 10
673.1643110556431
 20
1081.899202790909
 30
0.0
 11
648.1643110556431
 21
1081.899202790909
 31
0.0
  0
LINE
  5
3B6
330
3AE
100
AcDbEntity
  8
0
 62
     0
370
    -2
100
AcDbLine
 10
759.4401290579765
 20
1081.899202790909
 30
0.0
 11
784.4401290579765
 21
1081.899202790909
 31
0.0
  0
INSERT
  5
3B7
330
3AE
100
AcDbEntity
  8
0
 62
     0
370
    -2
100
AcDbBlockReference
  2
_OPEN
 10
698.1643110556431
 20
1081.899202790909
 30
0.0
 41
25.0
 42
25.0
 43
25.0
  0
INSERT
  5
3B8
330
3AE
100
AcDbEntity
  8
0
 62
     0
370
    -2
100
AcDbBlockReference
  2
_OPEN
 10
734.4401290579765
 20
1081.899202790909
 30
0.0
 41
25.0
 42
25.0
 43
25.0
 50
180.0
  0
MTEXT
  5
3B9
330
3AE
100
AcDbEntity
  8
0
 62
     0
370
    13
100
AcDbMText
 10
869.0827509673367
 20
1099.399202790909
 30
0.0
 40
25.0
 41
0.0
 71
     5
 72
     1
  1
Φ36水栓穴
  7
KANJI
 73
     1
 44
1.0
  0
POINT
  5
3BA
330
3AE
100
AcDbEntity
  8
Defpoints
 62
     0
100
AcDbPoint
 10
698.1643110556431
 20
987.57256447493
 30
0.0
  0
POINT
  5
3BB
330
3AE
100
AcDbEntity
  8
Defpoints
 62
     0
100
AcDbPoint
 10
734.4401290579765
 20
987.57256447493
 30
0.0
  0
POINT
  5
46A
330
3AE
100
AcDbEntity
  8
Defpoints
 62
     0
100
AcDbPoint
 10
734.4401290579765
 20
1081.899202790909
 30
0.0
  0
ENDBLK
  5
3B0
330
3AE
100
AcDbEntity
  8
0
100
AcDbBlockEnd
  0
BLOCK
  5
433
330
432
100
AcDbEntity
  8
0
100
AcDbBlockBegin
  2
*D36
 70
     1
 10
0.0
 20
0.0
 30
0.0
  3
*D36
  1
*D36
  0
LINE
  5
435
330
432
100
AcDbEntity
  8
C寸法
 62
     0
370
    -2
100
AcDbLine
 10
311.0327149471584
 20
579.3420806889117
 30
0.0
 11
394.6192957788719
 21
642.5040677054028
 31
0.0
  0
MTEXT
  5
436
330
432
100
AcDbEntity
  8
C寸法
 62
     0
370
    13
100
AcDbMText
 10
344.8777746193109
 20
626.8514546367691
 30
0.0
 40
25.0
 41
0.0
 71
     5
 72
     1
  1
R115
  7
KANJI
 11
0.7978320571684725
 21
0.6028797629331433
 31
0.0
 73
     1
 44
1.0
  0
INSERT
  5
437
330
432
100
AcDbEntity
  8
C寸法
 62
     0
370
    -2
100
AcDbBlockReference
  2
_OPEN
 10
291.0869135179466
 20
564.2700866155831
 30
0.0
 41
25.0
 42
25.0
 43
25.0
 50
217.0764250874169
  0
POINT
  5
438
330
432
100
AcDbEntity
  8
Defpoints
 62
     0
100
AcDbPoint
 10
291.0869135179466
 20
564.2700866155831
 30
0.0
  0
POINT
  5
439
330
432
100
AcDbEntity
  8
Defpoints
 62
     0
100
AcDbPoint
 10
386.0387948636771
 20
636.0202340324875
 30
0.0
  0
ENDBLK
  5
434
330
432
100
AcDbEntity
  8
0
100
AcDbBlockEnd
  0
BLOCK
  5
43E
330
43D
100
AcDbEntity
  8
0
100
AcDbBlockBegin
  2
*D37
 70
     1
 10
0.0
 20
0.0
 30
0.0
  3
*D37
  1
*D37
  0
LINE
  5
440
330
43D
100
AcDbEntity
  8
C寸法
 62
     0
370
    -2
100
AcDbLine
 10
868.360583349751
 20
557.5633077953564
 30
0.0
 11
787.9135833151462
 21
628.5677725937429
 31
0.0
  0
MTEXT
  5
441
330
43D
100
AcDbEntity
  8
C寸法
 62
     0
370
    13
100
AcDbMText
 10
836.3225598775534
 20
609.1823602606578
 30
0.0
 40
25.0
 41
0.0
 71
     5
 72
     1
  1
R115
  7
KANJI
 11
0.7497369712470738
 21
-0.6617359548530399
 31
0.0
 73
     1
 44
1.0
  0
INSERT
  5
442
330
43D
100
AcDbEntity
  8
C寸法
 62
     0
370
    -2
100
AcDbBlockReference
  2
_OPEN
 10
887.1040076309279
 20
541.0199089240305
 30
0.0
 41
25.0
 42
25.0
 43
25.0
 50
318.5675986648516
  0
POINT
  5
443
330
43D
100
AcDbEntity
  8
Defpoints
 62
     0
100
AcDbPoint
 10
887.1040076309279
 20
541.0199089240305
 30
0.0
  0
POINT
  5
444
330
43D
100
AcDbEntity
  8
Defpoints
 62
     0
100
AcDbPoint
 10
800.8842559375144
 20
617.1195437321301
 30
0.0
  0
ENDBLK
  5
43F
330
43D
100
AcDbEntity
  8
0
100
AcDbBlockEnd
  0
BLOCK
  5
454
330
453
100
AcDbEntity
  8
0
100
AcDbBlockBegin
  2
*D39
 70
     1
 10
0.0
 20
0.0
 30
0.0
  3
*D39
  1
*D39
  0
LINE
  5
456
330
453
100
AcDbEntity
  8
C寸法
 62
     0
370
    -2
100
AcDbLine
 10
299.5537876865153
 20
884.331593807791
 30
0.0
 11
373.7491334103361
 21
848.5576233860835
 31
0.0
  0
MTEXT
  5
457
330
453
100
AcDbEntity
  8
C寸法
 62
     0
370
    13
100
AcDbMText
 10
337.1022812307275
 20
885.6552169531781
 30
0.0
 40
25.0
 41
0.0
 71
     5
 72
     1
  1
R100
  7
KANJI
 11
0.9007629134262508
 21
-0.4343111485972383
 31
0.0
 73
     1
 44
1.0
  0
INSERT
  5
458
330
453
100
AcDbEntity
  8
C寸法
 62
     0
370
    -2
100
AcDbBlockReference
  2
_OPEN
 10
277.034714850859
 20
895.189372522722
 30
0.0
 41
25.0
 42
25.0
 43
25.0
 50
154.2585307069996
  0
POINT
  5
459
330
453
100
AcDbEntity
  8
Defpoints
 62
     0
100
AcDbPoint
 10
277.034714850859
 20
895.189372522722
 30
0.0
  0
POINT
  5
45A
330
453
100
AcDbEntity
  8
Defpoints
 62
     0
100
AcDbPoint
 10
367.1110061934841
 20
851.7582576629982
 30
0.0
  0
ENDBLK
  5
455
330
453
100
AcDbEntity
  8
0
100
AcDbBlockEnd
  0
BLOCK
  5
45F
330
45E
100
AcDbEntity
  8
0
100
AcDbBlockBegin
  2
*D40
 70
     1
 10
0.0
 20
0.0
 30
0.0
  3
*D40
  1
*D40
  0
LINE
  5
461
330
45E
100
AcDbEntity
  8
C寸法
 62
     0
370
    -2
100
AcDbLine
 10
905.8063013323498
 20
995.9533144948151
 30
0.0
 11
1011.224020194041
 21
1066.236241980713
 31
0.0
  0
LINE
  5
462
330
45E
100
AcDbEntity
  8
C寸法
 62
     0
370
    -2
100
AcDbLine
 10
885.0054490845017
 20
982.0852019425176
 30
0.0
 11
864.2045968366536
 21
968.2170893902202
 31
0.0
  0
LINE
  5
463
330
45E
100
AcDbEntity
  8
C寸法
 62
     0
370
    -2
100
AcDbLine
 10
885.0054490845017
 20
982.0852019425176
 30
0.0
 11
864.2045968366536
 21
968.2170893902202
 31
0.0
  0
MTEXT
  5
464
330
45E
100
AcDbEntity
  8
C寸法
 62
     0
370
    13
100
AcDbMText
 10
970.5503107694162
 20
1060.151511474864
 30
0.0
 40
25.0
 41
0.0
 71
     5
 72
     1
  1
R60
  7
KANJI
 11
0.8320340899139249
 21
0.5547245020919005
 31
0.0
 73
     1
 44
1.0
  0
LINE
  5
465
330
45E
100
AcDbEntity
  8
C寸法
 62
     0
370
    -2
100
AcDbLine
 10
855.8842559375144
 20
962.6698443693011
 30
0.0
 11
905.8063013323498
 21
995.9533144948151
 31
0.0
  0
INSERT
  5
466
330
45E
100
AcDbEntity
  8
C寸法
 62
     0
370
    -2
100
AcDbBlockReference
  2
_OPEN
 10
905.8063013323498
 20
995.9533144948151
 30
0.0
 41
25.0
 42
25.0
 43
25.0
 50
33.69174126751688
  0
POINT
  5
467
330
45E
100
AcDbEntity
  8
Defpoints
 62
     0
100
AcDbPoint
 10
905.8063013323498
 20
995.9533144948151
 30
0.0
  0
POINT
  5
468
330
45E
100
AcDbEntity
  8
Defpoints
 62
     0
100
AcDbPoint
 10
855.8842559375144
 20
962.6698443693011
 30
0.0
  0
ENDBLK
  5
460
330
45E
100
AcDbEntity
  8
0
100
AcDbBlockEnd
  0
ENDSEC
  0
SECTION
  2
ENTITIES
  0
TEXT
  5
25B
330
1F
100
AcDbEntity
  8
C寸法
 62
     7
100
AcDbText
 10
1201.467238338549
 20
148.8470012242672
 30
0.0
 40
30.0
  1
品　番　：L650BIA 寸法図
  7
KANJI
100
AcDbText
  0
LINE
  5
25C
330
1F
100
AcDbEntity
  8
0
100
AcDbLine
 10
1196.916265893399
 20
137.0533690917805
 30
0.0
 11
1775.671129068573
 21
137.0533690917805
 31
0.0
  0
TEXT
  5
25D
330
1F
100
AcDbEntity
  8
C寸法
 62
     7
100
AcDbText
 10
1242.380176485264
 20
100.168839298751
 30
0.0
 40
25.0
  1
※詳細はお問合せください
  7
KANJI
100
AcDbText
  0
LWPOLYLINE
  5
25E
330
1F
100
AcDbEntity
  8
0
100
AcDbPolyline
 90
        4
 70
     1
 43
0.0
 10
13.17293928923982
 20
1213.909269339783
 10
13.17293928923982
 20
12.36078143228923
 10
1813.228598531786
 20
12.36078143228923
 10
1813.228598531786
 20
1213.909269339783
  0
LINE
  5
25F
330
1F
100
AcDbEntity
  8
C4
 62
     0
100
AcDbLine
 10
1355.38425593751
 20
498.1195597181056
 30
0.0
 11
1355.38425593751
 21
1026.11953033247
 31
0.0
  0
LINE
  5
260
330
1F
100
AcDbEntity
  8
C4
 62
     0
100
AcDbLine
 10
1357.884255937496
 20
498.1195450252878
 30
0.0
 11
1357.884255937496
 21
485.1195450252914
 31
0.0
  0
LINE
  5
261
330
1F
100
AcDbEntity
  8
C4
 62
     0
100
AcDbLine
 10
1367.384255937496
 20
502.1195450252878
 30
0.0
 11
1359.38424532314
 21
502.1195450252878
 31
0.0
  0
LINE
  5
262
330
1F
100
AcDbEntity
  8
C4
 62
     0
100
AcDbLine
 10
1367.384255937496
 20
499.6195450252878
 30
0.0
 11
1359.384255937489
 21
499.6195450252878
 31
0.0
  0
LINE
  5
263
330
1F
100
AcDbEntity
  8
C4
 62
     0
100
AcDbLine
 10
1370.384255937496
 20
512.1195450252878
 30
0.0
 11
1370.384255937496
 21
505.1195450252914
 31
0.0
  0
LINE
  5
264
330
1F
100
AcDbEntity
  8
C4
 62
     0
100
AcDbLine
 10
1375.384255937496
 20
517.1195450252878
 30
0.0
 11
1497.729721757073
 21
517.1195450252878
 31
0.0
  0
LINE
  5
265
330
1F
100
AcDbEntity
  8
C4
 62
     0
100
AcDbLine
 10
1372.884255937496
 20
505.1195450252914
 30
0.0
 11
1372.884255937496
 21
512.1195450252878
 31
0.0
  0
LINE
  5
266
330
1F
100
AcDbEntity
  8
C4
 62
     0
100
AcDbLine
 10
1375.384255937496
 20
514.6195450252878
 30
0.0
 11
1497.729721757073
 21
514.6195450252878
 31
0.0
  0
LINE
  5
267
330
1F
100
AcDbEntity
  8
C4
 62
     0
100
AcDbLine
 10
1374.315044989961
 20
947.1195450252878
 30
0.0
 11
1512.432114219226
 21
947.1195450252878
 31
0.0
  0
LINE
  5
268
330
1F
100
AcDbEntity
  8
C4
 62
     0
100
AcDbLine
 10
1370.384255937496
 20
512.1195450252878
 30
0.0
 11
1370.384255937496
 21
633.7022379284015
 31
0.0
  0
LINE
  5
269
330
1F
100
AcDbEntity
  8
C4
 62
     0
100
AcDbLine
 10
1357.884255937496
 20
1026.11954502529
 30
0.0
 11
1357.884255937496
 21
1039.119545025292
 31
0.0
  0
LINE
  5
26A
330
1F
100
AcDbEntity
  8
C4
 62
     0
100
AcDbLine
 10
1359.38424532314
 20
1022.119545025288
 30
0.0
 11
1503.227645015154
 21
1022.119545025257
 31
0.0
  0
LINE
  5
26B
330
1F
100
AcDbEntity
  8
C4
 62
     0
100
AcDbLine
 10
1359.384255937489
 20
1024.619545025288
 30
0.0
 11
1503.227645015154
 21
1024.619545025257
 31
0.0
  0
LINE
  5
26C
330
1F
100
AcDbEntity
  8
C4
 62
     0
100
AcDbLine
 10
1370.315654209326
 20
951.0497353995368
 30
0.0
 11
1369.127682673998
 21
1019.108579076551
 31
0.0
  0
ARC
  5
26D
330
1F
100
AcDbEntity
  8
C4
 62
     0
100
AcDbCircle
 10
1374.315044989961
 20
951.1195450252899
 30
0.0
 40
4.0
100
AcDbArc
 50
180.999999999979
 51
270.0
  0
LINE
  5
26E
330
1F
100
AcDbEntity
  8
C4
 62
     0
100
AcDbLine
 10
1554.884255937496
 20
931.6195450252915
 30
0.0
 11
1554.884255937496
 21
772.6195450252915
 31
0.0
  0
LINE
  5
26F
330
1F
100
AcDbEntity
  8
C4
 62
     0
100
AcDbLine
 10
1545.384255937492
 20
760.1831400857579
 30
0.0
 11
1545.384255937496
 21
944.0559499648205
 31
0.0
  0
LINE
  5
270
330
1F
100
AcDbEntity
  8
C4
 62
     0
100
AcDbLine
 10
1552.3842559375
 20
931.6195450252915
 30
0.0
 11
1552.384255937492
 21
772.6195450252915
 31
0.0
  0
LINE
  5
271
330
1F
100
AcDbEntity
  8
C4
 62
     0
100
AcDbLine
 10
1547.646724842771
 20
761.6195450252915
 30
0.0
 11
1552.384255937496
 21
761.6195450252915
 31
0.0
  0
LINE
  5
272
330
1F
100
AcDbEntity
  8
C4
 62
     0
100
AcDbLine
 10
1552.384255937496
 20
772.6195450252915
 30
0.0
 11
1554.884255937496
 21
772.6195450252915
 31
0.0
  0
LINE
  5
273
330
1F
100
AcDbEntity
  8
C4
 62
     0
100
AcDbLine
 10
1552.384255937496
 20
772.6195450252915
 30
0.0
 11
1552.384255937496
 21
761.6195450252915
 31
0.0
  0
LINE
  5
274
330
1F
100
AcDbEntity
  8
C4
 62
     0
100
AcDbLine
 10
1554.884255937496
 20
761.6195450252915
 30
0.0
 11
1554.884255937496
 21
772.6195450252915
 31
0.0
  0
LINE
  5
275
330
1F
100
AcDbEntity
  8
C4
 62
     0
100
AcDbLine
 10
1355.384255937496
 20
1039.119545025292
 30
0.0
 11
1357.884255937496
 21
1039.119545025292
 31
0.0
  0
LINE
  5
276
330
1F
100
AcDbEntity
  8
C4
 62
     0
100
AcDbLine
 10
1355.384255937496
 20
485.1195450252914
 30
0.0
 11
1357.884255937496
 21
485.1195450252914
 31
0.0
  0
LINE
  5
277
330
1F
100
AcDbEntity
  8
C4
 62
     0
100
AcDbLine
 10
1547.646724842771
 20
759.1195450252915
 30
0.0
 11
1552.384255937496
 21
759.1195450252915
 31
0.0
  0
LINE
  5
278
330
1F
100
AcDbEntity
  8
C4
 62
     0
100
AcDbLine
 10
1542.401850516157
 20
918.4667296055202
 30
0.0
 11
1545.384255937496
 21
852.1195450252878
 31
0.0
  0
LINE
  5
279
330
1F
100
AcDbEntity
  8
C4
 62
     0
100
AcDbLine
 10
1545.15913186725
 20
759.3683043228436
 30
0.0
 11
1543.384255937503
 21
741.6195450252915
 31
0.0
  0
LINE
  5
27A
330
1F
100
AcDbEntity
  8
C4
 62
     0
100
AcDbLine
 10
1547.646724842771
 20
759.1195450252915
 30
0.0
 11
1545.317050796183
 21
735.8228045592975
 31
0.0
  0
LINE
  5
27B
330
1F
100
AcDbEntity
  8
C4
 62
     0
100
AcDbLine
 10
1538.078257356238
 20
732.1195450252878
 30
0.0
 11
1543.145920262518
 21
737.1872079315824
 31
0.0
  0
LINE
  5
27C
330
1F
100
AcDbEntity
  8
C4
 62
     0
100
AcDbLine
 10
1540.543855662609
 20
731.0496094257312
 30
0.0
 11
1545.317050796183
 21
735.8228045592975
 31
0.0
  0
LINE
  5
27D
330
1F
100
AcDbEntity
  8
C4
 62
     0
100
AcDbLine
 10
1547.646724842771
 20
942.619545025286
 30
0.0
 11
1552.384255937496
 21
942.6195450252915
 31
0.0
  0
LINE
  5
27E
330
1F
100
AcDbEntity
  8
C4
 62
     0
100
AcDbLine
 10
1552.384255937496
 20
931.6195450252915
 30
0.0
 11
1554.884255937496
 21
931.6195450252915
 31
0.0
  0
LINE
  5
27F
330
1F
100
AcDbEntity
  8
C4
 62
     0
100
AcDbLine
 10
1552.384255937496
 20
931.6195450252915
 30
0.0
 11
1552.384255937496
 21
942.6195450252915
 31
0.0
  0
LINE
  5
280
330
1F
100
AcDbEntity
  8
C4
 62
     0
100
AcDbLine
 10
1554.884255937496
 20
942.6195450252915
 30
0.0
 11
1554.884255937496
 21
931.6195450252915
 31
0.0
  0
LINE
  5
281
330
1F
100
AcDbEntity
  8
C4
 62
     0
100
AcDbLine
 10
1547.646724842771
 20
945.119545025286
 30
0.0
 11
1552.384255937496
 21
945.119545025286
 31
0.0
  0
LINE
  5
282
330
1F
100
AcDbEntity
  8
C4
 62
     0
100
AcDbLine
 10
1543.384255937503
 20
962.6195450252858
 30
0.0
 11
1545.15913186725
 21
944.8707857277393
 31
0.0
  0
LINE
  5
283
330
1F
100
AcDbEntity
  8
C4
 62
     0
100
AcDbLine
 10
1545.848563170358
 20
963.1011617493318
 30
0.0
 11
1547.646724842771
 21
945.119545025286
 31
0.0
  0
LINE
  5
284
330
1F
100
AcDbEntity
  8
C2
  6
CENTER
 62
     0
 48
20.0
100
AcDbLine
 10
515.8842559375144
 20
502.11954373213
 30
0.0
 11
515.8842559375144
 21
1062.334376060423
 31
0.0
  0
LINE
  5
287
330
1F
100
AcDbEntity
  8
C2
  6
CENTER
 62
     0
 48
20.0
100
AcDbLine
 10
234.133469145139
 20
852.1195712609556
 30
0.0
 11
947.0437579312572
 21
852.1181948196775
 31
0.0
  0
LINE
  5
288
330
1F
100
AcDbEntity
  8
C4
 62
     0
100
AcDbLine
 10
932.8842559375003
 20
267.8195437321298
 30
0.0
 11
248.8842559374999
 21
267.8195437321298
 31
0.0
  0
LINE
  5
289
330
1F
100
AcDbEntity
  8
C4
 62
     0
100
AcDbLine
 10
595.3842559375107
 20
68.31954373212666
 30
0.0
 11
436.3842559374998
 21
68.31954373212615
 31
0.0
  0
LINE
  5
28A
330
1F
100
AcDbEntity
  8
C4
 62
     0
100
AcDbLine
 10
423.9478509979699
 20
77.81954373212986
 30
0.0
 11
607.8206608770442
 21
77.81954373213026
 31
0.0
  0
LINE
  5
28B
330
1F
100
AcDbEntity
  8
C4
 62
     0
100
AcDbLine
 10
595.3842559375107
 20
70.81954373212575
 30
0.0
 11
436.3842559374998
 21
70.81954373212615
 31
0.0
  0
LINE
  5
28C
330
1F
100
AcDbEntity
  8
C4
 62
     0
100
AcDbLine
 10
380.8842559375144
 20
502.11954373213
 30
0.0
 11
800.8842559375144
 21
502.11954373213
 31
0.0
  0
LINE
  5
28D
330
1F
100
AcDbEntity
  8
C4
 62
     0
100
AcDbLine
 10
380.8842559375144
 20
517.1195437321301
 30
0.0
 11
800.8842559375144
 21
517.1195437321301
 31
0.0
  0
LINE
  5
28E
330
1F
100
AcDbEntity
  8
C4
 62
     0
100
AcDbLine
 10
380.8842559375144
 20
485.1195437321336
 30
0.0
 11
800.8842559375144
 21
485.1195437321336
 31
0.0
  0
LINE
  5
28F
330
1F
100
AcDbEntity
  8
C4
 62
     0
100
AcDbLine
 10
265.8842559375144
 20
617.1195437321301
 30
0.0
 11
265.8842559375144
 21
962.1195437321298
 31
0.0
  0
LINE
  5
290
330
1F
100
AcDbEntity
  8
C4
 62
     0
100
AcDbLine
 10
248.8842559374999
 20
962.1195437321298
 30
0.0
 11
248.8842559374999
 21
617.1195437321301
 31
0.0
  0
LINE
  5
291
330
1F
100
AcDbEntity
  8
C4
 62
     0
100
AcDbLine
 10
915.8842559375144
 20
617.1195437321301
 30
0.0
 11
915.8842559375144
 21
962.1195437321298
 31
0.0
  0
LINE
  5
292
330
1F
100
AcDbEntity
  8
C4
 62
     0
100
AcDbLine
 10
932.8842783984533
 20
962.1195437321298
 30
0.0
 11
932.8842559375003
 21
617.1195437321301
 31
0.0
  0
LINE
  5
293
330
1F
100
AcDbEntity
  8
C4
 62
     0
100
AcDbLine
 10
325.8842559375144
 20
1022.11954373213
 30
0.0
 11
855.8842559375144
 21
1022.11954373213
 31
0.0
  0
LINE
  5
294
330
1F
100
AcDbEntity
  8
C4
 62
     0
100
AcDbLine
 10
261.8842559375144
 20
265.3195437321298
 30
0.0
 11
248.8842559374999
 21
265.3195437321298
 31
0.0
  0
LINE
  5
295
330
1F
100
AcDbEntity
  8
C4
 62
     0
100
AcDbLine
 10
265.8842559375435
 20
123.8605699731195
 30
0.0
 11
265.8842559375435
 21
263.819554346486
 31
0.0
  0
LINE
  5
296
330
1F
100
AcDbEntity
  8
C4
 62
     0
100
AcDbLine
 10
263.3842559375435
 20
123.8605699731195
 30
0.0
 11
263.3842559375435
 21
263.8195437321281
 31
0.0
  0
LINE
  5
297
330
1F
100
AcDbEntity
  8
C4
 62
     0
100
AcDbLine
 10
425.3842559375144
 20
70.81954373212615
 30
0.0
 11
425.3842559375144
 21
75.39424805627975
 31
0.0
  0
LINE
  5
298
330
1F
100
AcDbEntity
  8
C4
 62
     0
100
AcDbLine
 10
436.3842559374998
 20
70.81954373212615
 30
0.0
 11
436.3842559374998
 21
68.31954373212615
 31
0.0
  0
LINE
  5
299
330
1F
100
AcDbEntity
  8
C4
 62
     0
100
AcDbLine
 10
436.3842559374998
 20
70.81954373212615
 30
0.0
 11
425.3842559375144
 21
70.81954373212615
 31
0.0
  0
LINE
  5
29A
330
1F
100
AcDbEntity
  8
C4
 62
     0
100
AcDbLine
 10
425.3842559375144
 20
68.31954373212615
 30
0.0
 11
436.3842559374998
 21
68.31954373212615
 31
0.0
  0
LINE
  5
29B
330
1F
100
AcDbEntity
  8
C4
 62
     0
100
AcDbLine
 10
422.8842559375144
 20
70.81954373212615
 30
0.0
 11
422.8842559375144
 21
75.35495456348116
 31
0.0
  0
LINE
  5
29C
330
1F
100
AcDbEntity
  8
C4
 62
     0
100
AcDbLine
 10
919.8842559375072
 20
265.3195437321298
 30
0.0
 11
932.8842559375003
 21
265.3195437321298
 31
0.0
  0
LINE
  5
29D
330
1F
100
AcDbEntity
  8
C4
 62
     0
100
AcDbLine
 10
915.8842559375144
 20
125.5167568915056
 30
0.0
 11
915.8842559375144
 21
263.819554346486
 31
0.0
  0
LINE
  5
29E
330
1F
100
AcDbEntity
  8
C4
 62
     0
100
AcDbLine
 10
918.3842559375142
 20
125.6783998444368
 30
0.0
 11
918.3842559375142
 21
263.8195437321281
 31
0.0
  0
LINE
  5
29F
330
1F
100
AcDbEntity
  8
C4
 62
     0
100
AcDbLine
 10
606.3842559374998
 20
75.55707482684704
 30
0.0
 11
606.3842559374998
 21
70.81954373212615
 31
0.0
  0
LINE
  5
2A0
330
1F
100
AcDbEntity
  8
C4
 62
     0
100
AcDbLine
 10
595.3842559375144
 20
70.81954373212615
 30
0.0
 11
595.3842559375144
 21
68.31954373212615
 31
0.0
  0
LINE
  5
2A1
330
1F
100
AcDbEntity
  8
C4
 62
     0
100
AcDbLine
 10
595.3842559375144
 20
70.81954373212615
 30
0.0
 11
606.3842559374998
 21
70.81954373212615
 31
0.0
  0
LINE
  5
2A2
330
1F
100
AcDbEntity
  8
C4
 62
     0
100
AcDbLine
 10
606.3842559374998
 20
68.31954373212615
 30
0.0
 11
595.3842559375144
 21
68.31954373212615
 31
0.0
  0
LINE
  5
2A3
330
1F
100
AcDbEntity
  8
C4
 62
     0
100
AcDbLine
 10
912.8842559374998
 20
252.8195437321298
 30
0.0
 11
565.8842559375144
 21
252.8195437321298
 31
0.0
  0
LINE
  5
2A4
330
1F
100
AcDbEntity
  8
C4
 62
     0
100
AcDbLine
 10
268.8842559374999
 20
252.8195437321298
 30
0.0
 11
465.8842559375144
 21
252.8195437321298
 31
0.0
  0
LINE
  5
2A5
330
1F
100
AcDbEntity
  8
C4
 62
     0
100
AcDbLine
 10
932.8842559375003
 20
267.8195437321298
 30
0.0
 11
932.8842559375003
 21
265.3195437321298
 31
0.0
  0
LINE
  5
2A6
330
1F
100
AcDbEntity
  8
C4
 62
     0
100
AcDbLine
 10
248.8842559374999
 20
267.8195437321298
 30
0.0
 11
248.8842559374999
 21
265.3195437321298
 31
0.0
  0
LINE
  5
2A7
330
1F
100
AcDbEntity
  8
C4
 62
     0
100
AcDbLine
 10
912.8842559374998
 20
254.8195437321261
 30
0.0
 11
565.8842559375144
 21
254.8195437321261
 31
0.0
  0
LINE
  5
2A8
330
1F
100
AcDbEntity
  8
C4
 62
     0
100
AcDbLine
 10
268.8842559374999
 20
254.8195437321261
 30
0.0
 11
465.8842559375144
 21
254.8195437321261
 31
0.0
  0
LINE
  5
2A9
330
1F
100
AcDbEntity
  8
C4
 62
     0
100
AcDbLine
 10
605.8842366647541
 20
756.2349332327692
 30
0.0
 11
841.516360206554
 21
892.27722988038
 31
0.0
  0
LINE
  5
2AA
330
1F
100
AcDbEntity
  8
C4
 62
     0
100
AcDbLine
 10
296.8624993913572
 20
830.7257169241791
 30
0.0
 11
425.8842559375144
 21
756.2349710509341
 31
0.0
  0
LINE
  5
2AB
330
1F
100
AcDbEntity
  8
C4
 62
     0
100
AcDbLine
 10
600.3063877961567
 20
759.1533258946736
 30
0.0
 11
841.516360206554
 21
892.27722988038
 31
0.0
  0
LINE
  5
2AC
330
1F
100
AcDbEntity
  8
C4
 62
     0
100
AcDbLine
 10
296.8624993913572
 20
830.7257169241791
 30
0.0
 11
433.8348443529349
 21
757.8676257353643
 31
0.0
  0
LINE
  5
2AD
330
1F
100
AcDbEntity
  8
C4
 62
     0
100
AcDbLine
 10
608.8842559374998
 20
70.81954373212615
 30
0.0
 11
608.8842559374998
 21
75.55707482684704
 31
0.0
  0
LINE
  5
2AE
330
1F
100
AcDbEntity
  8
C4
 62
     0
100
AcDbLine
 10
608.6354966399622
 20
78.04466780237246
 30
0.0
 11
626.3842559374998
 21
79.81954373212616
 31
0.0
  0
LINE
  5
2AF
330
1F
100
AcDbEntity
  8
C4
 62
     0
100
AcDbLine
 10
608.8842559374998
 20
75.55707482684704
 30
0.0
 11
626.6330152350592
 21
77.33195075660086
 31
0.0
  0
LINE
  5
2B0
330
1F
100
AcDbEntity
  8
C4
 62
     0
100
AcDbLine
 10
768.7538128512342
 20
86.33006578560494
 30
0.0
 11
771.9612074833813
 21
89.02102286123744
 31
0.0
  0
LINE
  5
2B1
330
1F
100
AcDbEntity
  8
C4
 62
     0
100
AcDbLine
 10
769.7297522610852
 20
83.88553007497435
 30
0.0
 11
772.9195880513535
 21
86.56175553969635
 31
0.0
  0
LINE
  5
2B2
330
1F
100
AcDbEntity
  8
C4
 62
     0
100
AcDbLine
 10
423.1330152350519
 20
78.04466780237246
 30
0.0
 11
405.3842559375144
 21
79.81954373212616
 31
0.0
  0
LINE
  5
2B3
330
1F
100
AcDbEntity
  8
C4
 62
     0
100
AcDbLine
 10
422.8842559375144
 20
75.55707482684704
 30
0.0
 11
405.1354966399622
 21
77.33195075660086
 31
0.0
  0
LINE
  5
2B4
330
1F
100
AcDbEntity
  8
C4
 62
     0
100
AcDbLine
 10
325.8842559375144
 20
1039.119543732134
 30
0.0
 11
855.8842559375144
 21
1039.119543732134
 31
0.0
  0
ARC
  5
2B5
330
1F
100
AcDbEntity
  8
C4
 62
     0
100
AcDbCircle
 10
1359.384255937489
 20
498.1195450252878
 30
0.0
 40
4.0
100
AcDbArc
 50
90.0001520394523
 51
179.9997895408879
  0
ARC
  5
2B6
330
1F
100
AcDbEntity
  8
C4
 62
     0
100
AcDbCircle
 10
1359.384255937489
 20
498.1195450252878
 30
0.0
 40
1.5
100
AcDbArc
 50
90.0001520394523
 51
179.9997895408879
  0
ARC
  5
2B7
330
1F
100
AcDbEntity
  8
C4
 62
     0
100
AcDbCircle
 10
1367.384255937496
 20
505.1195450252914
 30
0.0
 40
3.0
100
AcDbArc
 50
270.0
 51
0.0
  0
ARC
  5
2B8
330
1F
100
AcDbEntity
  8
C4
 62
     0
100
AcDbCircle
 10
1375.384255937496
 20
512.1195450252878
 30
0.0
 40
5.0
100
AcDbArc
 50
90.0
 51
180.0
  0
ARC
  5
2B9
330
1F
100
AcDbEntity
  8
C4
 62
     0
100
AcDbCircle
 10
1375.384255937496
 20
512.1195450252878
 30
0.0
 40
2.5
100
AcDbArc
 50
90.0
 51
180.0
  0
ARC
  5
2BA
330
1F
100
AcDbEntity
  8
C4
 62
     0
100
AcDbCircle
 10
1367.384255937496
 20
505.1195450252914
 30
0.0
 40
5.5
100
AcDbArc
 50
270.0
 51
0.0
  0
ARC
  5
2BB
330
1F
100
AcDbEntity
  8
C4
 62
     0
100
AcDbCircle
 10
1359.384255937489
 20
1026.11954502529
 30
0.0
 40
4.0
100
AcDbArc
 50
180.0002104591121
 51
269.9998479603393
  0
ARC
  5
2BC
330
1F
100
AcDbEntity
  8
C4
 62
     0
100
AcDbCircle
 10
1359.384255937489
 20
1026.11954502529
 30
0.0
 40
1.5
100
AcDbArc
 50
180.0002104591121
 51
269.9998479603393
  0
ARC
  5
2BD
330
1F
100
AcDbEntity
  8
C4
 62
     0
100
AcDbCircle
 10
1366.128139588537
 20
1019.05622185724
 30
0.0
 40
3.0
100
AcDbArc
 50
0.9999999999757105
 51
90.9999999998715
  0
ARC
  5
2BE
330
1F
100
AcDbEntity
  8
C4
 62
     0
100
AcDbCircle
 10
1552.384255937496
 20
761.6195450252915
 30
0.0
 40
2.5
100
AcDbArc
 50
270.0
 51
0.0
  0
ARC
  5
2BF
330
1F
100
AcDbEntity
  8
C4
 62
     0
100
AcDbCircle
 10
1512.432114219226
 20
917.1195450252878
 30
0.0
 40
30.0
100
AcDbArc
 50
2.573798554792419
 51
90.0
  0
ARC
  5
2C0
330
1F
100
AcDbEntity
  8
C4
 62
     0
100
AcDbCircle
 10
1547.646724842771
 20
759.1195450252915
 30
0.0
 40
2.5
100
AcDbArc
 50
90.0
 51
174.2894068625237
  0
ARC
  5
2C1
330
1F
100
AcDbEntity
  8
C4
 62
     0
100
AcDbCircle
 10
-2659.588982241935
 20
872.0829173920126
 30
0.0
 40
4200.0
100
AcDbArc
 50
355.5304732141868
 51
358.0902867748007
  0
ARC
  5
2C2
330
1F
100
AcDbEntity
  8
C4
 62
     0
100
AcDbCircle
 10
-2650.67546123983
 20
964.9199900550689
 30
0.0
 40
4200.0
100
AcDbArc
 50
356.8917787131327
 51
356.9523313561693
  0
ARC
  5
2C3
330
1F
100
AcDbEntity
  8
C4
 62
     0
100
AcDbCircle
 10
-2659.588982241935
 20
872.0829173920126
 30
0.0
 40
4202.499999999999
100
AcDbArc
 50
355.5304732141868
 51
358.0768278736697
  0
ARC
  5
2C4
330
1F
100
AcDbEntity
  8
C4
 62
     0
100
AcDbCircle
 10
1497.729721757073
 20
547.1195450252878
 30
0.0
 40
30.0
100
AcDbArc
 50
270.0
 51
355.5304732141868
  0
ARC
  5
2C5
330
1F
100
AcDbEntity
  8
C4
 62
     0
100
AcDbCircle
 10
1497.729721757073
 20
547.1195450252878
 30
0.0
 40
32.5
100
AcDbArc
 50
270.0
 51
355.5304732141867
  0
ARC
  5
2C6
330
1F
100
AcDbEntity
  8
C4
 62
     0
100
AcDbCircle
 10
1552.384255937496
 20
942.6195450252915
 30
0.0
 40
2.5
100
AcDbArc
 50
0.0
 51
90.0
  0
ARC
  5
2C7
330
1F
100
AcDbEntity
  8
C4
 62
     0
100
AcDbCircle
 10
1547.646724842771
 20
945.1195450252915
 30
0.0
 40
2.5
100
AcDbArc
 50
185.7105931374815
 51
270.0
  0
CIRCLE
  5
2C8
330
1F
100
AcDbEntity
  8
C4
 62
     0
100
AcDbCircle
 10
515.8842559375144
 20
852.1195437321301
 30
0.0
 40
79.5
  0
CIRCLE
  5
2C9
330
1F
100
AcDbEntity
  8
C4
 62
     0
100
AcDbCircle
 10
515.8842559375144
 20
852.1195437321301
 30
0.0
 40
90.5
  0
ARC
  5
2CA
330
1F
100
AcDbEntity
  8
C4
 62
     0
100
AcDbCircle
 10
855.8842559375144
 20
962.1195437321298
 30
0.0
 40
60.0
100
AcDbArc
 50
0.0
 51
90.0
  0
ARC
  5
2CB
330
1F
100
AcDbEntity
  8
C4
 62
     0
100
AcDbCircle
 10
325.8842559375144
 20
962.1195437321298
 30
0.0
 40
60.0
100
AcDbArc
 50
90.0
 51
180.0
  0
ARC
  5
2CC
102
{ACAD_REACTORS
330
43C
102
}
330
1F
100
AcDbEntity
  8
C4
 62
     0
100
AcDbCircle
 10
800.8842559375144
 20
617.1195437321301
 30
0.0
 40
115.0
100
AcDbArc
 50
270.0
 51
0.0
  0
ARC
  5
2CD
330
1F
100
AcDbEntity
  8
C4
 62
     0
100
AcDbCircle
 10
380.8842559375144
 20
617.1195437321301
 30
0.0
 40
115.0
100
AcDbArc
 50
180.0
 51
270.0
  0
ARC
  5
2CE
330
1F
100
AcDbEntity
  8
C4
 62
     0
100
AcDbCircle
 10
261.8842559375144
 20
263.8195437321281
 30
0.0
 40
4.0
100
AcDbArc
 50
0.0
 51
89.99978954062738
  0
ARC
  5
2CF
330
1F
100
AcDbEntity
  8
C4
 62
     0
100
AcDbCircle
 10
261.8842559375144
 20
263.8195437321281
 30
0.0
 40
1.5
100
AcDbArc
 50
0.0
 51
89.99978954062738
  0
ARC
  5
2D0
330
1F
100
AcDbEntity
  8
C4
 62
     0
100
AcDbCircle
 10
425.3842559375144
 20
70.81954373212615
 30
0.0
 40
2.5
100
AcDbArc
 50
180.0
 51
269.9999415802881
  0
ARC
  5
2D1
330
1F
100
AcDbEntity
  8
C4
 62
     0
100
AcDbCircle
 10
919.8842559375072
 20
263.8195437321281
 30
0.0
 40
4.0
100
AcDbArc
 50
90.00021045895575
 51
179.9998479604956
  0
ARC
  5
2D2
330
1F
100
AcDbEntity
  8
C4
 62
     0
100
AcDbCircle
 10
919.8842559375072
 20
263.8195437321281
 30
0.0
 40
1.5
100
AcDbArc
 50
90.00021045895575
 51
179.9998479604956
  0
ARC
  5
2D3
330
1F
100
AcDbEntity
  8
C4
 62
     0
100
AcDbCircle
 10
606.3842559374998
 20
70.81954373212615
 30
0.0
 40
2.5
100
AcDbArc
 50
270.0000584197119
 51
0.0
  0
ARC
  5
2D4
330
1F
100
AcDbEntity
  8
C4
 62
     0
100
AcDbCircle
 10
515.8842559375144
 20
-9052.880456267865
 30
0.0
 40
10000.0
100
AcDbArc
 50
88.35222521282301
 51
88.86657674239581
  0
ARC
  5
2D5
330
1F
100
AcDbEntity
  8
C4
 62
     0
100
AcDbCircle
 10
316.0994156857514
 20
1045.143410640919
 30
0.0
 40
100.0
100
AcDbArc
 50
284.7770278106415
 51
327.951729214266
  0
ARC
  5
2D6
330
1F
100
AcDbEntity
  8
C4
 62
     0
100
AcDbCircle
 10
715.6690985571431
 20
1045.143410640919
 30
0.0
 40
100.0
100
AcDbArc
 50
212.0215821538402
 51
268.8665767423959
  0
ARC
  5
2D7
330
1F
100
AcDbEntity
  8
C4
 62
     0
100
AcDbCircle
 10
455.1060555629401
 20
958.1195437321298
 30
0.0
 40
64.0
100
AcDbArc
 50
90.0
 51
147.9517432982165
  0
ARC
  5
2D8
330
1F
100
AcDbEntity
  8
C4
 62
     0
100
AcDbCircle
 10
576.6624379173327
 20
958.1195490602499
 30
0.0
 40
64.00000478797554
100
AcDbArc
 50
32.04825832370992
 51
89.99999887150132
  0
ARC
  5
2D9
330
1F
100
AcDbEntity
  8
C4
 62
     0
100
AcDbCircle
 10
800.8842258379836
 20
617.1195437321301
 30
0.0
 40
132.0000000000001
100
AcDbArc
 50
269.9999906651858
 51
0.0
  0
ARC
  5
2DA
330
1F
100
AcDbEntity
  8
C4
 62
     0
100
AcDbCircle
 10
380.8842559375144
 20
617.1195437321301
 30
0.0
 40
132.0000000000001
100
AcDbArc
 50
180.0
 51
269.9999906651858
  0
ARC
  5
2DB
330
1F
100
AcDbEntity
  8
C4
 62
     0
100
AcDbCircle
 10
325.8842559375144
 20
962.1195437321298
 30
0.0
 40
77.0
100
AcDbArc
 50
90.0
 51
180.0
  0
ARC
  5
2DC
330
1F
100
AcDbEntity
  8
C4
 62
     0
100
AcDbCircle
 10
855.8842559375144
 20
962.1195437321298
 30
0.0
 40
77.0
100
AcDbArc
 50
0.0
 51
90.0
  0
ARC
  5
2DD
330
1F
100
AcDbEntity
  8
C4
 62
     0
100
AcDbCircle
 10
268.8842559374999
 20
257.8195437321298
 30
0.0
 40
3.0
100
AcDbArc
 50
180.0
 51
270.0
  0
ARC
  5
2DE
330
1F
100
AcDbEntity
  8
C4
 62
     0
100
AcDbCircle
 10
268.8842559374999
 20
255.8195437321261
 30
0.0
 40
3.0
100
AcDbArc
 50
180.0
 51
270.0
  0
ARC
  5
2DF
330
1F
100
AcDbEntity
  8
C4
 62
     0
100
AcDbCircle
 10
912.8842559374998
 20
257.8195437321298
 30
0.0
 40
3.0
100
AcDbArc
 50
270.0
 51
0.0
  0
ARC
  5
2E0
330
1F
100
AcDbEntity
  8
C4
 62
     0
100
AcDbCircle
 10
912.8842559374998
 20
255.8195437321261
 30
0.0
 40
3.0
100
AcDbArc
 50
270.0
 51
0.0
  0
ARC
  5
2E1
330
1F
100
AcDbEntity
  8
C4
 62
     0
100
AcDbCircle
 10
795.7297170113334
 20
636.0202340324865
 30
0.0
 40
119.012366691209
100
AcDbArc
 50
272.4823112503482
 51
357.9618703216189
  0
ARC
  5
2E2
102
{ACAD_REACTORS
330
452
102
}
330
1F
100
AcDbEntity
  8
C4
 62
     0
100
AcDbCircle
 10
367.1110061934841
 20
851.7582576629982
 30
0.0
 40
100.0
100
AcDbArc
 50
104.7770198386191
 51
177.9675439000699
  0
ARC
  5
2E3
330
1F
100
AcDbEntity
  8
C4
 62
     0
100
AcDbCircle
 10
800.1287274580709
 20
828.0319550638912
 30
0.0
 40
115.0
100
AcDbArc
 50
1.892595956548918
 51
88.35222521282301
  0
ARC
  5
2E4
330
1F
100
AcDbEntity
  8
C4
 62
     0
100
AcDbCircle
 10
515.8842559375144
 20
912.1195437321301
 30
0.0
 40
180.0
100
AcDbArc
 50
240.0000000000021
 51
299.9999999999979
  0
ARC
  5
2E5
330
1F
100
AcDbEntity
  8
C4
 62
     0
100
AcDbCircle
 10
515.8842559375144
 20
912.1195437321301
 30
0.0
 40
174.7162274863323
100
AcDbArc
 50
241.990673018556
 51
298.8943278256197
  0
CIRCLE
  5
2E6
330
1F
100
AcDbEntity
  8
C5
  6
Continuous
 62
     7
370
    13
100
AcDbCircle
 10
515.8842559375144
 20
852.1195437321301
 30
0.0
 40
110.5
  0
ARC
  5
2E7
330
1F
100
AcDbEntity
  8
C4
 62
     0
100
AcDbCircle
 10
608.8842559374998
 20
75.55707482684704
 30
0.0
 40
2.5
100
AcDbArc
 50
95.71059313757327
 51
180.0
  0
ARC
  5
2E8
330
1F
100
AcDbEntity
  8
C4
 62
     0
100
AcDbCircle
 10
492.0258359723111
 20
4577.813298172481
 30
0.0
 40
4500.0
100
AcDbArc
 50
271.7109588092172
 51
273.5256345366619
  0
ARC
  5
2E9
330
1F
100
AcDbEntity
  8
C4
 62
     0
100
AcDbCircle
 10
569.3698192052061
 20
4584.458346347741
 30
0.0
 40
4500.0
100
AcDbArc
 50
272.5803458237713
 51
274.0604317695664
  0
ARC
  5
2EA
330
1F
100
AcDbEntity
  8
C4
 62
     0
100
AcDbCircle
 10
569.3698192052061
 20
4584.458346347741
 30
0.0
 40
4502.5
100
AcDbArc
 50
272.5911202536822
 51
274.0604317695664
  0
ARC
  5
2EB
330
1F
100
AcDbEntity
  8
C4
 62
     0
100
AcDbCircle
 10
492.0258359723111
 20
4577.813298172481
 30
0.0
 40
4502.5
100
AcDbArc
 50
271.7109588092172
 51
273.536117219215
  0
ARC
  5
2EC
330
1F
100
AcDbEntity
  8
C4
 62
     0
100
AcDbCircle
 10
885.8842559375144
 20
125.6783998444368
 30
0.0
 40
30.0
100
AcDbArc
 50
274.0604317695664
 51
0.0
  0
ARC
  5
2ED
330
1F
100
AcDbEntity
  8
C4
 62
     0
100
AcDbCircle
 10
885.8842559375144
 20
125.6783998444368
 30
0.0
 40
32.5
100
AcDbArc
 50
274.0604317695664
 51
0.0
  0
ARC
  5
2EE
330
1F
100
AcDbEntity
  8
C4
 62
     0
100
AcDbCircle
 10
422.8842559375144
 20
75.55707482684704
 30
0.0
 40
2.5
100
AcDbArc
 50
0.0
 51
84.28940686242544
  0
ARC
  5
2EF
330
1F
100
AcDbEntity
  8
C4
 62
     0
100
AcDbCircle
 10
-584.1157440624856
 20
782.2909115169284
 30
0.0
 40
1500.0
100
AcDbArc
 50
0.0
 51
1.892595956548969
  0
ARC
  5
2F0
330
1F
100
AcDbEntity
  8
C4
 62
     0
100
AcDbCircle
 10
-584.1157440624856
 20
681.9481759473354
 30
0.0
 40
1500.0
100
AcDbArc
 50
358.107404043451
 51
0.0
  0
ARC
  5
2F1
102
{ACAD_REACTORS
330
431
102
}
330
1F
100
AcDbEntity
  8
C4
 62
     0
100
AcDbCircle
 10
386.0387948636771
 20
636.0202340324875
 30
0.0
 40
119.0123666912023
100
AcDbArc
 50
182.0381296783811
 51
267.5176887496518
  0
ARC
  5
2F2
330
1F
100
AcDbEntity
  8
C4
 62
     0
100
AcDbCircle
 10
1765.884255937514
 20
681.9481759473354
 30
0.0
 40
1500.0
100
AcDbArc
 50
180.0
 51
181.8925959565489
  0
ARC
  5
2F3
330
1F
100
AcDbEntity
  8
C4
 62
     0
100
AcDbCircle
 10
2315.884255937514
 20
782.6003146475093
 30
0.0
 40
2050.0
100
AcDbArc
 50
177.9675439000699
 51
180.0
  0
CIRCLE
  5
2F4
330
1F
100
AcDbEntity
  8
C4
 62
     0
100
AcDbCircle
 10
645.8842559375144
 20
1007.11954373213
 30
0.0
 40
5.999999999999996
  0
CIRCLE
  5
2F5
330
1F
100
AcDbEntity
  8
C4
 62
     0
100
AcDbCircle
 10
385.8842559375144
 20
1007.11954373213
 30
0.0
 40
5.999999999999996
  0
ARC
  5
2F6
330
1F
100
AcDbEntity
  8
C4
 62
     0
100
AcDbCircle
 10
911.4349427302686
 20
4551.274866375592
 30
0.0
 40
4500.0
100
AcDbArc
 50
262.0848129999585
 51
263.5431041640132
  0
ARC
  5
2F7
330
1F
100
AcDbEntity
  8
C4
 62
     0
100
AcDbCircle
 10
295.8842559375435
 20
123.8605699731195
 30
0.0
 40
30.0
100
AcDbArc
 50
180.0
 51
262.0848129999585
  0
ARC
  5
2F8
330
1F
100
AcDbEntity
  8
C4
 62
     0
100
AcDbCircle
 10
911.4349427302686
 20
4551.274866375592
 30
0.0
 40
4502.5
100
AcDbArc
 50
262.0848129999585
 51
263.5431041640132
  0
ARC
  5
2F9
330
1F
100
AcDbEntity
  8
C4
 62
     0
100
AcDbCircle
 10
295.8842559375435
 20
123.8605699731195
 30
0.0
 40
32.5
100
AcDbArc
 50
180.0
 51
262.0848129999585
  0
ARC
  5
2FA
330
1F
100
AcDbEntity
  8
C4
 62
     0
100
AcDbCircle
 10
-2485.575967243626
 20
-223.7528754331372
 30
0.0
 40
4200.0
100
AcDbArc
 50
16.4076550296143
 51
16.95233961206707
  0
ARC
  5
2FB
330
1F
100
AcDbEntity
  8
C4
 62
     0
100
AcDbCircle
 10
1503.227645015154
 20
992.1195450252569
 30
0.0
 40
30.0
100
AcDbArc
 50
16.95233961206719
 51
90.0
  0
ARC
  5
2FC
330
1F
100
AcDbEntity
  8
C4
 62
     0
100
AcDbCircle
 10
-2485.575967243626
 20
-223.7528754331372
 30
0.0
 40
4202.499999999999
100
AcDbArc
 50
16.40446352924893
 51
16.95233961206707
  0
ARC
  5
2FD
330
1F
100
AcDbEntity
  8
C4
 62
     0
100
AcDbCircle
 10
1503.227645015154
 20
992.1195450252569
 30
0.0
 40
32.5
100
AcDbArc
 50
16.95233961206711
 51
90.0
  0
LINE
  5
2FE
330
1F
100
AcDbEntity
  8
C4
  6
Continuous
 62
     0
100
AcDbLine
 10
1355.384255937496
 20
1039.119545025292
 30
0.0
 11
1355.384255937496
 21
1026.119537533169
 31
0.0
  0
LINE
  5
2FF
330
1F
100
AcDbEntity
  8
C4
  6
Continuous
 62
     0
100
AcDbLine
 10
1355.38425593751
 20
498.1195597181056
 30
0.0
 11
1355.384255937496
 21
485.1195450252914
 31
0.0
  0
DIMENSION
  5
300
330
1F
100
AcDbEntity
  8
C寸法
 62
     0
370
    13
100
AcDbDimension
  2
*D16
 10
1195.884255937518
 20
502.1195437321305
 30
0.0
 11
1178.384255937518
 21
762.1195437321302
 31
0.0
 70
    32
 71
     5
 42
519.9999999999993
  3
実寸
100
AcDbAlignedDimension
 13
945.8842559375182
 23
1022.11954373213
 33
0.0
 14
821.4612469311094
 24
502.1195437321305
 34
0.0
 50
90.0
100
AcDbRotatedDimension
1001
ACAD
1000
DSTYLE
1002
{
1070
   340
1005
F3
1070
   144
1040
1.0
1002
}
  0
DIMENSION
  5
301
330
1F
100
AcDbEntity
  8
C寸法
 62
     0
370
    13
100
AcDbDimension
  2
*D17
 10
1145.884255937518
 20
517.1195437321301
 30
0.0
 11
1128.384255937518
 21
769.61954373213
 31
0.0
 70
    32
 71
     5
 42
504.9999999999998
  3
実寸
100
AcDbAlignedDimension
 13
945.8842559375182
 23
1022.11954373213
 33
0.0
 14
816.7507823115425
 24
517.1195437321301
 34
0.0
 50
90.0
100
AcDbRotatedDimension
1001
ACAD
1000
DSTYLE
1002
{
1070
   340
1005
F3
1070
   144
1040
1.0
1002
}
  0
DIMENSION
  5
302
330
1F
100
AcDbEntity
  8
C寸法
 62
     0
370
    13
100
AcDbDimension
  2
*D18
 10
1095.884255937514
 20
852.1195437321287
 30
0.0
 11
1078.384255937514
 21
937.1195437321293
 31
0.0
 70
    32
 71
     5
 42
170.0000000000011
  3
実寸
100
AcDbAlignedDimension
 13
867.6117938796492
 23
1022.11954373213
 33
0.0
 14
944.9743521582932
 24
852.1195437321287
 34
0.0
 50
90.0
100
AcDbRotatedDimension
1001
ACAD
1000
DSTYLE
1002
{
1070
   340
1005
F3
1070
   144
1040
1.0
1002
}
  0
DIMENSION
  5
303
330
1F
100
AcDbEntity
  8
C寸法
 62
     0
370
    13
100
AcDbDimension
  2
*D19
 10
1145.884255937518
 20
502.11954373213
 30
0.0
 11
1145.884255937518
 21
428.574156827368
 31
0.0
 70
   160
 71
     5
 42
15.00000000000006
  3
実寸
100
AcDbAlignedDimension
 13
995.8842559375141
 23
517.1195437321301
 33
0.0
 14
995.8842559375212
 24
502.11954373213
 34
0.0
 50
90.0
100
AcDbRotatedDimension
1001
ACAD
1000
DSTYLE
1002
{
1070
   340
1005
F3
1070
   144
1040
1.0
1070
   172
1070
     1
1002
}
  0
DIMENSION
  5
304
330
1F
100
AcDbEntity
  8
C寸法
 62
     0
370
    13
100
AcDbDimension
  2
*D20
 10
915.8842559375144
 20
352.1195437321301
 30
0.0
 11
590.8842559375144
 21
369.6195437321301
 31
0.0
 70
    32
 71
     5
 42
650.0
  3
実寸
100
AcDbAlignedDimension
 13
265.8842559375144
 23
591.5409094119625
 33
0.0
 14
915.8842559375144
 24
590.9769416752838
 34
0.0
100
AcDbRotatedDimension
1001
ACAD
1000
DSTYLE
1002
{
1070
   340
1005
F3
1070
   144
1040
1.0
1002
}
  0
DIMENSION
  5
305
330
1F
100
AcDbEntity
  8
C寸法
 62
     0
370
    13
100
AcDbDimension
  2
*D21
 10
1095.884255937521
 20
77.81954373213023
 30
0.0
 11
1078.384255937521
 21
172.8195437321302
 31
0.0
 70
    32
 71
     5
 42
190.0
  3
実寸
100
AcDbAlignedDimension
 13
945.8842559375141
 23
267.8195437321302
 33
0.0
 14
712.8895712897289
 24
77.81954373213026
 34
0.0
 50
90.0
100
AcDbRotatedDimension
1001
ACAD
1000
DSTYLE
1002
{
1070
   340
1005
F3
1070
   144
1040
1.0
1002
}
  0
DIMENSION
  5
306
330
1F
100
AcDbEntity
  8
C寸法
 62
     0
370
    13
100
AcDbDimension
  2
*D22
 10
515.8842559375144
 20
402.1195437321301
 30
0.0
 11
390.8842559375144
 21
419.6195437321301
 31
0.0
 70
    32
 71
     5
 42
250.0
  3
実寸
100
AcDbAlignedDimension
 13
265.8842559375144
 23
502.11954373213
 33
0.0
 14
515.8842559375144
 24
502.11954373213
 34
0.0
100
AcDbRotatedDimension
1001
ACAD
1000
DSTYLE
1002
{
1070
   340
1005
F3
1070
   144
1040
1.0
1002
}
  0
LINE
  5
307
330
1F
100
AcDbEntity
  8
C5
  6
CENTER
 62
     7
 48
10.0
370
    13
100
AcDbLine
 10
715.8842559374925
 20
954.618883040311
 30
0.0
 11
715.8842559374889
 21
1049.118883040316
 31
0.0
  0
LINE
  5
308
330
1F
100
AcDbEntity
  8
C5
  6
CENTER
 62
     7
 48
10.0
370
    13
100
AcDbLine
 10
743.922885959203
 20
987.618883040316
 30
0.0
 11
687.2119745892296
 21
987.6188830403139
 31
0.0
  0
CIRCLE
  5
309
330
1F
100
AcDbEntity
  8
C5
 62
     7
100
AcDbCircle
 10
715.8842559374925
 20
987.6188830403139
 30
0.0
 40
17.99999999999997
  0
DIMENSION
  5
30B
330
1F
100
AcDbEntity
  8
C5
 62
     7
370
    13
100
AcDbDimension
  2
*D24
 10
1045.884255937514
 20
987.618883040316
 30
0.0
 11
1045.884255937514
 21
1115.214781827368
 31
0.0
 70
   160
 71
     5
 42
34.5006606918139
  3
実寸
100
AcDbAlignedDimension
 13
867.5908489034366
 23
1022.11954373213
 33
0.0
 14
746.5576129655452
 24
987.618883040316
 34
0.0
 50
90.0
100
AcDbRotatedDimension
1001
ACAD
1000
DSTYLE
1002
{
1070
   340
1005
F3
1070
   144
1040
1.0
1070
   172
1070
     1
1002
}
  0
DIMENSION
  5
30C
330
1F
100
AcDbEntity
  8
C寸法
 62
     0
370
    13
100
AcDbDimension
  2
*D25
 10
1045.884255937521
 20
252.8195437321302
 30
0.0
 11
1028.384255937521
 21
179.2741568273683
 31
0.0
 70
    32
 71
     5
 42
15.0
  3
実寸
100
AcDbAlignedDimension
 13
925.5168174076853
 23
267.8195437321302
 33
0.0
 14
904.927200591292
 24
252.8195437321302
 34
0.0
 50
90.0
100
AcDbRotatedDimension
1001
ACAD
1000
DSTYLE
1002
{
1070
   340
1005
F3
1070
   172
1070
     1
1070
   144
1040
1.0
1002
}
  0
LINE
  5
30D
330
1F
100
AcDbEntity
  8
C4
 62
     0
100
AcDbLine
 10
1370.341426221158
 20
831.8299478495499
 30
0.0
 11
1370.315654209337
 21
951.0497353995418
 31
0.0
  0
DIMENSION
  5
310
330
1F
100
AcDbEntity
  8
C寸法
 62
     0
370
    13
100
AcDbDimension
  2
*D26
 10
425.4668043995769
 20
692.1470241351899
 30
0.0
 11
529.9533933948677
 21
692.1470241351899
 31
0.0
 70
   160
  1
Φ<>
 71
     5
 42
180.8103317708083
 52
-270.0
  3
実寸
100
AcDbAlignedDimension
 13
606.2771361703852
 23
852.1183853583502
 33
0.0
 14
425.4668043995769
 24
851.8725580724811
 34
0.0
 50
180.0
100
AcDbRotatedDimension
1001
ACAD
1000
DSTYLE
1002
{
1070
   271
1070
     0
1070
   340
1005
F3
1070
   144
1040
1.0
1002
}
  0
CIRCLE
  5
39D
330
1F
100
AcDbEntity
  8
C5
  6
DASHED
 62
     7
 48
10.0
370
    13
100
AcDbCircle
 10
317.2823490208777
 20
987.6188830403139
 30
0.0
 40
17.99999999999997
  0
LINE
  5
39E
330
1F
100
AcDbEntity
  8
C5
  6
CENTER
 62
     7
 48
10.0
370
    13
100
AcDbLine
 10
317.2823490208777
 20
954.618883040311
 30
0.0
 11
317.2823490208814
 21
1049.118883040316
 31
0.0
  0
LINE
  5
39F
330
1F
100
AcDbEntity
  8
C5
  6
CENTER
 62
     7
 48
10.0
370
    13
100
AcDbLine
 10
289.2437189991673
 20
987.618883040316
 30
0.0
 11
345.9546303691407
 21
987.6188830403139
 31
0.0
  0
DIMENSION
  5
3A0
330
1F
100
AcDbEntity
  8
C寸法
 62
     7
370
    13
100
AcDbDimension
  2
*D27
 10
715.9039465382036
 20
1118.173902995073
 30
0.0
 11
529.2125711663763
 21
1118.173902995073
 31
0.0
 70
   160
  1
400
 71
     5
 42
398.6268924917801
  3
JIS-1
100
AcDbAlignedDimension
 13
317.2770540464235
 23
1046.056935478377
 33
0.0
 14
715.9039465382036
 24
1045.968346620832
 34
0.0
100
AcDbRotatedDimension
1001
ACAD
1000
DSTYLE
1002
{
1070
   147
1040
5.0
1070
   271
1070
     0
1070
   140
1040
25.0
1070
   340
1005
F3
1070
    41
1040
25.0
1070
    42
1040
5.0
1002
}
  0
DIMENSION
  5
3AD
330
1F
100
AcDbEntity
  8
0
370
    13
100
AcDbDimension
  2
*D28
 10
734.4401290579765
 20
1081.899202790909
 30
0.0
 11
869.0827509673367
 21
1081.899202790909
 31
0.0
 70
   160
  1
Φ<>水栓穴
 71
     5
 42
36.27581800233338
  3
JIS-1
100
AcDbAlignedDimension
 13
698.1643110556431
 23
987.57256447493
 33
0.0
 14
734.4401290579765
 24
987.57256447493
 34
0.0
100
AcDbRotatedDimension
1001
ACAD
1000
DSTYLE
1002
{
1070
    77
1070
     3
1070
    73
1070
     1
1070
    74
1070
     1
1070
   147
1040
5.0
1070
   271
1070
     0
1070
   340
1005
F3
1070
   140
1040
25.0
1070
    41
1040
25.0
1002
}
  0
DIMENSION
  5
42F
102
{ACAD_REACTORS
330
431
102
}
102
{ACAD_XDICTIONARY
360
430
102
}
330
1F
100
AcDbEntity
  8
C寸法
 62
     7
370
    13
100
AcDbDimension
  2
*D36
 10
386.0387948636771
 20
636.0202340324875
 30
0.0
 11
355.4281704706409
 21
612.8893936363208
 31
0.0
 70
   164
  1
R115
 71
     5
 42
119.0123666912023
  3
JIS-1
100
AcDbRadialDimension
 15
291.0869135179466
 25
564.2700866155831
 35
0.0
 40
0.0
1001
ACAD_DSTYLE_DIMRADIAL_EXTENSION
1070
   387
1070
     1
1070
   388
1040
3.177164727060156
1070
   390
1040
4.669064476006817
1001
ACAD
1000
DSTYLE
1002
{
1070
   147
1040
5.0
1070
   140
1040
25.0
1070
   340
1005
F3
1070
    41
1040
25.0
1070
   344
1005
90
1070
   173
1070
     1
1002
}
  0
DIMENSION
  5
43A
102
{ACAD_REACTORS
330
43C
102
}
102
{ACAD_XDICTIONARY
360
43B
102
}
330
1F
100
AcDbEntity
  8
C寸法
 62
     7
370
    13
100
AcDbDimension
  2
*D37
 10
800.8842559375144
 20
617.1195437321301
 30
0.0
 11
824.7421806676252
 21
596.061963263834
 31
0.0
 70
   164
  1
<>
 71
     5
 42
115.0
  3
JIS-1
100
AcDbRadialDimension
 15
887.1040076309279
 25
541.0199089240305
 35
0.0
 40
0.0
1001
ACAD_DSTYLE_DIMRADIAL_EXTENSION
1070
   387
1070
     1
1070
   388
1040
4.71238898038469
1070
   390
1040
0.0
1001
ACAD
1000
DSTYLE
1002
{
1070
   147
1040
5.0
1070
   140
1040
25.0
1070
   340
1005
F3
1070
    41
1040
25.0
1070
   344
1005
90
1070
   173
1070
     1
1002
}
  0
DIMENSION
  5
450
102
{ACAD_REACTORS
330
452
102
}
102
{ACAD_XDICTIONARY
360
451
102
}
330
1F
100
AcDbEntity
  8
C寸法
 62
     7
370
    13
100
AcDbDimension
  2
*D39
 10
367.1110061934841
 20
851.7582576629982
 30
0.0
 11
329.5018361302758
 21
869.8918659682187
 31
0.0
 70
   164
  1
<>
 71
     5
 42
100.0
  3
JIS-1
100
AcDbRadialDimension
 15
277.034714850859
 25
895.189372522722
 35
0.0
 40
0.0
1001
ACAD_DSTYLE_DIMRADIAL_EXTENSION
1070
   387
1070
     1
1070
   388
1040
1.828703976611321
1070
   390
1040
3.10611960274377
1001
ACAD
1000
DSTYLE
1002
{
1070
   147
1040
5.0
1070
   140
1040
25.0
1070
   340
1005
F3
1070
    41
1040
25.0
1070
   344
1005
90
1070
   173
1070
     1
1002
}
  0
DIMENSION
  5
45B
102
{ACAD_XDICTIONARY
360
45C
102
}
330
1F
100
AcDbEntity
  8
C寸法
 62
     7
370
    13
100
AcDbDimension
  2
*D40
 10
855.8842559375144
 20
962.6698443693011
 30
0.0
 11
980.2579895560245
 21
1045.590914901371
 31
0.0
 70
   164
  1
<>
 71
     5
 42
59.99999999999993
  3
JIS-1
100
AcDbRadialDimension
 15
905.8063013323498
 25
995.9533144948151
 35
0.0
 40
0.0
1001
ACAD_DSTYLE_DIMRADIAL_EXTENSION
1070
   387
1070
     1
1070
   388
1040
0.0
1070
   390
1040
1.570796326794897
1001
ACAD
1000
DSTYLE
1002
{
1070
   147
1040
5.0
1070
   140
1040
25.0
1070
   340
1005
F3
1070
    41
1040
25.0
1070
   344
1005
90
1070
   173
1070
     1
1002
}
1001
ACAD_DSTYLE_DIMFLIPARROW_SYMBOL
1070
   385
1070
     0
1001
ACAD_DSTYLE_DIMFLIPARROW_WHICH_SYMBOL
1070
   386
1070
     3
  0
ENDSEC
  0
SECTION
  2
OBJECTS
  0
DICTIONARY
  5
C
330
0
100
AcDbDictionary
281
     1
  3
ACAD_COLOR
350
3D0
  3
ACAD_DETAILVIEWSTYLE
350
DA
  3
ACAD_GROUP
350
D
  3
ACAD_IMAGE_VARS
350
6A
  3
ACAD_LAYOUT
350
1A
  3
ACAD_MATERIAL
350
97
  3
ACAD_MLEADERSTYLE
350
3F
  3
ACAD_MLINESTYLE
350
17
  3
ACAD_PLOTSETTINGS
350
19
  3
ACAD_PLOTSTYLENAME
350
E
  3
ACAD_SCALELIST
350
40
  3
ACAD_SECTIONVIEWSTYLE
350
DB
  3
ACAD_TABLESTYLE
350
3B
  3
ACDB_RECOMPOSE_DATA
350
47F
  3
AcDbVariableDictionary
350
3D
  3
APPDATA
350
96
  0
DICTIONARY
  5
256
330
2
100
AcDbDictionary
280
     1
281
     1
  3
ACAD_LAYERSTATES
360
257
  0
DICTIONARY
  5
3BF
330
3BE
100
AcDbDictionary
280
     1
281
     1
  3
ADSK_XREC_LAYER_RECONCILED
360
3C0
  0
DICTIONARY
  5
430
330
42F
100
AcDbDictionary
280
     1
281
     1
  3
ACAD_DIMASSOC
360
431
  0
DICTIONARY
  5
43B
330
43A
100
AcDbDictionary
280
     1
281
     1
  3
ACAD_DIMASSOC
360
43C
  0
DICTIONARY
  5
451
330
450
100
AcDbDictionary
280
     1
281
     1
  3
ACAD_DIMASSOC
360
452
  0
DICTIONARY
  5
45C
330
45B
100
AcDbDictionary
280
     1
281
     1
  0
DICTIONARY
  5
3D0
102
{ACAD_REACTORS
330
C
102
}
330
C
100
AcDbDictionary
281
     1
  0
DICTIONARY
  5
DA
102
{ACAD_REACTORS
330
C
102
}
330
C
100
AcDbDictionary
281
     1
  0
DICTIONARY
  5
D
102
{ACAD_REACTORS
330
C
102
}
330
C
100
AcDbDictionary
281
     1
  0
RASTERVARIABLES
  5
6A
102
{ACAD_REACTORS
330
C
102
}
330
C
100
AcDbRasterVariables
 90
        0
 70
     1
 71
     1
 72
     1
  0
DICTIONARY
  5
1A
102
{ACAD_REACTORS
330
C
102
}
330
C
100
AcDbDictionary
281
     1
  3
Model
350
22
  3
Sheet1
350
1E
  3
Sheet2
350
26
  0
DICTIONARY
  5
97
102
{ACAD_REACTORS
330
C
102
}
330
C
100
AcDbDictionary
281
     1
  3
ByBlock
350
99
  3
ByLayer
350
98
  3
Global
350
9A
  0
DICTIONARY
  5
3F
102
{ACAD_REACTORS
330
C
102
}
330
C
100
AcDbDictionary
281
     1
  3
Standard
350
DC
  0
DICTIONARY
  5
17
102
{ACAD_REACTORS
330
C
102
}
330
C
100
AcDbDictionary
281
     1
  3
Standard
350
18
  0
DICTIONARY
  5
19
102
{ACAD_REACTORS
330
C
102
}
330
C
100
AcDbDictionary
281
     1
  0
ACDBDICTIONARYWDFLT
  5
E
102
{ACAD_REACTORS
330
C
102
}
330
C
100
AcDbDictionary
281
     1
  3
Normal
350
F
100
AcDbDictionaryWithDefault
340
F
  0
DICTIONARY
  5
40
102
{ACAD_REACTORS
330
C
102
}
330
C
100
AcDbDictionary
281
     1
  3
A0
350
41
  3
A1
350
42
  3
A2
350
43
  3
A3
350
44
  3
A4
350
45
  3
A5
350
46
  3
A6
350
47
  3
A7
350
48
  3
A8
350
49
  3
A9
350
4A
  3
B0
350
4B
  3
B1
350
4C
  3
B2
350
4D
  3
B3
350
4E
  3
B4
350
4F
  3
B5
350
50
  3
B6
350
51
  3
B7
350
52
  3
B8
350
53
  3
B9
350
54
  3
C0
350
55
  3
C1
350
56
  3
C2
350
57
  3
C3
350
58
  3
C4
350
59
  3
C5
350
5A
  3
C6
350
5B
  3
C7
350
5C
  3
C8
350
5D
  3
C9
350
5E
  3
D0
350
5F
  3
D1
350
60
  3
D2
350
61
  0
DICTIONARY
  5
DB
102
{ACAD_REACTORS
330
C
102
}
330
C
100
AcDbDictionary
281
     1
  0
DICTIONARY
  5
3B
102
{ACAD_REACTORS
330
C
102
}
330
C
100
AcDbDictionary
281
     1
  3
Standard
350
3C
  0
XRECORD
  5
47F
102
{ACAD_REACTORS
330
C
102
}
330
C
100
AcDbXrecord
280
     1
 90
        1
330
3C
  0
DICTIONARY
  5
3D
102
{ACAD_REACTORS
330
C
102
}
330
C
100
AcDbDictionary
281
     1
  3
CANNOSCALE
350
62
  3
CMLEADERSTYLE
350
469
  3
CTABLESTYLE
350
3E
  3
LIGHTSINBLOCKS
350
6F
  3
XCLIPFRAME
350
70
  0
DICTIONARY
  5
96
102
{ACAD_REACTORS
330
C
102
}
330
C
100
AcDbDictionary
281
     1
  0
DICTIONARY
  5
257
102
{ACAD_REACTORS
330
256
102
}
330
256
100
AcDbDictionary
281
     1
  3
ARGON_LAYERP_1
350
3BC
  0
XRECORD
  5
3C0
102
{ACAD_REACTORS
330
3BF
102
}
330
3BF
100
AcDbXrecord
280
     1
290
     1
  0
DIMASSOC
  5
431
102
{ACAD_REACTORS
330
430
102
}
330
430
100
AcDbDimAssoc
330
42F
 90
        2
 70
     0
 71
     1
  1
AcDbOsnapPointRef
 72
     3
331
2F1
 73
     0
 91
        0
 40
0.0
 10
0.0
 20
0.0
 30
0.0
 75
     0
  0
DIMASSOC
  5
43C
102
{ACAD_REACTORS
330
43B
102
}
330
43B
100
AcDbDimAssoc
330
43A
 90
        2
 70
     0
 71
     1
  1
AcDbOsnapPointRef
 72
     3
331
2CC
 73
     0
 91
        0
 40
0.0
 10
0.0
 20
0.0
 30
0.0
 75
     0
  0
DIMASSOC
  5
452
102
{ACAD_REACTORS
330
451
102
}
330
451
100
AcDbDimAssoc
330
450
 90
        2
 70
     0
 71
     1
  1
AcDbOsnapPointRef
 72
     3
331
2E2
 73
     0
 91
        0
 40
0.0
 10
0.0
 20
0.0
 30
0.0
 75
     0
  0
LAYOUT
  5
22
102
{ACAD_REACTORS
330
1A
102
}
330
1A
100
AcDbPlotSettings
  1

  2
none_device
  4
ISO_A3_(420.00_x_297.00_MM)
  6

 40
7.5
 41
20.0
 42
7.5
 43
20.0
 44
420.0
 45
297.0
 46
20.78282828282826
 47
0.0
 48
0.0
 49
0.0
140
0.0
141
0.0
142
1.0
143
1.155642023346303
 70
  1204
 72
     1
 73
     0
 74
     1
  7
monochrome.ctb
 75
     0
 76
     0
 77
     2
 78
   300
147
0.8653198653198654
148
-134.1869158878504
149
0.0
100
AcDbLayout
  1
Model
 70
     1
 71
     0
 10
0.0
 20
0.0
 11
420.0
 21
297.0
 12
0.0
 22
0.0
 32
0.0
 14
13.17293928923982
 24
12.36078143228923
 34
0.0
 15
1813.228598531786
 25
1213.909269339783
 35
0.0
146
0.0
 13
0.0
 23
0.0
 33
0.0
 16
1.0
 26
0.0
 36
0.0
 17
0.0
 27
1.0
 37
0.0
 76
     0
330
1F
331
29
  0
LAYOUT
  5
1E
102
{ACAD_REACTORS
330
1A
102
}
330
1A
100
AcDbPlotSettings
  1

  2
none_device
  4

  6

 40
0.0
 41
0.0
 42
0.0
 43
0.0
 44
0.0
 45
0.0
 46
0.0
 47
0.0
 48
0.0
 49
0.0
140
0.0
141
0.0
142
1.0
143
1.0
 70
   688
 72
     0
 73
     0
 74
     5
  7

 75
    16
 76
     0
 77
     2
 78
   300
147
1.0
148
0.0
149
0.0
100
AcDbLayout
  1
Sheet1
 70
     1
 71
     1
 10
0.0
 20
0.0
 11
420.0
 21
297.0
 12
0.0
 22
0.0
 32
0.0
 14
1.000000000000000E+20
 24
1.000000000000000E+20
 34
1.000000000000000E+20
 15
-1.000000000000000E+20
 25
-1.000000000000000E+20
 35
-1.000000000000000E+20
146
0.0
 13
0.0
 23
0.0
 33
0.0
 16
1.0
 26
0.0
 36
0.0
 17
0.0
 27
1.0
 37
0.0
 76
     0
330
1B
  0
LAYOUT
  5
26
102
{ACAD_REACTORS
330
1A
102
}
330
1A
100
AcDbPlotSettings
  1

  2
none_device
  4

  6

 40
0.0
 41
0.0
 42
0.0
 43
0.0
 44
0.0
 45
0.0
 46
0.0
 47
0.0
 48
0.0
 49
0.0
140
0.0
141
0.0
142
1.0
143
1.0
 70
   688
 72
     0
 73
     0
 74
     5
  7

 75
    16
 76
     0
 77
     2
 78
   300
147
1.0
148
0.0
149
0.0
100
AcDbLayout
  1
Sheet2
 70
     1
 71
     2
 10
0.0
 20
0.0
 11
0.0
 21
0.0
 12
0.0
 22
0.0
 32
0.0
 14
0.0
 24
0.0
 34
0.0
 15
0.0
 25
0.0
 35
0.0
146
0.0
 13
0.0
 23
0.0
 33
0.0
 16
1.0
 26
0.0
 36
0.0
 17
0.0
 27
1.0
 37
0.0
 76
     0
330
23
  0
MATERIAL
  5
99
102
{ACAD_REACTORS
330
97
102
}
330
97
100
AcDbMaterial
  1
ByBlock
  0
MATERIAL
  5
98
102
{ACAD_REACTORS
330
97
102
}
330
97
100
AcDbMaterial
  1
ByLayer
  0
MATERIAL
  5
9A
102
{ACAD_REACTORS
330
97
102
}
330
97
100
AcDbMaterial
  1
Global
  0
MLEADERSTYLE
  5
DC
102
{ACAD_REACTORS
330
3F
102
}
330
3F
100
AcDbMLeaderStyle
170
     2
171
     1
172
     0
 90
        2
 40
0.0
 41
0.0
173
     1
 91
-1056964608
340
14
 92
       -2
290
     1
 42
2.0
291
     1
 43
8.0
  3
Standard
341
0
 44
4.0
300

342
11
174
     1
178
     6
175
     1
176
     0
 93
-1056964608
 45
4.0
292
     0
297
     0
 46
4.0
343
0
 94
-1056964608
 47
1.0
 49
1.0
140
1.0
293
     1
141
0.0
294
     1
177
     0
142
1.0
295
     0
296
     0
143
3.75
1001
ACAD_MLEADERVER
1070
     2
  0
MLINESTYLE
  5
18
102
{ACAD_REACTORS
330
17
102
}
330
17
100
AcDbMlineStyle
  2
Standard
 70
     0
  3

 62
   256
 51
90.0
 52
90.0
 71
     2
 49
0.5
 62
   256
  6
BYLAYER
 49
-0.5
 62
   256
  6
BYLAYER
  0
ACDBPLACEHOLDER
  5
F
102
{ACAD_REACTORS
330
E
102
}
330
E
  0
SCALE
  5
41
102
{ACAD_REACTORS
330
40
102
}
330
40
100
AcDbScale
 70
     0
300
1:1
140
1.0
141
1.0
290
     1
  0
SCALE
  5
42
102
{ACAD_REACTORS
330
40
102
}
330
40
100
AcDbScale
 70
     0
300
1:2
140
1.0
141
2.0
290
     0
  0
SCALE
  5
43
102
{ACAD_REACTORS
330
40
102
}
330
40
100
AcDbScale
 70
     0
300
1:4
140
1.0
141
4.0
290
     0
  0
SCALE
  5
44
102
{ACAD_REACTORS
330
40
102
}
330
40
100
AcDbScale
 70
     0
300
1:5
140
1.0
141
5.0
290
     0
  0
SCALE
  5
45
102
{ACAD_REACTORS
330
40
102
}
330
40
100
AcDbScale
 70
     0
300
1:8
140
1.0
141
8.0
290
     0
  0
SCALE
  5
46
102
{ACAD_REACTORS
330
40
102
}
330
40
100
AcDbScale
 70
     0
300
1:10
140
1.0
141
10.0
290
     0
  0
SCALE
  5
47
102
{ACAD_REACTORS
330
40
102
}
330
40
100
AcDbScale
 70
     0
300
1:16
140
1.0
141
16.0
290
     0
  0
SCALE
  5
48
102
{ACAD_REACTORS
330
40
102
}
330
40
100
AcDbScale
 70
     0
300
1:20
140
1.0
141
20.0
290
     0
  0
SCALE
  5
49
102
{ACAD_REACTORS
330
40
102
}
330
40
100
AcDbScale
 70
     0
300
1:30
140
1.0
141
30.0
290
     0
  0
SCALE
  5
4A
102
{ACAD_REACTORS
330
40
102
}
330
40
100
AcDbScale
 70
     0
300
1:40
140
1.0
141
40.0
290
     0
  0
SCALE
  5
4B
102
{ACAD_REACTORS
330
40
102
}
330
40
100
AcDbScale
 70
     0
300
1:50
140
1.0
141
50.0
290
     0
  0
SCALE
  5
4C
102
{ACAD_REACTORS
330
40
102
}
330
40
100
AcDbScale
 70
     0
300
1:100
140
1.0
141
100.0
290
     0
  0
SCALE
  5
4D
102
{ACAD_REACTORS
330
40
102
}
330
40
100
AcDbScale
 70
     0
300
2:1
140
2.0
141
1.0
290
     0
  0
SCALE
  5
4E
102
{ACAD_REACTORS
330
40
102
}
330
40
100
AcDbScale
 70
     0
300
4:1
140
4.0
141
1.0
290
     0
  0
SCALE
  5
4F
102
{ACAD_REACTORS
330
40
102
}
330
40
100
AcDbScale
 70
     0
300
8:1
140
8.0
141
1.0
290
     0
  0
SCALE
  5
50
102
{ACAD_REACTORS
330
40
102
}
330
40
100
AcDbScale
 70
     0
300
10:1
140
10.0
141
1.0
290
     0
  0
SCALE
  5
51
102
{ACAD_REACTORS
330
40
102
}
330
40
100
AcDbScale
 70
     0
300
100:1
140
100.0
141
1.0
290
     0
  0
SCALE
  5
52
102
{ACAD_REACTORS
330
40
102
}
330
40
100
AcDbScale
 70
     0
300
1/128" = 1'-0"
140
0.0078125
141
12.0
290
     0
  0
SCALE
  5
53
102
{ACAD_REACTORS
330
40
102
}
330
40
100
AcDbScale
 70
     0
300
1/64" = 1'-0"
140
0.015625
141
12.0
290
     0
  0
SCALE
  5
54
102
{ACAD_REACTORS
330
40
102
}
330
40
100
AcDbScale
 70
     0
300
1/32" = 1'-0"
140
0.03125
141
12.0
290
     0
  0
SCALE
  5
55
102
{ACAD_REACTORS
330
40
102
}
330
40
100
AcDbScale
 70
     0
300
1/16" = 1'-0"
140
0.0625
141
12.0
290
     0
  0
SCALE
  5
56
102
{ACAD_REACTORS
330
40
102
}
330
40
100
AcDbScale
 70
     0
300
3/32" = 1'-0"
140
0.09375
141
12.0
290
     0
  0
SCALE
  5
57
102
{ACAD_REACTORS
330
40
102
}
330
40
100
AcDbScale
 70
     0
300
1/8" = 1'-0"
140
0.125
141
12.0
290
     0
  0
SCALE
  5
58
102
{ACAD_REACTORS
330
40
102
}
330
40
100
AcDbScale
 70
     0
300
3/16" = 1'-0"
140
0.1875
141
12.0
290
     0
  0
SCALE
  5
59
102
{ACAD_REACTORS
330
40
102
}
330
40
100
AcDbScale
 70
     0
300
1/4" = 1'-0"
140
0.25
141
12.0
290
     0
  0
SCALE
  5
5A
102
{ACAD_REACTORS
330
40
102
}
330
40
100
AcDbScale
 70
     0
300
3/8" = 1'-0"
140
0.375
141
12.0
290
     0
  0
SCALE
  5
5B
102
{ACAD_REACTORS
330
40
102
}
330
40
100
AcDbScale
 70
     0
300
1/2" = 1'-0"
140
0.5
141
12.0
290
     0
  0
SCALE
  5
5C
102
{ACAD_REACTORS
330
40
102
}
330
40
100
AcDbScale
 70
     0
300
3/4" = 1'-0"
140
0.75
141
12.0
290
     0
  0
SCALE
  5
5D
102
{ACAD_REACTORS
330
40
102
}
330
40
100
AcDbScale
 70
     0
300
1" = 1'-0"
140
1.0
141
12.0
290
     0
  0
SCALE
  5
5E
102
{ACAD_REACTORS
330
40
102
}
330
40
100
AcDbScale
 70
     0
300
1-1/2" = 1'-0"
140
1.5
141
12.0
290
     0
  0
SCALE
  5
5F
102
{ACAD_REACTORS
330
40
102
}
330
40
100
AcDbScale
 70
     0
300
3" = 1'-0"
140
3.0
141
12.0
290
     0
  0
SCALE
  5
60
102
{ACAD_REACTORS
330
40
102
}
330
40
100
AcDbScale
 70
     0
300
6" = 1'-0"
140
6.0
141
12.0
290
     0
  0
SCALE
  5
61
102
{ACAD_REACTORS
330
40
102
}
330
40
100
AcDbScale
 70
     0
300
1'-0" = 1'-0"
140
12.0
141
12.0
290
     0
  0
TABLESTYLE
  5
3C
102
{ACAD_REACTORS
330
3B
102
}
102
{ACAD_XDICTIONARY
360
47B
102
}
330
3B
100
AcDbTableStyle
  3
Standard
 70
     0
 71
     0
 40
1.5
 41
1.5
280
     0
281
     0
  7
Standard
140
4.5
170
     2
 62
     0
 63
   257
283
     0
274
    -2
284
     1
 64
     0
275
    -2
285
     1
 65
     0
276
    -2
286
     1
 66
     0
277
    -2
287
     1
 67
     0
278
    -2
288
     1
 68
     0
279
    -2
289
     1
 69
     0
  7
Standard
140
6.0
170
     5
 62
     0
 63
   257
283
     0
274
    -2
284
     1
 64
     0
275
    -2
285
     1
 65
     0
276
    -2
286
     1
 66
     0
277
    -2
287
     1
 67
     0
278
    -2
288
     1
 68
     0
279
    -2
289
     1
 69
     0
  7
Standard
140
4.5
170
     5
 62
     0
 63
   257
283
     0
274
    -2
284
     1
 64
     0
275
    -2
285
     1
 65
     0
276
    -2
286
     1
 66
     0
277
    -2
287
     1
 67
     0
278
    -2
288
     1
 68
     0
279
    -2
289
     1
 69
     0
  0
DICTIONARYVAR
  5
62
102
{ACAD_REACTORS
330
3D
102
}
330
3D
100
DictionaryVariables
280
     0
  1
1:1
  0
DICTIONARYVAR
  5
469
102
{ACAD_REACTORS
330
3D
102
}
330
3D
100
DictionaryVariables
280
     0
  1
Standard
  0
DICTIONARYVAR
  5
3E
102
{ACAD_REACTORS
330
3D
102
}
330
3D
100
DictionaryVariables
280
     0
  1
Standard
  0
DICTIONARYVAR
  5
6F
102
{ACAD_REACTORS
330
3D
102
}
330
3D
100
DictionaryVariables
280
     0
  1
0
  0
DICTIONARYVAR
  5
70
102
{ACAD_REACTORS
330
3D
102
}
330
3D
100
DictionaryVariables
280
     0
  1
0
  0
XRECORD
  5
3BC
102
{ACAD_REACTORS
330
257
102
}
330
257
100
AcDbXrecord
280
     1
 91
     1023
301

290
     0
302
0
330
10
 90
        8
 62
     7
370
    -3
331
16
  1
Normal
330
7E
 90
        0
 62
     7
370
    -3
331
16
  1
Normal
330
DE
 90
        8
 62
     1
370
    -3
331
E0
  1
Normal
330
E1
 90
        8
 62
     3
370
    -3
331
16
  1
Normal
330
E2
 90
        8
 62
     4
370
    -3
331
16
  1
Normal
330
E3
 90
        8
 62
     2
370
    -3
331
E4
  1
Normal
  0
DICTIONARY
  5
47B
330
3C
100
AcDbDictionary
280
     1
281
     1
  3
ACAD_ROUNDTRIP_2008_TABLESTYLE_CELLSTYLEMAP
360
47D
  3
ACAD_XREC_ROUNDTRIP
360
47C
  0
CELLSTYLEMAP
  5
47D
102
{ACAD_REACTORS
330
47B
102
}
330
47B
100
AcDbCellStyleMap
 90
        3
300
CELLSTYLE
  1
TABLEFORMAT_BEGIN
 90
        5
170
     1
 91
        0
 92
    32768
 62
   257
 93
        1
300
CONTENTFORMAT
  1
CONTENTFORMAT_BEGIN
 90
        0
 91
        0
 92
      512
 93
        0
300

 40
0.0
140
1.0
 94
        5
 62
     0
340
11
144
6.0
309
CONTENTFORMAT_END
171
     1
301
MARGIN
  1
CELLMARGIN_BEGIN
 40
1.5
 40
1.5
 40
1.5
 40
1.5
 40
0.18
 40
0.18
309
CELLMARGIN_END
 94
        6
 95
        1
302
GRIDFORMAT
  1
GRIDFORMAT_BEGIN
 90
        0
 91
        1
 62
     0
 92
       -2
340
0
 93
        0
 40
0.045
309
GRIDFORMAT_END
 95
        2
302
GRIDFORMAT
  1
GRIDFORMAT_BEGIN
 90
        0
 91
        1
 62
     0
 92
       -2
340
0
 93
        0
 40
0.045
309
GRIDFORMAT_END
 95
        4
302
GRIDFORMAT
  1
GRIDFORMAT_BEGIN
 90
        0
 91
        1
 62
     0
 92
       -2
340
0
 93
        0
 40
0.045
309
GRIDFORMAT_END
 95
        8
302
GRIDFORMAT
  1
GRIDFORMAT_BEGIN
 90
        0
 91
        1
 62
     0
 92
       -2
340
0
 93
        0
 40
0.045
309
GRIDFORMAT_END
 95
       16
302
GRIDFORMAT
  1
GRIDFORMAT_BEGIN
 90
        0
 91
        1
 62
     0
 92
       -2
340
0
 93
        0
 40
0.045
309
GRIDFORMAT_END
 95
       32
302
GRIDFORMAT
  1
GRIDFORMAT_BEGIN
 90
        0
 91
        1
 62
     0
 92
       -2
340
0
 93
        0
 40
0.045
309
GRIDFORMAT_END
309
TABLEFORMAT_END
  1
CELLSTYLE_BEGIN
 90
        1
 91
        1
300
_TITLE
309
CELLSTYLE_END
300
CELLSTYLE
  1
TABLEFORMAT_BEGIN
 90
        5
170
     1
 91
        0
 92
        0
 62
   257
 93
        1
300
CONTENTFORMAT
  1
CONTENTFORMAT_BEGIN
 90
        0
 91
        0
 92
      512
 93
        0
300

 40
0.0
140
1.0
 94
        5
 62
     0
340
11
144
4.5
309
CONTENTFORMAT_END
171
     1
301
MARGIN
  1
CELLMARGIN_BEGIN
 40
1.5
 40
1.5
 40
1.5
 40
1.5
 40
0.18
 40
0.18
309
CELLMARGIN_END
 94
        6
 95
        1
302
GRIDFORMAT
  1
GRIDFORMAT_BEGIN
 90
        0
 91
        1
 62
     0
 92
       -2
340
0
 93
        0
 40
0.045
309
GRIDFORMAT_END
 95
        2
302
GRIDFORMAT
  1
GRIDFORMAT_BEGIN
 90
        0
 91
        1
 62
     0
 92
       -2
340
0
 93
        0
 40
0.045
309
GRIDFORMAT_END
 95
        4
302
GRIDFORMAT
  1
GRIDFORMAT_BEGIN
 90
        0
 91
        1
 62
     0
 92
       -2
340
0
 93
        0
 40
0.045
309
GRIDFORMAT_END
 95
        8
302
GRIDFORMAT
  1
GRIDFORMAT_BEGIN
 90
        0
 91
        1
 62
     0
 92
       -2
340
0
 93
        0
 40
0.045
309
GRIDFORMAT_END
 95
       16
302
GRIDFORMAT
  1
GRIDFORMAT_BEGIN
 90
        0
 91
        1
 62
     0
 92
       -2
340
0
 93
        0
 40
0.045
309
GRIDFORMAT_END
 95
       32
302
GRIDFORMAT
  1
GRIDFORMAT_BEGIN
 90
        0
 91
        1
 62
     0
 92
       -2
340
0
 93
        0
 40
0.045
309
GRIDFORMAT_END
309
TABLEFORMAT_END
  1
CELLSTYLE_BEGIN
 90
        2
 91
        1
300
_HEADER
309
CELLSTYLE_END
300
CELLSTYLE
  1
TABLEFORMAT_BEGIN
 90
        5
170
     1
 91
        0
 92
        0
 62
   257
 93
        1
300
CONTENTFORMAT
  1
CONTENTFORMAT_BEGIN
 90
        0
 91
        0
 92
      512
 93
        0
300

 40
0.0
140
1.0
 94
        2
 62
     0
340
11
144
4.5
309
CONTENTFORMAT_END
171
     1
301
MARGIN
  1
CELLMARGIN_BEGIN
 40
1.5
 40
1.5
 40
1.5
 40
1.5
 40
0.18
 40
0.18
309
CELLMARGIN_END
 94
        6
 95
        1
302
GRIDFORMAT
  1
GRIDFORMAT_BEGIN
 90
        0
 91
        1
 62
     0
 92
       -2
340
0
 93
        0
 40
0.045
309
GRIDFORMAT_END
 95
        2
302
GRIDFORMAT
  1
GRIDFORMAT_BEGIN
 90
        0
 91
        1
 62
     0
 92
       -2
340
0
 93
        0
 40
0.045
309
GRIDFORMAT_END
 95
        4
302
GRIDFORMAT
  1
GRIDFORMAT_BEGIN
 90
        0
 91
        1
 62
     0
 92
       -2
340
0
 93
        0
 40
0.045
309
GRIDFORMAT_END
 95
        8
302
GRIDFORMAT
  1
GRIDFORMAT_BEGIN
 90
        0
 91
        1
 62
     0
 92
       -2
340
0
 93
        0
 40
0.045
309
GRIDFORMAT_END
 95
       16
302
GRIDFORMAT
  1
GRIDFORMAT_BEGIN
 90
        0
 91
        1
 62
     0
 92
       -2
340
0
 93
        0
 40
0.045
309
GRIDFORMAT_END
 95
       32
302
GRIDFORMAT
  1
GRIDFORMAT_BEGIN
 90
        0
 91
        1
 62
     0
 92
       -2
340
0
 93
        0
 40
0.045
309
GRIDFORMAT_END
309
TABLEFORMAT_END
  1
CELLSTYLE_BEGIN
 90
        3
 91
        2
300
_DATA
309
CELLSTYLE_END
  0
XRECORD
  5
47C
102
{ACAD_REACTORS
330
47B
102
}
330
47B
100
AcDbXrecord
280
     1
102
ACAD_ROUNDTRIP_PRE2007_TABLESTYLE
 90
      512
 91
        0
  1

 92
      512
 93
        0
  2

 94
      512
 95
        0
  3

  0
ENDSEC
  0
EOF
