  0
SECTION
  2
HEADER
  9
$ACADVER
  1
AC1018
  9
$ACADMAINTVER
 70
     0
  9
$DWGCODEPAGE
  3
ANSI_932
  9
$LASTSAVEDBY
  1
小谷 浩和
  9
$INSBASE
 10
0.0
 20
0.0
 30
0.0
  9
$EXTMIN
 10
4.187561697926867
 20
4.046082742528824
 30
0.0
  9
$EXTMAX
 10
1804.243220940473
 20
1205.594570650022
 30
0.0
  9
$LIMMIN
 10
0.0
 20
0.0
  9
$LIMMAX
 10
420.0
 20
297.0
  9
$ORTHOMODE
 70
     0
  9
$REGENMODE
 70
     1
  9
$FILLMODE
 70
     1
  9
$QTEXTMODE
 70
     0
  9
$MIRRTEXT
 70
     0
  9
$LTSCALE
 40
1.0
  9
$ATTMODE
 70
     1
  9
$TEXTSIZE
 40
2.5
  9
$TRACEWID
 40
1.0
  9
$TEXTSTYLE
  7
Standard
  9
$CLAYER
  8
0
  9
$CELTYPE
  6
ByLayer
  9
$CECOLOR
 62
   256
  9
$CELTSCALE
 40
1.0
  9
$DISPSILH
 70
     0
  9
$DIMSCALE
 40
1.0
  9
$DIMASZ
 40
2.5
  9
$DIMEXO
 40
0.625
  9
$DIMDLI
 40
3.75
  9
$DIMRND
 40
0.0
  9
$DIMDLE
 40
0.0
  9
$DIMEXE
 40
1.25
  9
$DIMTP
 40
0.0
  9
$DIMTM
 40
0.0
  9
$DIMTXT
 40
2.5
  9
$DIMCEN
 40
2.5
  9
$DIMTSZ
 40
0.0
  9
$DIMTOL
 70
     0
  9
$DIMLIM
 70
     0
  9
$DIMTIH
 70
     0
  9
$DIMTOH
 70
     0
  9
$DIMSE1
 70
     0
  9
$DIMSE2
 70
     0
  9
$DIMTAD
 70
     1
  9
$DIMZIN
 70
     8
  9
$DIMBLK
  1
OPEN
  9
$DIMASO
 70
     1
  9
$DIMSHO
 70
     1
  9
$DIMPOST
  1

  9
$DIMAPOST
  1

  9
$DIMALT
 70
     0
  9
$DIMALTD
 70
     3
  9
$DIMALTF
 40
0.03937007874016
  9
$DIMLFAC
 40
1.0
  9
$DIMTOFL
 70
     1
  9
$DIMTVP
 40
0.0
  9
$DIMTIX
 70
     0
  9
$DIMSOXD
 70
     0
  9
$DIMSAH
 70
     0
  9
$DIMBLK1
  1

  9
$DIMBLK2
  1

  9
$DIMSTYLE
  2
JIS-1
  9
$DIMCLRD
 70
     0
  9
$DIMCLRE
 70
     0
  9
$DIMCLRT
 70
     0
  9
$DIMTFAC
 40
1.0
  9
$DIMGAP
 40
0.625
  9
$DIMJUST
 70
     0
  9
$DIMSD1
 70
     0
  9
$DIMSD2
 70
     0
  9
$DIMTOLJ
 70
     0
  9
$DIMTZIN
 70
     8
  9
$DIMALTZ
 70
     0
  9
$DIMALTTZ
 70
     0
  9
$DIMUPT
 70
     0
  9
$DIMDEC
 70
     2
  9
$DIMTDEC
 70
     2
  9
$DIMALTU
 70
     2
  9
$DIMALTTD
 70
     3
  9
$DIMTXSTY
  7
Standard
  9
$DIMAUNIT
 70
     0
  9
$DIMADEC
 70
     0
  9
$DIMALTRND
 40
0.0
  9
$DIMAZIN
 70
     0
  9
$DIMDSEP
 70
    44
  9
$DIMATFIT
 70
     3
  9
$DIMFRAC
 70
     0
  9
$DIMLDRBLK
  1
OPEN
  9
$DIMLUNIT
 70
     2
  9
$DIMLWD
 70
    -2
  9
$DIMLWE
 70
    -2
  9
$DIMTMOVE
 70
     0
  9
$LUNITS
 70
     2
  9
$LUPREC
 70
     3
  9
$SKETCHINC
 40
1.0
  9
$FILLETRAD
 40
10.0
  9
$AUNITS
 70
     0
  9
$AUPREC
 70
     0
  9
$MENU
  1
.
  9
$ELEVATION
 40
0.0
  9
$PELEVATION
 40
0.0
  9
$THICKNESS
 40
0.0
  9
$LIMCHECK
 70
     0
  9
$CHAMFERA
 40
10.0
  9
$CHAMFERB
 40
10.0
  9
$CHAMFERC
 40
20.0
  9
$CHAMFERD
 40
0.0
  9
$SKPOLY
 70
     0
  9
$TDCREATE
 40
2455023.012359514
  9
$TDUCREATE
 40
2455022.637359514
  9
$TDUPDATE
 40
2457241.759795243
  9
$TDUUPDATE
 40
2457241.384795243
  9
$TDINDWG
 40
0.0130074884
  9
$TDUSRTIMER
 40
2457241.384416053
  9
$USRTIMER
 70
     1
  9
$ANGBASE
 50
0.0
  9
$ANGDIR
 70
     0
  9
$PDMODE
 70
     0
  9
$PDSIZE
 40
0.0
  9
$PLINEWID
 40
0.0
  9
$SPLFRAME
 70
     0
  9
$SPLINETYPE
 70
     6
  9
$SPLINESEGS
 70
     8
  9
$HANDSEED
  5
3BC
  9
$SURFTAB1
 70
     6
  9
$SURFTAB2
 70
     6
  9
$SURFTYPE
 70
     6
  9
$SURFU
 70
     6
  9
$SURFV
 70
     6
  9
$UCSBASE
  2

  9
$UCSNAME
  2

  9
$UCSORG
 10
0.0
 20
0.0
 30
0.0
  9
$UCSXDIR
 10
1.0
 20
0.0
 30
0.0
  9
$UCSYDIR
 10
0.0
 20
1.0
 30
0.0
  9
$UCSORTHOREF
  2

  9
$UCSORTHOVIEW
 70
     0
  9
$UCSORGTOP
 10
0.0
 20
0.0
 30
0.0
  9
$UCSORGBOTTOM
 10
0.0
 20
0.0
 30
0.0
  9
$UCSORGLEFT
 10
0.0
 20
0.0
 30
0.0
  9
$UCSORGRIGHT
 10
0.0
 20
0.0
 30
0.0
  9
$UCSORGFRONT
 10
0.0
 20
0.0
 30
0.0
  9
$UCSORGBACK
 10
0.0
 20
0.0
 30
0.0
  9
$PUCSBASE
  2

  9
$PUCSNAME
  2

  9
$PUCSORG
 10
0.0
 20
0.0
 30
0.0
  9
$PUCSXDIR
 10
1.0
 20
0.0
 30
0.0
  9
$PUCSYDIR
 10
0.0
 20
1.0
 30
0.0
  9
$PUCSORTHOREF
  2

  9
$PUCSORTHOVIEW
 70
     0
  9
$PUCSORGTOP
 10
0.0
 20
0.0
 30
0.0
  9
$PUCSORGBOTTOM
 10
0.0
 20
0.0
 30
0.0
  9
$PUCSORGLEFT
 10
0.0
 20
0.0
 30
0.0
  9
$PUCSORGRIGHT
 10
0.0
 20
0.0
 30
0.0
  9
$PUCSORGFRONT
 10
0.0
 20
0.0
 30
0.0
  9
$PUCSORGBACK
 10
0.0
 20
0.0
 30
0.0
  9
$USERI1
 70
     0
  9
$USERI2
 70
     0
  9
$USERI3
 70
     0
  9
$USERI4
 70
     0
  9
$USERI5
 70
     0
  9
$USERR1
 40
0.0
  9
$USERR2
 40
0.0
  9
$USERR3
 40
0.0
  9
$USERR4
 40
0.0
  9
$USERR5
 40
0.0
  9
$WORLDVIEW
 70
     1
  9
$SHADEDGE
 70
     3
  9
$SHADEDIF
 70
    70
  9
$TILEMODE
 70
     1
  9
$MAXACTVP
 70
    64
  9
$PINSBASE
 10
0.0
 20
0.0
 30
0.0
  9
$PLIMCHECK
 70
     0
  9
$PEXTMIN
 10
1.000000000000000E+20
 20
1.000000000000000E+20
 30
1.000000000000000E+20
  9
$PEXTMAX
 10
-1.000000000000000E+20
 20
-1.000000000000000E+20
 30
-1.000000000000000E+20
  9
$PLIMMIN
 10
0.0
 20
0.0
  9
$PLIMMAX
 10
0.0
 20
0.0
  9
$UNITMODE
 70
     0
  9
$VISRETAIN
 70
     1
  9
$PLINEGEN
 70
     0
  9
$PSLTSCALE
 70
     1
  9
$TREEDEPTH
 70
  3020
  9
$CMLSTYLE
  2
Standard
  9
$CMLJUST
 70
     0
  9
$CMLSCALE
 40
20.0
  9
$PROXYGRAPHICS
 70
     1
  9
$MEASUREMENT
 70
     1
  9
$CELWEIGHT
370
    -1
  9
$ENDCAPS
280
     0
  9
$JOINSTYLE
280
     0
  9
$LWDISPLAY
290
     0
  9
$INSUNITS
 70
     4
  9
$HYPERLINKBASE
  1

  9
$STYLESHEET
  1

  9
$XEDIT
290
     1
  9
$CEPSNTYPE
380
     0
  9
$PSTYLEMODE
290
     0
  9
$FINGERPRINTGUID
  2
{EC6BB858-51AA-46EC-B484-6C9CC7AB3E2E}
  9
$VERSIONGUID
  2
{FAEB1C32-E019-11D5-929B-00C0DF256EC4}
  9
$EXTNAMES
290
     1
  9
$PSVPSCALE
 40
0.0
  9
$OLESTARTUP
290
     0
  9
$SORTENTS
280
   127
  9
$INDEXCTL
280
     0
  9
$HIDETEXT
280
     1
  9
$XCLIPFRAME
290
     0
  9
$HALOGAP
280
     0
  9
$OBSCOLOR
 70
   257
  9
$OBSLTYPE
280
     0
  9
$INTERSECTIONDISPLAY
280
     0
  9
$INTERSECTIONCOLOR
 70
   257
  9
$DIMASSOC
280
     2
  9
$PROJECTNAME
  1

  0
ENDSEC
  0
SECTION
  2
CLASSES
  0
CLASS
  1
ACDBDICTIONARYWDFLT
  2
AcDbDictionaryWithDefault
  3
ObjectDBX Classes
 90
        0
 91
        4
280
     0
281
     0
  0
CLASS
  1
VISUALSTYLE
  2
AcDbVisualStyle
  3
ObjectDBX Classes
 90
     4095
 91
        4
280
     0
281
     0
  0
CLASS
  1
TABLESTYLE
  2
AcDbTableStyle
  3
ObjectDBX Classes
 90
     4095
 91
        4
280
     0
281
     0
  0
CLASS
  1
DICTIONARYVAR
  2
AcDbDictionaryVar
  3
ObjectDBX Classes
 90
        0
 91
        4
280
     0
281
     0
  0
CLASS
  1
SCALE
  2
AcDbScale
  3
ObjectDBX Classes
 90
     1153
 91
        4
280
     0
281
     0
  0
CLASS
  1
CELLSTYLEMAP
  2
AcDbCellStyleMap
  3
ObjectDBX Classes
 90
     1152
 91
        4
280
     0
281
     0
  0
CLASS
  1
RASTERVARIABLES
  2
AcDbRasterVariables
  3
ISM
 90
        0
 91
        4
280
     0
281
     0
  0
CLASS
  1
DIMASSOC
  2
AcDbDimAssoc
  3
"AcDbDimAssoc|Product Desc:     AcDim ARX App For Dimension|Company:          Autodesk, Inc.|WEB Address:      www.autodesk.com"
 90
        0
 91
        4
280
     0
281
     0
  0
CLASS
  1
MATERIAL
  2
AcDbMaterial
  3
ObjectDBX Classes
 90
     1153
 91
        4
280
     0
281
     0
  0
CLASS
  1
SUN
  2
AcDbSun
  3
SCENEOE
 90
     1153
 91
        4
280
     0
281
     0
  0
CLASS
  1
MLEADERSTYLE
  2
AcDbMLeaderStyle
  3
ACDB_MLEADERSTYLE_CLASS
 90
     4095
 91
        4
280
     0
281
     0
  0
CLASS
  1
SORTENTSTABLE
  2
AcDbSortentsTable
  3
ObjectDBX Classes
 90
        0
 91
        4
280
     0
281
     0
  0
ENDSEC
  0
SECTION
  2
TABLES
  0
TABLE
  2
VPORT
  5
8
330
0
100
AcDbSymbolTable
 70
     1
  0
VPORT
  5
29
330
8
100
AcDbSymbolTableRecord
100
AcDbViewportTableRecord
  2
*Active
 70
     0
 10
0.0
 20
0.0
 11
1.0
 21
1.0
 12
141.160483131297
 22
1463.52991390261
 13
0.0
 23
0.0
 14
10.0
 24
10.0
 15
10.0
 25
10.0
 16
0.0
 26
0.0
 36
1.0
 17
-134.1869158878503
 27
0.0
 37
0.0
 40
2055.24539191337
 41
1.664884135472371
 42
50.0
 43
0.0
 44
0.0
 50
0.0
 51
0.0
 71
    16
 72
  1000
 73
     1
 74
     3
 75
     0
 76
     0
 77
     0
 78
     0
281
     0
 65
     1
110
0.0
120
0.0
130
0.0
111
1.0
121
0.0
131
0.0
112
0.0
122
1.0
132
0.0
 79
     0
146
0.0
  0
ENDTAB
  0
TABLE
  2
LTYPE
  5
5
330
0
100
AcDbSymbolTable
 70
     4
  0
LTYPE
  5
14
330
5
100
AcDbSymbolTableRecord
100
AcDbLinetypeTableRecord
  2
ByBlock
 70
     0
  3

 72
    65
 73
     0
 40
0.0
  0
LTYPE
  5
15
330
5
100
AcDbSymbolTableRecord
100
AcDbLinetypeTableRecord
  2
ByLayer
 70
     0
  3

 72
    65
 73
     0
 40
0.0
  0
LTYPE
  5
16
330
5
100
AcDbSymbolTableRecord
100
AcDbLinetypeTableRecord
  2
Continuous
 70
     0
  3
Solid line
 72
    65
 73
     0
 40
0.0
  0
LTYPE
  5
E2
330
5
100
AcDbSymbolTableRecord
100
AcDbLinetypeTableRecord
  2
CENTER
 70
     0
  3
 Center ____ _ ____ _ ____ _ ____ _ ____ _ ____
 72
    65
 73
     4
 40
2.0
 49
1.25
 74
     0
 49
-0.25
 74
     0
 49
0.25
 74
     0
 49
-0.25
 74
     0
  0
LTYPE
  5
362
330
5
100
AcDbSymbolTableRecord
100
AcDbLinetypeTableRecord
  2
DASHED
 70
     0
  3
Dashed __  __  __  __  __  __  __  __  __  __  
 72
    65
 73
     2
 40
19.05
 49
12.7
 74
     0
 49
-6.35
 74
     0
  0
LTYPE
  5
363
330
5
100
AcDbSymbolTableRecord
100
AcDbLinetypeTableRecord
  2
HIDDEN
 70
     0
  3
Hidden _ _ _ _ _ _ _ _ _ _ _ _ _ _ _ _ _ _ _ _ 
 72
    65
 73
     2
 40
9.524999999999999
 49
6.35
 74
     0
 49
-3.175
 74
     0
  0
ENDTAB
  0
TABLE
  2
LAYER
  5
2
102
{ACAD_XDICTIONARY
360
239
102
}
330
0
100
AcDbSymbolTable
 70
     5
  0
LAYER
  5
10
330
2
100
AcDbSymbolTableRecord
100
AcDbLayerTableRecord
  2
0
 70
     0
 62
     7
  6
Continuous
370
    -3
390
F
  0
LAYER
  5
7E
330
2
100
AcDbSymbolTableRecord
100
AcDbLayerTableRecord
  2
Defpoints
 70
     0
 62
     7
  6
Continuous
290
     0
370
    -3
390
F
  0
LAYER
  5
DE
330
2
100
AcDbSymbolTableRecord
100
AcDbLayerTableRecord
  2
C2
 70
     0
 62
     1
  6
CENTER
370
    -3
390
F
  0
LAYER
  5
E3
330
2
100
AcDbSymbolTableRecord
100
AcDbLayerTableRecord
  2
C4
 70
     0
 62
     3
  6
Continuous
370
    -3
390
F
  0
LAYER
  5
E4
330
2
100
AcDbSymbolTableRecord
100
AcDbLayerTableRecord
  2
C寸法
 70
     0
 62
     4
  6
Continuous
370
    -3
390
F
  0
ENDTAB
  0
TABLE
  2
STYLE
  5
3
330
0
100
AcDbSymbolTable
 70
     2
  0
STYLE
  5
11
330
3
100
AcDbSymbolTableRecord
100
AcDbTextStyleTableRecord
  2
Standard
 70
     0
 40
0.138
 41
1.0
 50
0.0
 71
     0
 42
2.5
  3
arial.ttf
  4

1001
ACAD
1000
Arial
1071
        0
  0
STYLE
  5
F3
330
3
100
AcDbSymbolTableRecord
100
AcDbTextStyleTableRecord
  2
KANJI
 70
     0
 40
0.0
 41
1.0
 50
0.0
 71
     0
 42
2.5
  3
romans
  4
bigfont
  0
ENDTAB
  0
TABLE
  2
VIEW
  5
6
330
0
100
AcDbSymbolTable
 70
     0
  0
ENDTAB
  0
TABLE
  2
UCS
  5
7
330
0
100
AcDbSymbolTable
 70
     0
  0
ENDTAB
  0
TABLE
  2
APPID
  5
9
330
0
100
AcDbSymbolTable
 70
     8
  0
APPID
  5
12
330
9
100
AcDbSymbolTableRecord
100
AcDbRegAppTableRecord
  2
ACAD
 70
     0
  0
APPID
  5
EE
330
9
100
AcDbSymbolTableRecord
100
AcDbRegAppTableRecord
  2
ACAD_DSTYLE_DIMBREAK
 70
     0
  0
APPID
  5
EF
330
9
100
AcDbSymbolTableRecord
100
AcDbRegAppTableRecord
  2
ACAD_DSTYLE_DIMJAG
 70
     0
  0
APPID
  5
F0
330
9
100
AcDbSymbolTableRecord
100
AcDbRegAppTableRecord
  2
ACAD_DSTYLE_DIMTALN
 70
     0
  0
APPID
  5
F1
330
9
100
AcDbSymbolTableRecord
100
AcDbRegAppTableRecord
  2
ACAD_NAV_VCDISPLAY
 70
     0
  0
APPID
  5
F2
330
9
100
AcDbSymbolTableRecord
100
AcDbRegAppTableRecord
  2
PLOTTRANSPARENCY
 70
     0
  0
APPID
  5
364
330
9
100
AcDbSymbolTableRecord
100
AcDbRegAppTableRecord
  2
ACAD_DSTYLE_DIMRADIAL_EXTENSION
 70
     0
  0
APPID
  5
3BA
330
9
100
AcDbSymbolTableRecord
100
AcDbRegAppTableRecord
  2
ACAD_MLEADERVER
 70
     0
  0
ENDTAB
  0
TABLE
  2
DIMSTYLE
  5
A
330
0
100
AcDbSymbolTable
 70
     5
100
AcDbDimStyleTable
  0
DIMSTYLE
105
27
330
A
100
AcDbSymbolTableRecord
100
AcDbDimStyleTableRecord
  2
ISO-25
 70
     0
 41
2.5
 42
0.625
 43
3.75
 44
1.25
 73
     0
 74
     0
 77
     1
 78
     8
140
2.5
141
2.5
143
0.03937007874016
147
0.625
171
     3
172
     1
178
     0
271
     2
272
     2
274
     3
278
    44
283
     0
284
     8
340
11
  0
DIMSTYLE
105
72
330
A
100
AcDbSymbolTableRecord
100
AcDbDimStyleTableRecord
  2
GB-1
 70
     0
 41
2.5
 42
0.625
 43
3.75
 44
1.25
 73
     0
 74
     0
 77
     1
 78
     8
140
2.5
141
2.5
143
0.03937007874016
147
0.625
171
     3
172
     1
178
     0
271
     2
272
     2
274
     3
278
    44
283
     0
284
     8
340
11
341
76
342
76
  0
DIMSTYLE
105
8E
102
{ACAD_REACTORS
330
365
330
394
330
39F
330
3AA
102
}
330
A
100
AcDbSymbolTableRecord
100
AcDbDimStyleTableRecord
  2
JIS-1
 70
     0
 41
2.5
 42
0.625
 43
3.75
 44
1.25
 73
     0
 74
     0
 77
     1
 78
     8
140
2.5
141
2.5
143
0.03937007874016
147
0.625
171
     3
172
     1
178
     0
271
     2
272
     2
274
     3
278
    44
283
     0
284
     8
340
11
341
90
342
90
  0
DIMSTYLE
105
E5
330
A
100
AcDbSymbolTableRecord
100
AcDbDimStyleTableRecord
  2
Standard
 70
     0
178
     0
340
11
  0
DIMSTYLE
105
E7
102
{ACAD_REACTORS
330
2CF
330
2D0
330
2D1
330
2D2
330
2D3
330
2D4
330
2D9
330
2DC
330
2DD
330
2DF
330
377
102
}
330
A
100
AcDbSymbolTableRecord
100
AcDbDimStyleTableRecord
  2
実寸
 70
     0
 41
25.0
 42
10.0
 43
6.0
 44
0.0
 47
5.0
 73
     0
 74
     0
 77
     1
 78
     8
140
25.0
141
0.0
144
5.0
147
5.0
178
     0
271
     1
272
     1
284
     8
340
11
341
90
342
90
1001
ACAD_DSTYLE_DIMBREAK
1070
   391
1040
0.125
1001
ACAD_DSTYLE_DIMJAG
1070
   388
1040
1.5
1001
ACAD_DSTYLE_DIMTALN
1070
   392
1070
     0
  0
ENDTAB
  0
TABLE
  2
BLOCK_RECORD
  5
1
330
0
100
AcDbSymbolTable
 70
    31
  0
BLOCK_RECORD
  5
1F
330
1
100
AcDbSymbolTableRecord
100
AcDbBlockTableRecord
  2
*Model_Space
340
22
  0
BLOCK_RECORD
  5
1B
330
1
100
AcDbSymbolTableRecord
100
AcDbBlockTableRecord
  2
*Paper_Space
340
1E
  0
BLOCK_RECORD
  5
23
330
1
100
AcDbSymbolTableRecord
100
AcDbBlockTableRecord
  2
*Paper_Space0
340
26
  0
BLOCK_RECORD
  5
76
330
1
100
AcDbSymbolTableRecord
100
AcDbBlockTableRecord
  2
_CLOSED
340
0
  0
BLOCK_RECORD
  5
90
330
1
100
AcDbSymbolTableRecord
100
AcDbBlockTableRecord
  2
_OPEN
340
0
102
{BLKREFS
331
2E8
331
2E9
331
2F4
331
2F5
331
303
331
304
331
30F
331
310
331
31B
331
31C
331
327
331
328
331
333
331
334
331
342
331
343
331
350
331
351
331
35C
331
35D
331
36F
331
39C
331
3A7
331
3B2
331
38E
331
38F
331
370
102
}
  0
BLOCK_RECORD
  5
2E2
330
1
100
AcDbSymbolTableRecord
100
AcDbBlockTableRecord
  2
*D15
340
0
  0
BLOCK_RECORD
  5
2EE
330
1
100
AcDbSymbolTableRecord
100
AcDbBlockTableRecord
  2
*D16
340
0
  0
BLOCK_RECORD
  5
2FA
330
1
100
AcDbSymbolTableRecord
100
AcDbBlockTableRecord
  2
*D17
340
0
  0
BLOCK_RECORD
  5
309
330
1
100
AcDbSymbolTableRecord
100
AcDbBlockTableRecord
  2
*D18
340
0
  0
BLOCK_RECORD
  5
315
330
1
100
AcDbSymbolTableRecord
100
AcDbBlockTableRecord
  2
*D19
340
0
  0
BLOCK_RECORD
  5
321
330
1
100
AcDbSymbolTableRecord
100
AcDbBlockTableRecord
  2
*D20
340
0
  0
BLOCK_RECORD
  5
32D
330
1
100
AcDbSymbolTableRecord
100
AcDbBlockTableRecord
  2
*D21
340
0
  0
BLOCK_RECORD
  5
339
330
1
100
AcDbSymbolTableRecord
100
AcDbBlockTableRecord
  2
*D22
340
0
  0
BLOCK_RECORD
  5
348
330
1
100
AcDbSymbolTableRecord
100
AcDbBlockTableRecord
  2
*D23
340
0
  0
BLOCK_RECORD
  5
356
330
1
100
AcDbSymbolTableRecord
100
AcDbBlockTableRecord
  2
*D24
340
0
  0
BLOCK_RECORD
  5
366
330
1
100
AcDbSymbolTableRecord
100
AcDbBlockTableRecord
  2
*D25
340
0
  0
BLOCK_RECORD
  5
388
330
1
100
AcDbSymbolTableRecord
100
AcDbBlockTableRecord
  2
*D27
340
0
  0
BLOCK_RECORD
  5
397
330
1
100
AcDbSymbolTableRecord
100
AcDbBlockTableRecord
  2
*D28
340
0
  0
BLOCK_RECORD
  5
3A2
330
1
100
AcDbSymbolTableRecord
100
AcDbBlockTableRecord
  2
*D29
340
0
  0
BLOCK_RECORD
  5
3AD
330
1
100
AcDbSymbolTableRecord
100
AcDbBlockTableRecord
  2
*D30
340
0
  0
ENDTAB
  0
ENDSEC
  0
SECTION
  2
BLOCKS
  0
BLOCK
  5
20
330
1F
100
AcDbEntity
  8
0
100
AcDbBlockBegin
  2
*Model_Space
 70
     0
 10
0.0
 20
0.0
 30
0.0
  3
*Model_Space
  1
*Model_Space
  0
ENDBLK
  5
21
330
1F
100
AcDbEntity
  8
0
100
AcDbBlockEnd
  0
BLOCK
  5
1C
330
1B
100
AcDbEntity
 67
     1
  8
0
100
AcDbBlockBegin
  2
*Paper_Space
 70
     0
 10
0.0
 20
0.0
 30
0.0
  3
*Paper_Space
  1
*Paper_Space
  0
ENDBLK
  5
1D
330
1B
100
AcDbEntity
 67
     1
  8
0
100
AcDbBlockEnd
  0
BLOCK
  5
24
330
23
100
AcDbEntity
  8
0
100
AcDbBlockBegin
  2
*Paper_Space0
 70
     0
 10
0.0
 20
0.0
 30
0.0
  3
*Paper_Space0
  1
*Paper_Space0
  0
ENDBLK
  5
25
330
23
100
AcDbEntity
  8
0
100
AcDbBlockEnd
  0
BLOCK
  5
77
330
76
100
AcDbEntity
  8
0
100
AcDbBlockBegin
  2
_CLOSED
 70
     0
 10
0.0
 20
0.0
 30
0.0
  3
_CLOSED
  1
_CLOSED
  0
LINE
  5
78
330
76
100
AcDbEntity
  8
0
  6
ByBlock
 62
     0
370
    -2
100
AcDbLine
 10
-1.0
 20
0.166667
 30
0.0
 11
0.0
 21
0.0
 31
0.0
  0
LINE
  5
79
330
76
100
AcDbEntity
  8
0
  6
ByBlock
 62
     0
370
    -2
100
AcDbLine
 10
0.0
 20
0.0
 30
0.0
 11
-1.0
 21
-0.166667
 31
0.0
  0
LINE
  5
7A
330
76
100
AcDbEntity
  8
0
  6
ByBlock
 62
     0
370
    -2
100
AcDbLine
 10
-1.0
 20
0.166667
 30
0.0
 11
-1.0
 21
-0.166667
 31
0.0
  0
LINE
  5
7B
330
76
100
AcDbEntity
  8
0
  6
ByBlock
 62
     0
370
    -2
100
AcDbLine
 10
0.0
 20
0.0
 30
0.0
 11
-1.0
 21
0.0
 31
0.0
  0
ENDBLK
  5
7C
330
76
100
AcDbEntity
  8
0
100
AcDbBlockEnd
  0
BLOCK
  5
91
330
90
100
AcDbEntity
  8
0
100
AcDbBlockBegin
  2
_OPEN
 70
     0
 10
0.0
 20
0.0
 30
0.0
  3
_OPEN
  1
_OPEN
  0
LINE
  5
92
330
90
100
AcDbEntity
  8
0
  6
ByBlock
 62
     0
370
    -2
100
AcDbLine
 10
-1.0
 20
0.166667
 30
0.0
 11
0.0
 21
0.0
 31
0.0
  0
LINE
  5
93
330
90
100
AcDbEntity
  8
0
  6
ByBlock
 62
     0
370
    -2
100
AcDbLine
 10
-1.0
 20
-0.166667
 30
0.0
 11
0.0
 21
0.0
 31
0.0
  0
LINE
  5
94
330
90
100
AcDbEntity
  8
0
  6
ByBlock
 62
     0
370
    -2
100
AcDbLine
 10
0.0
 20
0.0
 30
0.0
 11
-1.0
 21
0.0
 31
0.0
  0
ENDBLK
  5
95
330
90
100
AcDbEntity
  8
0
100
AcDbBlockEnd
  0
BLOCK
  5
2E3
330
2E2
100
AcDbEntity
  8
0
100
AcDbBlockBegin
  2
*D15
 70
     1
 10
0.0
 20
0.0
 30
0.0
  3
*D15
  1
*D15
  0
LINE
  5
2E5
330
2E2
100
AcDbEntity
  8
C寸法
 62
     0
370
    -2
100
AcDbLine
 10
920.376522358762
 20
1028.394811242407
 30
0.0
 11
1158.376511128294
 21
1028.394811242407
 31
0.0
  0
LINE
  5
2E6
330
2E2
100
AcDbEntity
  8
C寸法
 62
     0
370
    -2
100
AcDbLine
 10
920.376522358762
 20
508.3948112424067
 30
0.0
 11
1158.376511128294
 21
508.3948112424067
 31
0.0
  0
LINE
  5
2E7
330
2E2
100
AcDbEntity
  8
C寸法
 62
     0
370
    -2
100
AcDbLine
 10
1158.376511128294
 20
1003.394811242407
 30
0.0
 11
1158.376511128294
 21
533.3948112424067
 31
0.0
  0
INSERT
  5
2E8
330
2E2
100
AcDbEntity
  8
C寸法
 62
     0
370
    -2
100
AcDbBlockReference
  2
_OPEN
 10
1158.376511128294
 20
1028.394811242407
 30
0.0
 41
25.0
 42
25.0
 43
25.0
 50
90.0
  0
INSERT
  5
2E9
330
2E2
100
AcDbEntity
  8
C寸法
 62
     0
370
    -2
100
AcDbBlockReference
  2
_OPEN
 10
1158.376511128294
 20
508.3948112424067
 30
0.0
 41
25.0
 42
25.0
 43
25.0
 50
270.0
  0
MTEXT
  5
2EA
330
2E2
100
AcDbEntity
  8
C寸法
 62
     0
370
    13
100
AcDbMText
 10
1140.876511128294
 20
768.3948112424066
 30
0.0
 40
25.0
 41
0.0
 71
     5
 72
     1
  1
\A1;520
  7
KANJI
 11
0.0
 21
1.0
 31
0.0
 73
     1
 44
1.0
  0
POINT
  5
2EB
330
2E2
100
AcDbEntity
  8
Defpoints
 62
     0
100
AcDbPoint
 10
910.376522358762
 20
1028.394811242407
 30
0.0
  0
POINT
  5
2EC
330
2E2
100
AcDbEntity
  8
Defpoints
 62
     0
100
AcDbPoint
 10
910.376522358762
 20
508.3948112424067
 30
0.0
  0
POINT
  5
2ED
330
2E2
100
AcDbEntity
  8
Defpoints
 62
     0
100
AcDbPoint
 10
1158.376511128294
 20
508.3948112424067
 30
0.0
  0
ENDBLK
  5
2E4
330
2E2
100
AcDbEntity
  8
0
100
AcDbBlockEnd
  0
BLOCK
  5
2EF
330
2EE
100
AcDbEntity
  8
0
100
AcDbBlockBegin
  2
*D16
 70
     1
 10
0.0
 20
0.0
 30
0.0
  3
*D16
  1
*D16
  0
LINE
  5
2F1
330
2EE
100
AcDbEntity
  8
C寸法
 62
     0
370
    -2
100
AcDbLine
 10
920.376522358762
 20
1028.394811242407
 30
0.0
 11
1108.376511128294
 21
1028.394811242407
 31
0.0
  0
LINE
  5
2F2
330
2EE
100
AcDbEntity
  8
C寸法
 62
     0
370
    -2
100
AcDbLine
 10
920.376522358762
 20
523.3948112424067
 30
0.0
 11
1108.376511128294
 21
523.3948112424067
 31
0.0
  0
LINE
  5
2F3
330
2EE
100
AcDbEntity
  8
C寸法
 62
     0
370
    -2
100
AcDbLine
 10
1108.376511128294
 20
1003.394811242407
 30
0.0
 11
1108.376511128294
 21
548.3948112424067
 31
0.0
  0
INSERT
  5
2F4
330
2EE
100
AcDbEntity
  8
C寸法
 62
     0
370
    -2
100
AcDbBlockReference
  2
_OPEN
 10
1108.376511128294
 20
1028.394811242407
 30
0.0
 41
25.0
 42
25.0
 43
25.0
 50
90.0
  0
INSERT
  5
2F5
330
2EE
100
AcDbEntity
  8
C寸法
 62
     0
370
    -2
100
AcDbBlockReference
  2
_OPEN
 10
1108.376511128294
 20
523.3948112424067
 30
0.0
 41
25.0
 42
25.0
 43
25.0
 50
270.0
  0
MTEXT
  5
2F6
330
2EE
100
AcDbEntity
  8
C寸法
 62
     0
370
    13
100
AcDbMText
 10
1090.876511128294
 20
775.8948112424066
 30
0.0
 40
25.0
 41
0.0
 71
     5
 72
     1
  1
\A1;505
  7
KANJI
 11
0.0
 21
1.0
 31
0.0
 73
     1
 44
1.0
  0
POINT
  5
2F7
330
2EE
100
AcDbEntity
  8
Defpoints
 62
     0
100
AcDbPoint
 10
910.376522358762
 20
1028.394811242407
 30
0.0
  0
POINT
  5
2F8
330
2EE
100
AcDbEntity
  8
Defpoints
 62
     0
100
AcDbPoint
 10
910.376522358762
 20
523.3948112424067
 30
0.0
  0
POINT
  5
2F9
330
2EE
100
AcDbEntity
  8
Defpoints
 62
     0
100
AcDbPoint
 10
1108.376511128294
 20
523.3948112424067
 30
0.0
  0
ENDBLK
  5
2F0
330
2EE
100
AcDbEntity
  8
0
100
AcDbBlockEnd
  0
BLOCK
  5
2FB
330
2FA
100
AcDbEntity
  8
0
100
AcDbBlockBegin
  2
*D17
 70
     1
 10
0.0
 20
0.0
 30
0.0
  3
*D17
  1
*D17
  0
LINE
  5
2FD
330
2FA
100
AcDbEntity
  8
C寸法
 62
     0
370
    -2
100
AcDbLine
 10
488.3765111283069
 20
523.3948112424067
 30
0.0
 11
1108.376511128294
 21
523.3948112424067
 31
0.0
  0
LINE
  5
2FE
330
2FA
100
AcDbEntity
  8
C寸法
 62
     0
370
    -2
100
AcDbLine
 10
488.3765111283069
 20
508.3948112424067
 30
0.0
 11
1108.376511128294
 21
508.3948112424067
 31
0.0
  0
LINE
  5
2FF
330
2FA
100
AcDbEntity
  8
C寸法
 62
     0
370
    -2
100
AcDbLine
 10
1108.376511128294
 20
508.3948112424067
 30
0.0
 11
1108.376511128294
 21
411.3040374328829
 31
0.0
  0
LINE
  5
300
330
2FA
100
AcDbEntity
  8
C寸法
 62
     0
370
    -2
100
AcDbLine
 10
1108.376511128294
 20
523.3948112424067
 30
0.0
 11
1108.376511128294
 21
508.3948112424067
 31
0.0
  0
LINE
  5
301
330
2FA
100
AcDbEntity
  8
C寸法
 62
     0
370
    -2
100
AcDbLine
 10
1108.376511128294
 20
548.3948112424067
 30
0.0
 11
1108.376511128294
 21
573.3948112424067
 31
0.0
  0
LINE
  5
302
330
2FA
100
AcDbEntity
  8
C寸法
 62
     0
370
    -2
100
AcDbLine
 10
1108.376511128294
 20
483.3948112424067
 30
0.0
 11
1108.376511128294
 21
458.3948112424067
 31
0.0
  0
INSERT
  5
303
330
2FA
100
AcDbEntity
  8
C寸法
 62
     0
370
    -2
100
AcDbBlockReference
  2
_OPEN
 10
1108.376511128294
 20
523.3948112424067
 30
0.0
 41
25.0
 42
25.0
 43
25.0
 50
270.0
  0
INSERT
  5
304
330
2FA
100
AcDbEntity
  8
C寸法
 62
     0
370
    -2
100
AcDbBlockReference
  2
_OPEN
 10
1108.376511128294
 20
508.3948112424067
 30
0.0
 41
25.0
 42
25.0
 43
25.0
 50
90.0
  0
MTEXT
  5
305
330
2FA
100
AcDbEntity
  8
C寸法
 62
     0
370
    13
100
AcDbMText
 10
1090.876511128294
 20
434.8494243376448
 30
0.0
 40
25.0
 41
0.0
 71
     5
 72
     1
  1
\A1;15
  7
KANJI
 11
0.0
 21
1.0
 31
0.0
 73
     1
 44
1.0
  0
POINT
  5
306
330
2FA
100
AcDbEntity
  8
Defpoints
 62
     0
100
AcDbPoint
 10
478.3765111283069
 20
523.3948112424067
 30
0.0
  0
POINT
  5
307
330
2FA
100
AcDbEntity
  8
Defpoints
 62
     0
100
AcDbPoint
 10
478.3765111283069
 20
508.3948112424067
 30
0.0
  0
POINT
  5
308
330
2FA
100
AcDbEntity
  8
Defpoints
 62
     0
100
AcDbPoint
 10
1108.376511128294
 20
508.3948112424067
 30
0.0
  0
ENDBLK
  5
2FC
330
2FA
100
AcDbEntity
  8
0
100
AcDbBlockEnd
  0
BLOCK
  5
30A
330
309
100
AcDbEntity
  8
0
100
AcDbBlockBegin
  2
*D18
 70
     1
 10
0.0
 20
0.0
 30
0.0
  3
*D18
  1
*D18
  0
LINE
  5
30C
330
309
100
AcDbEntity
  8
C寸法
 62
     0
370
    -2
100
AcDbLine
 10
847.6113535302295
 20
1028.394811242407
 30
0.0
 11
1058.376511128294
 21
1028.394811242407
 31
0.0
  0
LINE
  5
30D
330
309
100
AcDbEntity
  8
C寸法
 62
     0
370
    -2
100
AcDbLine
 10
931.9438349665669
 20
858.3948112424026
 30
0.0
 11
1058.376511128294
 21
858.3948112424026
 31
0.0
  0
LINE
  5
30E
330
309
100
AcDbEntity
  8
C寸法
 62
     0
370
    -2
100
AcDbLine
 10
1058.376511128294
 20
1003.394811242407
 30
0.0
 11
1058.376511128294
 21
883.3948112424026
 31
0.0
  0
INSERT
  5
30F
330
309
100
AcDbEntity
  8
C寸法
 62
     0
370
    -2
100
AcDbBlockReference
  2
_OPEN
 10
1058.376511128294
 20
1028.394811242407
 30
0.0
 41
25.0
 42
25.0
 43
25.0
 50
90.0
  0
INSERT
  5
310
330
309
100
AcDbEntity
  8
C寸法
 62
     0
370
    -2
100
AcDbBlockReference
  2
_OPEN
 10
1058.376511128294
 20
858.3948112424026
 30
0.0
 41
25.0
 42
25.0
 43
25.0
 50
270.0
  0
MTEXT
  5
311
330
309
100
AcDbEntity
  8
C寸法
 62
     0
370
    13
100
AcDbMText
 10
1040.876511128294
 20
943.3948112424046
 30
0.0
 40
25.0
 41
0.0
 71
     5
 72
     1
  1
\A1;170
  7
KANJI
 11
0.0
 21
1.0
 31
0.0
 73
     1
 44
1.0
  0
POINT
  5
312
330
309
100
AcDbEntity
  8
Defpoints
 62
     0
100
AcDbPoint
 10
837.6113535302295
 20
1028.394811242407
 30
0.0
  0
POINT
  5
313
330
309
100
AcDbEntity
  8
Defpoints
 62
     0
100
AcDbPoint
 10
921.9438349665669
 20
858.3948112424026
 30
0.0
  0
POINT
  5
314
330
309
100
AcDbEntity
  8
Defpoints
 62
     0
100
AcDbPoint
 10
1058.376511128294
 20
858.3948112424026
 30
0.0
  0
ENDBLK
  5
30B
330
309
100
AcDbEntity
  8
0
100
AcDbBlockEnd
  0
BLOCK
  5
316
330
315
100
AcDbEntity
  8
0
100
AcDbBlockBegin
  2
*D19
 70
     1
 10
0.0
 20
0.0
 30
0.0
  3
*D19
  1
*D19
  0
LINE
  5
318
330
315
100
AcDbEntity
  8
C寸法
 62
     0
370
    -2
100
AcDbLine
 10
78.37651112830804
 20
613.3948112424067
 30
0.0
 11
78.37651112830804
 21
358.3948112424067
 31
0.0
  0
LINE
  5
319
330
315
100
AcDbEntity
  8
C寸法
 62
     0
370
    -2
100
AcDbLine
 10
878.386511138317
 20
630.6787592276381
 30
0.0
 11
878.386511138317
 21
358.3948112424067
 31
0.0
  0
LINE
  5
31A
330
315
100
AcDbEntity
  8
C寸法
 62
     0
370
    -2
100
AcDbLine
 10
103.376511128308
 20
358.3948112424067
 30
0.0
 11
853.386511138317
 21
358.3948112424067
 31
0.0
  0
INSERT
  5
31B
330
315
100
AcDbEntity
  8
C寸法
 62
     0
370
    -2
100
AcDbBlockReference
  2
_OPEN
 10
78.37651112830804
 20
358.3948112424067
 30
0.0
 41
25.0
 42
25.0
 43
25.0
 50
180.0
  0
INSERT
  5
31C
330
315
100
AcDbEntity
  8
C寸法
 62
     0
370
    -2
100
AcDbBlockReference
  2
_OPEN
 10
878.386511138317
 20
358.3948112424067
 30
0.0
 41
25.0
 42
25.0
 43
25.0
  0
MTEXT
  5
31D
330
315
100
AcDbEntity
  8
C寸法
 62
     0
370
    13
100
AcDbMText
 10
478.3815111333125
 20
375.8948112424067
 30
0.0
 40
25.0
 41
0.0
 71
     5
 72
     1
  1
\A1;800
  7
KANJI
 73
     1
 44
1.0
  0
POINT
  5
31E
330
315
100
AcDbEntity
  8
Defpoints
 62
     0
100
AcDbPoint
 10
78.37651112830804
 20
623.3948112424067
 30
0.0
  0
POINT
  5
31F
330
315
100
AcDbEntity
  8
Defpoints
 62
     0
100
AcDbPoint
 10
878.386511138317
 20
640.6787592276381
 30
0.0
  0
POINT
  5
320
330
315
100
AcDbEntity
  8
Defpoints
 62
     0
100
AcDbPoint
 10
878.386511138317
 20
358.3948112424067
 30
0.0
  0
ENDBLK
  5
317
330
315
100
AcDbEntity
  8
0
100
AcDbBlockEnd
  0
BLOCK
  5
322
330
321
100
AcDbEntity
  8
0
100
AcDbBlockBegin
  2
*D20
 70
     1
 10
0.0
 20
0.0
 30
0.0
  3
*D20
  1
*D20
  0
LINE
  5
324
330
321
100
AcDbEntity
  8
C寸法
 62
     0
370
    -2
100
AcDbLine
 10
918.3765111282942
 20
274.1322423076466
 30
0.0
 11
1058.376511128294
 21
274.1322423076466
 31
0.0
  0
LINE
  5
325
330
321
100
AcDbEntity
  8
C寸法
 62
     0
370
    -2
100
AcDbLine
 10
578.7497836907538
 20
84.13224230765067
 30
0.0
 11
1058.376511128294
 21
84.13224230765064
 31
0.0
  0
LINE
  5
326
330
321
100
AcDbEntity
  8
C寸法
 62
     0
370
    -2
100
AcDbLine
 10
1058.376511128294
 20
249.1322423076466
 30
0.0
 11
1058.376511128294
 21
109.1322423076506
 31
0.0
  0
INSERT
  5
327
330
321
100
AcDbEntity
  8
C寸法
 62
     0
370
    -2
100
AcDbBlockReference
  2
_OPEN
 10
1058.376511128294
 20
274.1322423076466
 30
0.0
 41
25.0
 42
25.0
 43
25.0
 50
90.0
  0
INSERT
  5
328
330
321
100
AcDbEntity
  8
C寸法
 62
     0
370
    -2
100
AcDbBlockReference
  2
_OPEN
 10
1058.376511128294
 20
84.13224230765064
 30
0.0
 41
25.0
 42
25.0
 43
25.0
 50
270.0
  0
MTEXT
  5
329
330
321
100
AcDbEntity
  8
C寸法
 62
     0
370
    13
100
AcDbMText
 10
1040.876511128294
 20
179.1322423076486
 30
0.0
 40
25.0
 41
0.0
 71
     5
 72
     1
  1
\A1;190
  7
KANJI
 11
0.0
 21
1.0
 31
0.0
 73
     1
 44
1.0
  0
POINT
  5
32A
330
321
100
AcDbEntity
  8
Defpoints
 62
     0
100
AcDbPoint
 10
908.3765111282942
 20
274.1322423076466
 30
0.0
  0
POINT
  5
32B
330
321
100
AcDbEntity
  8
Defpoints
 62
     0
100
AcDbPoint
 10
568.7497836907538
 20
84.13224230765067
 30
0.0
  0
POINT
  5
32C
330
321
100
AcDbEntity
  8
Defpoints
 62
     0
100
AcDbPoint
 10
1058.376511128294
 20
84.13224230765064
 30
0.0
  0
ENDBLK
  5
323
330
321
100
AcDbEntity
  8
0
100
AcDbBlockEnd
  0
BLOCK
  5
32E
330
32D
100
AcDbEntity
  8
0
100
AcDbBlockBegin
  2
*D21
 70
     1
 10
0.0
 20
0.0
 30
0.0
  3
*D21
  1
*D21
  0
LINE
  5
330
330
32D
100
AcDbEntity
  8
C寸法
 62
     0
370
    -2
100
AcDbLine
 10
878.3765111283063
 20
978.3948112424031
 30
0.0
 11
878.3765111283063
 21
1108.307421494226
 31
0.0
  0
LINE
  5
331
330
32D
100
AcDbEntity
  8
C寸法
 62
     0
370
    -2
100
AcDbLine
 10
678.3758329633497
 20
1070.394811242403
 30
0.0
 11
678.3758329633497
 21
1108.307421494226
 31
0.0
  0
LINE
  5
332
330
32D
100
AcDbEntity
  8
C寸法
 62
     0
370
    -2
100
AcDbLine
 10
853.3765111283063
 20
1108.307421494226
 30
0.0
 11
703.3758329633497
 21
1108.307421494226
 31
0.0
  0
INSERT
  5
333
330
32D
100
AcDbEntity
  8
C寸法
 62
     0
370
    -2
100
AcDbBlockReference
  2
_OPEN
 10
878.3765111283063
 20
1108.307421494226
 30
0.0
 41
25.0
 42
25.0
 43
25.0
  0
INSERT
  5
334
330
32D
100
AcDbEntity
  8
C寸法
 62
     0
370
    -2
100
AcDbBlockReference
  2
_OPEN
 10
678.3758329633497
 20
1108.307421494226
 30
0.0
 41
25.0
 42
25.0
 43
25.0
 50
180.0
  0
MTEXT
  5
335
330
32D
100
AcDbEntity
  8
C寸法
 62
     0
370
    13
100
AcDbMText
 10
778.3761720458281
 20
1125.807421494226
 30
0.0
 40
25.0
 41
0.0
 71
     5
 72
     1
  1
\A1;200
  7
KANJI
 73
     1
 44
1.0
  0
POINT
  5
336
330
32D
100
AcDbEntity
  8
Defpoints
 62
     0
100
AcDbPoint
 10
878.3765111283063
 20
968.3948112424031
 30
0.0
  0
POINT
  5
337
330
32D
100
AcDbEntity
  8
Defpoints
 62
     0
100
AcDbPoint
 10
678.3758329633497
 20
1060.394811242403
 30
0.0
  0
POINT
  5
338
330
32D
100
AcDbEntity
  8
Defpoints
 62
     0
100
AcDbPoint
 10
678.3758329633497
 20
1108.307421494226
 30
0.0
  0
ENDBLK
  5
32F
330
32D
100
AcDbEntity
  8
0
100
AcDbBlockEnd
  0
BLOCK
  5
33A
330
339
100
AcDbEntity
  8
0
100
AcDbBlockBegin
  2
*D22
 70
     1
 10
0.0
 20
0.0
 30
0.0
  3
*D22
  1
*D22
  0
LINE
  5
33C
330
339
100
AcDbEntity
  8
C寸法
 62
     0
370
    -2
100
AcDbLine
 10
828.3765111283069
 20
1028.394811242402
 30
0.0
 11
1008.376511128294
 21
1028.394811242402
 31
0.0
  0
LINE
  5
33D
330
339
100
AcDbEntity
  8
C寸法
 62
     0
370
    -2
100
AcDbLine
 10
725.9474884248049
 20
993.8943517856459
 30
0.0
 11
1008.376511128294
 21
993.8943517856459
 31
0.0
  0
LINE
  5
33E
330
339
100
AcDbEntity
  8
C寸法
 62
     0
370
    -2
100
AcDbLine
 10
1008.376511128294
 20
1028.394811242402
 30
0.0
 11
1008.376511128294
 21
1164.585287432878
 31
0.0
  0
LINE
  5
33F
330
339
100
AcDbEntity
  8
C寸法
 62
     0
370
    -2
100
AcDbLine
 10
1008.376511128294
 20
1028.394811242402
 30
0.0
 11
1008.376511128294
 21
993.8943517856459
 31
0.0
  0
LINE
  5
340
330
339
100
AcDbEntity
  8
C寸法
 62
     0
370
    -2
100
AcDbLine
 10
1008.376511128294
 20
1053.394811242402
 30
0.0
 11
1008.376511128294
 21
1078.394811242402
 31
0.0
  0
LINE
  5
341
330
339
100
AcDbEntity
  8
C寸法
 62
     0
370
    -2
100
AcDbLine
 10
1008.376511128294
 20
968.8943517856459
 30
0.0
 11
1008.376511128294
 21
943.8943517856459
 31
0.0
  0
INSERT
  5
342
330
339
100
AcDbEntity
  8
C寸法
 62
     0
370
    -2
100
AcDbBlockReference
  2
_OPEN
 10
1008.376511128294
 20
1028.394811242402
 30
0.0
 41
25.0
 42
25.0
 43
25.0
 50
270.0
  0
INSERT
  5
343
330
339
100
AcDbEntity
  8
C寸法
 62
     0
370
    -2
100
AcDbBlockReference
  2
_OPEN
 10
1008.376511128294
 20
993.8943517856459
 30
0.0
 41
25.0
 42
25.0
 43
25.0
 50
90.0
  0
MTEXT
  5
344
330
339
100
AcDbEntity
  8
C寸法
 62
     0
370
    13
100
AcDbMText
 10
990.8765111282942
 20
1121.49004933764
 30
0.0
 40
25.0
 41
0.0
 71
     5
 72
     1
  1
\A1;34.5
  7
KANJI
 11
0.0
 21
1.0
 31
0.0
 73
     1
 44
1.0
  0
POINT
  5
345
330
339
100
AcDbEntity
  8
Defpoints
 62
     0
100
AcDbPoint
 10
818.3765111283069
 20
1028.394811242402
 30
0.0
  0
POINT
  5
346
330
339
100
AcDbEntity
  8
Defpoints
 62
     0
100
AcDbPoint
 10
715.9474884248049
 20
993.8943517856459
 30
0.0
  0
POINT
  5
347
330
339
100
AcDbEntity
  8
Defpoints
 62
     0
100
AcDbPoint
 10
1008.376511128294
 20
993.8943517856459
 30
0.0
  0
ENDBLK
  5
33B
330
339
100
AcDbEntity
  8
0
100
AcDbBlockEnd
  0
BLOCK
  5
349
330
348
100
AcDbEntity
  8
0
100
AcDbBlockBegin
  2
*D23
 70
     1
 10
0.0
 20
0.0
 30
0.0
  3
*D23
  1
*D23
  0
LINE
  5
34B
330
348
100
AcDbEntity
  8
C寸法
 62
     0
370
    -2
100
AcDbLine
 10
896.2351834800394
 20
274.0948112424064
 30
0.0
 11
1008.376511128294
 21
274.0948112424064
 31
0.0
  0
LINE
  5
34C
330
348
100
AcDbEntity
  8
C寸法
 62
     0
370
    -2
100
AcDbLine
 10
877.7309635401047
 20
259.1322423076466
 30
0.0
 11
1008.376511128294
 21
259.1322423076466
 31
0.0
  0
LINE
  5
34D
330
348
100
AcDbEntity
  8
C寸法
 62
     0
370
    -2
100
AcDbLine
 10
1008.376511128294
 20
234.1322423076466
 30
0.0
 11
1008.376511128294
 21
162.0414684981228
 31
0.0
  0
LINE
  5
34E
330
348
100
AcDbEntity
  8
C寸法
 62
     0
370
    -2
100
AcDbLine
 10
1008.376511128294
 20
274.0948112424064
 30
0.0
 11
1008.376511128294
 21
259.1322423076466
 31
0.0
  0
LINE
  5
34F
330
348
100
AcDbEntity
  8
C寸法
 62
     0
370
    -2
100
AcDbLine
 10
1008.376511128294
 20
299.0948112424064
 30
0.0
 11
1008.376511128294
 21
324.0948112424064
 31
0.0
  0
INSERT
  5
350
330
348
100
AcDbEntity
  8
C寸法
 62
     0
370
    -2
100
AcDbBlockReference
  2
_OPEN
 10
1008.376511128294
 20
274.0948112424064
 30
0.0
 41
25.0
 42
25.0
 43
25.0
 50
270.0
  0
INSERT
  5
351
330
348
100
AcDbEntity
  8
C寸法
 62
     0
370
    -2
100
AcDbBlockReference
  2
_OPEN
 10
1008.376511128294
 20
259.1322423076466
 30
0.0
 41
25.0
 42
25.0
 43
25.0
 50
90.0
  0
MTEXT
  5
352
330
348
100
AcDbEntity
  8
C寸法
 62
     0
370
    13
100
AcDbMText
 10
990.8765111282942
 20
185.5868554028847
 30
0.0
 40
25.0
 41
0.0
 71
     5
 72
     1
  1
\A1;15
  7
KANJI
 11
0.0
 21
1.0
 31
0.0
 73
     1
 44
1.0
  0
POINT
  5
353
330
348
100
AcDbEntity
  8
Defpoints
 62
     0
100
AcDbPoint
 10
886.2351834800394
 20
274.0948112424064
 30
0.0
  0
POINT
  5
354
330
348
100
AcDbEntity
  8
Defpoints
 62
     0
100
AcDbPoint
 10
867.7309635401047
 20
259.1322423076466
 30
0.0
  0
POINT
  5
355
330
348
100
AcDbEntity
  8
Defpoints
 62
     0
100
AcDbPoint
 10
1008.376511128294
 20
259.1322423076466
 30
0.0
  0
ENDBLK
  5
34A
330
348
100
AcDbEntity
  8
0
100
AcDbBlockEnd
  0
BLOCK
  5
357
330
356
100
AcDbEntity
  8
0
100
AcDbBlockBegin
  2
*D24
 70
     1
 10
0.0
 20
0.0
 30
0.0
  3
*D24
  1
*D24
  0
LINE
  5
359
330
356
100
AcDbEntity
  8
C寸法
 62
     0
 48
20.0
370
    -2
100
AcDbLine
 10
568.876511128306
 20
848.3948112424031
 30
0.0
 11
568.876511128306
 21
698.4234500192428
 31
0.0
  0
LINE
  5
35A
330
356
100
AcDbEntity
  8
C寸法
 62
     0
 48
20.0
370
    -2
100
AcDbLine
 10
388.0661793574977
 20
848.1489839565339
 30
0.0
 11
388.0661793574977
 21
698.4234500192428
 31
0.0
  0
LINE
  5
35B
330
356
100
AcDbEntity
  8
C寸法
 62
     0
 48
20.0
370
    -2
100
AcDbLine
 10
543.876511128306
 20
698.4234500192428
 30
0.0
 11
413.0661793574977
 21
698.4234500192428
 31
0.0
  0
INSERT
  5
35C
330
356
100
AcDbEntity
  8
C寸法
 62
     0
370
    -2
100
AcDbBlockReference
  2
_OPEN
 10
568.876511128306
 20
698.4234500192428
 30
0.0
 41
25.0
 42
25.0
 43
25.0
  0
INSERT
  5
35D
330
356
100
AcDbEntity
  8
C寸法
 62
     0
370
    -2
100
AcDbBlockReference
  2
_OPEN
 10
388.0661793574977
 20
698.4234500192428
 30
0.0
 41
25.0
 42
25.0
 43
25.0
 50
180.0
  0
MTEXT
  5
35E
330
356
100
AcDbEntity
  8
C寸法
 62
     0
370
    13
100
AcDbMText
 10
492.5527683527885
 20
715.9234500192428
 30
0.0
 40
25.0
 41
0.0
 71
     5
 72
     1
  1
\A1;Φ181
  7
KANJI
 73
     1
 44
1.0
  0
POINT
  5
35F
330
356
100
AcDbEntity
  8
Defpoints
 62
     0
100
AcDbPoint
 10
568.876511128306
 20
858.3948112424031
 30
0.0
  0
POINT
  5
360
330
356
100
AcDbEntity
  8
Defpoints
 62
     0
100
AcDbPoint
 10
388.0661793574977
 20
858.1489839565339
 30
0.0
  0
POINT
  5
361
330
356
100
AcDbEntity
  8
Defpoints
 62
     0
100
AcDbPoint
 10
388.0661793574977
 20
698.4234500192428
 30
0.0
  0
ENDBLK
  5
358
330
356
100
AcDbEntity
  8
0
100
AcDbBlockEnd
  0
BLOCK
  5
367
330
366
100
AcDbEntity
  8
0
100
AcDbBlockBegin
  2
*D25
 70
     1
 10
0.0
 20
0.0
 30
0.0
  3
*D25
  1
*D25
  0
LINE
  5
369
330
366
100
AcDbEntity
  8
0
 62
     0
370
    -2
100
AcDbLine
 10
660.6233207778353
 20
994.5041230902855
 30
0.0
 11
660.6233207778353
 21
1077.366954346678
 31
0.0
  0
LINE
  5
36A
330
366
100
AcDbEntity
  8
0
 62
     0
370
    -2
100
AcDbLine
 10
696.4573317789344
 20
994.5041230902855
 30
0.0
 11
696.4573317789344
 21
1077.366954346678
 31
0.0
  0
LINE
  5
36B
330
366
100
AcDbEntity
  8
0
 62
     0
370
    -2
100
AcDbLine
 10
660.6233207778353
 20
1076.116954346678
 30
0.0
 11
446.7542731587876
 21
1076.116954346678
 31
0.0
  0
LINE
  5
36C
330
366
100
AcDbEntity
  8
0
 62
     0
370
    -2
100
AcDbLine
 10
660.6233207778353
 20
1076.116954346678
 30
0.0
 11
696.4573317789344
 21
1076.116954346678
 31
0.0
  0
LINE
  5
36D
330
366
100
AcDbEntity
  8
0
 62
     0
370
    -2
100
AcDbLine
 10
635.6233207778353
 20
1076.116954346678
 30
0.0
 11
610.6233207778353
 21
1076.116954346678
 31
0.0
  0
LINE
  5
36E
330
366
100
AcDbEntity
  8
0
 62
     0
370
    -2
100
AcDbLine
 10
721.4573317789344
 20
1076.116954346678
 30
0.0
 11
746.4573317789344
 21
1076.116954346678
 31
0.0
  0
INSERT
  5
36F
330
366
100
AcDbEntity
  8
0
 62
     0
370
    -2
100
AcDbBlockReference
  2
_OPEN
 10
660.6233207778353
 20
1076.116954346678
 30
0.0
 41
25.0
 42
25.0
 43
25.0
  0
INSERT
  5
370
330
366
100
AcDbEntity
  8
0
 62
     0
370
    -2
100
AcDbBlockReference
  2
_OPEN
 10
696.4573317789344
 20
1076.116954346678
 30
0.0
 41
25.0
 42
25.0
 43
25.0
 50
180.0
  0
MTEXT
  5
371
330
366
100
AcDbEntity
  8
0
 62
     0
370
    13
100
AcDbMText
 10
528.6887969683114
 20
1093.616954346678
 30
0.0
 40
25.0
 41
0.0
 71
     5
 72
     1
  1
Φ36水栓穴
  7
KANJI
 73
     1
 44
1.0
  0
POINT
  5
372
330
366
100
AcDbEntity
  8
Defpoints
 62
     0
100
AcDbPoint
 10
660.6233207778353
 20
993.8791230902855
 30
0.0
  0
POINT
  5
373
330
366
100
AcDbEntity
  8
Defpoints
 62
     0
100
AcDbPoint
 10
696.4573317789344
 20
993.8791230902855
 30
0.0
  0
POINT
  5
3B6
330
366
100
AcDbEntity
  8
Defpoints
 62
     0
100
AcDbPoint
 10
696.4573317789344
 20
1076.116954346678
 30
0.0
  0
ENDBLK
  5
368
330
366
100
AcDbEntity
  8
0
100
AcDbBlockEnd
  0
BLOCK
  5
389
330
388
100
AcDbEntity
  8
0
100
AcDbBlockBegin
  2
*D27
 70
     1
 10
0.0
 20
0.0
 30
0.0
  3
*D27
  1
*D27
  0
LINE
  5
38B
330
388
100
AcDbEntity
  8
C寸法
 62
     0
370
    -2
100
AcDbLine
 10
79.08398221112532
 20
978.3948112424031
 30
0.0
 11
79.08398221112532
 21
1108.307421494226
 31
0.0
  0
LINE
  5
38C
330
388
100
AcDbEntity
  8
C寸法
 62
     0
370
    -2
100
AcDbLine
 10
279.084660376082
 20
1070.394811242403
 30
0.0
 11
279.084660376082
 21
1108.307421494226
 31
0.0
  0
LINE
  5
38D
330
388
100
AcDbEntity
  8
C寸法
 62
     0
370
    -2
100
AcDbLine
 10
104.0839822111253
 20
1108.307421494226
 30
0.0
 11
254.084660376082
 21
1108.307421494226
 31
0.0
  0
INSERT
  5
38E
330
388
100
AcDbEntity
  8
C寸法
 62
     0
370
    -2
100
AcDbBlockReference
  2
_OPEN
 10
79.08398221112532
 20
1108.307421494226
 30
0.0
 41
25.0
 42
25.0
 43
25.0
 50
180.0
  0
INSERT
  5
38F
330
388
100
AcDbEntity
  8
C寸法
 62
     0
370
    -2
100
AcDbBlockReference
  2
_OPEN
 10
279.084660376082
 20
1108.307421494226
 30
0.0
 41
25.0
 42
25.0
 43
25.0
  0
MTEXT
  5
390
330
388
100
AcDbEntity
  8
C寸法
 62
     0
370
    13
100
AcDbMText
 10
179.0843212936036
 20
1125.807421494226
 30
0.0
 40
25.0
 41
0.0
 71
     5
 72
     1
  1
\A1;200
  7
KANJI
 73
     1
 44
1.0
  0
POINT
  5
391
330
388
100
AcDbEntity
  8
Defpoints
 62
     0
100
AcDbPoint
 10
79.08398221112532
 20
968.3948112424031
 30
0.0
  0
POINT
  5
392
330
388
100
AcDbEntity
  8
Defpoints
 62
     0
100
AcDbPoint
 10
279.084660376082
 20
1060.394811242403
 30
0.0
  0
POINT
  5
393
330
388
100
AcDbEntity
  8
Defpoints
 62
     0
100
AcDbPoint
 10
279.084660376082
 20
1108.307421494226
 30
0.0
  0
ENDBLK
  5
38A
330
388
100
AcDbEntity
  8
0
100
AcDbBlockEnd
  0
BLOCK
  5
398
330
397
100
AcDbEntity
  8
0
100
AcDbBlockBegin
  2
*D28
 70
     1
 10
0.0
 20
0.0
 30
0.0
  3
*D28
  1
*D28
  0
LINE
  5
39A
330
397
100
AcDbEntity
  8
0
 62
     0
370
    -2
100
AcDbLine
 10
96.54058691781297
 20
582.2710484786046
 30
0.0
 11
270.3970639627955
 21
689.0856365670754
 31
0.0
  0
MTEXT
  5
39B
330
397
100
AcDbEntity
  8
0
 62
     0
370
    13
100
AcDbMText
 10
195.6089162982045
 20
663.6759887446552
 30
0.0
 40
25.0
 41
0.0
 71
     5
 72
     1
  1
4-R115
  7
KANJI
 11
0.8520387439777442
 21
0.5234787280881888
 31
0.0
 73
     1
 44
1.0
  0
INSERT
  5
39C
330
397
100
AcDbEntity
  8
0
 62
     0
370
    -2
100
AcDbBlockReference
  2
_OPEN
 10
96.54058691781297
 20
582.2710484786046
 30
0.0
 41
25.0
 42
25.0
 43
25.0
 50
211.5658883241874
  0
POINT
  5
39D
330
397
100
AcDbEntity
  8
Defpoints
 62
     0
100
AcDbPoint
 10
96.54058691781297
 20
582.2710484786046
 30
0.0
  0
POINT
  5
39E
330
397
100
AcDbEntity
  8
Defpoints
 62
     0
100
AcDbPoint
 10
194.5250424752526
 20
642.4711022087457
 30
0.0
  0
ENDBLK
  5
399
330
397
100
AcDbEntity
  8
0
100
AcDbBlockEnd
  0
BLOCK
  5
3A3
330
3A2
100
AcDbEntity
  8
0
100
AcDbBlockBegin
  2
*D29
 70
     1
 10
0.0
 20
0.0
 30
0.0
  3
*D29
  1
*D29
  0
LINE
  5
3A5
330
3A2
100
AcDbEntity
  8
0
 62
     0
370
    -2
100
AcDbLine
 10
120.7038026151977
 20
536.151218729345
 30
0.0
 11
296.0866939486313
 21
651.7093893286748
 31
0.0
  0
MTEXT
  5
3A6
330
3A2
100
AcDbEntity
  8
0
 62
     0
370
    13
100
AcDbMText
 10
222.1406735591039
 20
623.9442438741357
 30
0.0
 40
25.0
 41
0.0
 71
     5
 72
     1
  1
2-R115
  7
KANJI
 11
0.8350349826807131
 21
0.5501968535891687
 31
0.0
 73
     1
 44
1.0
  0
INSERT
  5
3A7
330
3A2
100
AcDbEntity
  8
0
 62
     0
370
    -2
100
AcDbBlockReference
  2
_OPEN
 10
120.7038026151977
 20
536.151218729345
 30
0.0
 41
25.0
 42
25.0
 43
25.0
 50
213.3805189951445
  0
POINT
  5
3A8
330
3A2
100
AcDbEntity
  8
Defpoints
 62
     0
100
AcDbPoint
 10
120.7038026151977
 20
536.151218729345
 30
0.0
  0
POINT
  5
3A9
330
3A2
100
AcDbEntity
  8
Defpoints
 62
     0
100
AcDbPoint
 10
216.7328256234788
 20
599.4238568920988
 30
0.0
  0
ENDBLK
  5
3A4
330
3A2
100
AcDbEntity
  8
0
100
AcDbBlockEnd
  0
BLOCK
  5
3AE
330
3AD
100
AcDbEntity
  8
0
100
AcDbBlockBegin
  2
*D30
 70
     1
 10
0.0
 20
0.0
 30
0.0
  3
*D30
  1
*D30
  0
LINE
  5
3B0
330
3AD
100
AcDbEntity
  8
0
 62
     0
370
    -2
100
AcDbLine
 10
103.7021582284783
 20
1017.361016435149
 30
0.0
 11
242.9667674595704
 21
820.6952141519025
 31
0.0
  0
MTEXT
  5
3B1
330
3AD
100
AcDbEntity
  8
0
 62
     0
370
    13
100
AcDbMText
 10
219.6158966800609
 20
883.9524445421943
 30
0.0
 40
25.0
 41
0.0
 71
     5
 72
     1
  1
2-R60
  7
KANJI
 11
0.5779058816638162
 21
-0.8161034198791028
 31
0.0
 73
     1
 44
1.0
  0
INSERT
  5
3B2
330
3AD
100
AcDbEntity
  8
0
 62
     0
370
    -2
100
AcDbBlockReference
  2
_OPEN
 10
103.7021582284783
 20
1017.361016435149
 30
0.0
 41
25.0
 42
25.0
 43
25.0
 50
125.3033879046966
  0
POINT
  5
3B3
330
3AD
100
AcDbEntity
  8
Defpoints
 62
     0
100
AcDbPoint
 10
103.7021582284783
 20
1017.361016435149
 30
0.0
  0
POINT
  5
3B4
330
3AD
100
AcDbEntity
  8
Defpoints
 62
     0
100
AcDbPoint
 10
138.3765111283069
 20
968.3948112424031
 30
0.0
  0
ENDBLK
  5
3AF
330
3AD
100
AcDbEntity
  8
0
100
AcDbBlockEnd
  0
ENDSEC
  0
SECTION
  2
ENTITIES
  0
TEXT
  5
23E
330
1F
100
AcDbEntity
  8
C寸法
 62
     7
100
AcDbText
 10
1186.024537768243
 20
140.5323025345069
 30
0.0
 40
30.0
  1
品　番　：N800BIA 寸法図
  7
KANJI
100
AcDbText
  0
LINE
  5
23F
330
1F
100
AcDbEntity
  8
0
100
AcDbLine
 10
1181.473565323093
 20
128.7386704020201
 30
0.0
 11
1771.838701340068
 21
128.7386704020201
 31
0.0
  0
TEXT
  5
240
330
1F
100
AcDbEntity
  8
C寸法
 62
     7
100
AcDbText
 10
1226.937475914959
 20
91.85414060899066
 30
0.0
 40
25.0
  1
※詳細はお問合せください
  7
KANJI
100
AcDbText
  0
LWPOLYLINE
  5
241
330
1F
100
AcDbEntity
  8
0
100
AcDbPolyline
 90
        4
 70
     1
 43
0.0
 10
4.187561697926867
 20
1205.594570650022
 10
4.187561697926867
 20
4.04608274252891
 10
1804.243220940473
 20
4.04608274252891
 10
1804.243220940473
 20
1205.594570650022
  0
LINE
  5
242
330
1F
100
AcDbEntity
  8
C2
  6
CENTER
 62
     0
 48
20.0
370
    13
100
AcDbLine
 10
478.3765111283069
 20
1063.394811242403
 30
0.0
 11
478.3765111283069
 21
473.3948112424067
 31
0.0
  0
LINE
  5
245
330
1F
100
AcDbEntity
  8
C2
  6
CENTER
 62
     0
 48
20.0
370
    13
100
AcDbLine
 10
49.79880431556739
 20
858.3948112424031
 30
0.0
 11
905.1372764276891
 21
858.394811242403
 31
0.0
  0
LINE
  5
246
330
1F
100
AcDbEntity
  8
C4
 62
     0
370
    18
100
AcDbLine
 10
1317.88858255945
 20
1031.394811242403
 30
0.0
 11
1317.88858255945
 21
1045.394811242407
 31
0.0
  0
ARC
  5
247
330
1F
100
AcDbEntity
  8
C4
 62
     0
370
    18
100
AcDbCircle
 10
1320.88858255945
 20
1031.394811242403
 30
0.0
 40
2.999999999999971
100
AcDbArc
 50
180.0
 51
270.0
  0
LINE
  5
248
330
1F
100
AcDbEntity
  8
C4
 62
     0
370
    18
100
AcDbLine
 10
881.6774784549002
 20
274.1322423076466
 30
0.0
 11
75.08135649338737
 21
274.1322423076466
 31
0.0
  0
LINE
  5
249
330
1F
100
AcDbEntity
  8
C4
 62
     0
370
    18
100
AcDbLine
 10
557.8765111283087
 20
74.63224230764976
 30
0.0
 11
398.8765111283087
 21
74.63224230765022
 31
0.0
  0
LINE
  5
24A
330
1F
100
AcDbEntity
  8
C4
 62
     0
370
    18
100
AcDbLine
 10
385.7957965081846
 20
84.13224230765067
 30
0.0
 11
570.5417179752262
 21
84.13224230765067
 31
0.0
  0
LINE
  5
24B
330
1F
100
AcDbEntity
  8
C4
 62
     0
370
    18
100
AcDbLine
 10
557.8765111283087
 20
77.13224230765067
 30
0.0
 11
398.8765111283087
 21
77.13224230764976
 31
0.0
  0
LINE
  5
24C
330
1F
100
AcDbEntity
  8
C4
 62
     0
370
    18
100
AcDbLine
 10
193.3765111283069
 20
508.3948112424067
 30
0.0
 11
763.3765111283069
 21
508.3948112424067
 31
0.0
  0
LINE
  5
24D
330
1F
100
AcDbEntity
  8
C4
 62
     0
370
    18
100
AcDbLine
 10
193.3765111283069
 20
491.3948112424067
 30
0.0
 11
763.3765111283069
 21
491.3948112424067
 31
0.0
  0
LINE
  5
24E
330
1F
100
AcDbEntity
  8
C4
 62
     0
370
    18
100
AcDbLine
 10
78.3765111283069
 20
623.3948112424067
 30
0.0
 11
78.3765111283069
 21
968.3948112424031
 31
0.0
  0
LINE
  5
24F
330
1F
100
AcDbEntity
  8
C4
 62
     0
370
    18
100
AcDbLine
 10
61.3765111283069
 20
968.3948112424031
 30
0.0
 11
61.3765111283069
 21
623.3948112424067
 31
0.0
  0
LINE
  5
250
330
1F
100
AcDbEntity
  8
C4
 62
     0
370
    18
100
AcDbLine
 10
878.3765111282923
 20
623.3948112424067
 30
0.0
 11
878.3765111282923
 21
968.3948112424031
 31
0.0
  0
LINE
  5
251
330
1F
100
AcDbEntity
  8
C4
 62
     0
370
    18
100
AcDbLine
 10
895.3765335892317
 20
968.3948112424031
 30
0.0
 11
895.3765111282923
 21
623.3948112424067
 31
0.0
  0
LINE
  5
252
330
1F
100
AcDbEntity
  8
C4
 62
     0
370
    18
100
AcDbLine
 10
818.3765111283069
 20
1045.394811242407
 30
0.0
 11
138.3765111283069
 21
1045.394811242407
 31
0.0
  0
LINE
  5
253
330
1F
100
AcDbEntity
  8
C4
 62
     0
370
    18
100
AcDbLine
 10
138.3765111283069
 20
1028.394811242403
 30
0.0
 11
818.3765111283069
 21
1028.394811242403
 31
0.0
  0
LINE
  5
254
330
1F
100
AcDbEntity
  8
C4
 62
     0
370
    18
100
AcDbLine
 10
74.37651112830872
 20
271.6322423076466
 30
0.0
 11
61.37651112830872
 21
271.6322423076466
 31
0.0
  0
LINE
  5
255
330
1F
100
AcDbEntity
  8
C4
 62
     0
370
    18
100
AcDbLine
 10
78.37651112830872
 20
126.8294554670295
 30
0.0
 11
78.37651112830872
 21
271.1322423076175
 31
0.0
  0
ARC
  5
256
330
1F
100
AcDbEntity
  8
C4
 62
     0
370
    18
100
AcDbCircle
 10
75.37651112830872
 20
271.1322423076175
 30
0.0
 40
2.999999999999971
100
AcDbArc
 50
0.0
 51
89.99999999989578
  0
LINE
  5
257
330
1F
100
AcDbEntity
  8
C4
 62
     0
370
    18
100
AcDbLine
 10
75.87651112830872
 20
126.8294554670295
 30
0.0
 11
75.87651112830872
 21
270.1322423076502
 31
0.0
  0
LINE
  5
258
330
1F
100
AcDbEntity
  8
C4
 62
     0
370
    18
100
AcDbLine
 10
387.8765111283087
 20
77.13224230765022
 30
0.0
 11
387.8765111283087
 21
81.66765313900154
 31
0.0
  0
LINE
  5
259
330
1F
100
AcDbEntity
  8
C4
 62
     0
370
    18
100
AcDbLine
 10
398.8765111283087
 20
77.13224230765022
 30
0.0
 11
398.8765111283087
 21
74.63224230765022
 31
0.0
  0
LINE
  5
25A
330
1F
100
AcDbEntity
  8
C4
 62
     0
370
    18
100
AcDbLine
 10
398.8765111283087
 20
77.13224230765022
 30
0.0
 11
387.8765111283087
 21
77.13224230765022
 31
0.0
  0
LINE
  5
25B
330
1F
100
AcDbEntity
  8
C4
 62
     0
370
    18
100
AcDbLine
 10
387.8765111283087
 20
74.63224230765022
 30
0.0
 11
398.8765111283087
 21
74.63224230765022
 31
0.0
  0
LINE
  5
25C
330
1F
100
AcDbEntity
  8
C4
 62
     0
370
    18
100
AcDbLine
 10
385.3765111283087
 20
77.13224230765022
 30
0.0
 11
385.3765111283087
 21
81.66765313900154
 31
0.0
  0
LINE
  5
25D
330
1F
100
AcDbEntity
  8
C4
 62
     0
370
    18
100
AcDbLine
 10
882.3765111282942
 20
271.6322423076466
 30
0.0
 11
895.3765111282942
 21
271.6322423076466
 31
0.0
  0
LINE
  5
25E
330
1F
100
AcDbEntity
  8
C4
 62
     0
370
    18
100
AcDbLine
 10
878.3765111282942
 20
126.8294554670295
 30
0.0
 11
878.3765111282942
 21
271.1322423076175
 31
0.0
  0
ARC
  5
25F
330
1F
100
AcDbEntity
  8
C4
 62
     0
370
    18
100
AcDbCircle
 10
881.3765111283087
 20
271.1322423076175
 30
0.0
 40
2.999999999999971
100
AcDbArc
 50
90.00000000010422
 51
180.0
  0
LINE
  5
260
330
1F
100
AcDbEntity
  8
C4
 62
     0
370
    18
100
AcDbLine
 10
880.8765111282942
 20
126.8294554670295
 30
0.0
 11
880.8765111282942
 21
270.1322423076502
 31
0.0
  0
LINE
  5
261
330
1F
100
AcDbEntity
  8
C4
 62
     0
370
    18
100
AcDbLine
 10
568.8765111283087
 20
77.13224230765022
 30
0.0
 11
568.8765111283087
 21
82.1604630236919
 31
0.0
  0
LINE
  5
262
330
1F
100
AcDbEntity
  8
C4
 62
     0
370
    18
100
AcDbLine
 10
557.8765111283087
 20
77.13224230765022
 30
0.0
 11
557.8765111283087
 21
74.63224230765022
 31
0.0
  0
LINE
  5
263
330
1F
100
AcDbEntity
  8
C4
 62
     0
370
    18
100
AcDbLine
 10
557.8765111283087
 20
77.13224230765022
 30
0.0
 11
568.8765111283087
 21
77.13224230765022
 31
0.0
  0
LINE
  5
264
330
1F
100
AcDbEntity
  8
C4
 62
     0
370
    18
100
AcDbLine
 10
568.8765111283087
 20
74.63224230765022
 30
0.0
 11
557.8765111283087
 21
74.63224230765022
 31
0.0
  0
LINE
  5
265
330
1F
100
AcDbEntity
  8
C4
 62
     0
370
    18
100
AcDbLine
 10
571.3765111283087
 20
77.13224230765022
 30
0.0
 11
571.3765111283087
 21
81.66765313900154
 31
0.0
  0
LINE
  5
266
330
1F
100
AcDbEntity
  8
C4
 62
     0
370
    18
100
AcDbLine
 10
875.3765111282942
 20
259.1322423076466
 30
0.0
 11
528.3765111283087
 21
259.1322423076466
 31
0.0
  0
LINE
  5
267
330
1F
100
AcDbEntity
  8
C4
 62
     0
370
    18
100
AcDbLine
 10
1320.38858255945
 20
504.3948112424067
 30
0.0
 11
1320.38858255945
 21
491.3948112424067
 31
0.0
  0
LINE
  5
268
330
1F
100
AcDbEntity
  8
C4
 62
     0
370
    18
100
AcDbLine
 10
1329.88858255945
 20
508.3948112424067
 30
0.0
 11
1320.888586232645
 21
508.3948112424067
 31
0.0
  0
LINE
  5
269
330
1F
100
AcDbEntity
  8
C4
 62
     0
370
    18
100
AcDbLine
 10
1329.88858255945
 20
505.8948112424067
 30
0.0
 11
1321.88858255945
 21
505.8948112424067
 31
0.0
  0
LINE
  5
26A
330
1F
100
AcDbEntity
  8
C4
 62
     0
370
    18
100
AcDbLine
 10
1332.88858255945
 20
520.3948112424104
 30
0.0
 11
1332.88858255945
 21
511.3948112424031
 31
0.0
  0
ARC
  5
26B
330
1F
100
AcDbEntity
  8
C4
 62
     0
370
    18
100
AcDbCircle
 10
1335.88858255945
 20
520.3948112424104
 30
0.0
 40
2.999999999999971
100
AcDbArc
 50
90.0
 51
180.0
  0
LINE
  5
26C
330
1F
100
AcDbEntity
  8
C4
 62
     0
370
    18
100
AcDbLine
 10
1335.88858255945
 20
523.3948112424067
 30
0.0
 11
1465.395711244916
 21
523.3948112424067
 31
0.0
  0
LINE
  5
26D
330
1F
100
AcDbEntity
  8
C4
 62
     0
370
    18
100
AcDbLine
 10
1335.38858255945
 20
511.3948112424031
 30
0.0
 11
1335.38858255945
 21
518.3948112424067
 31
0.0
  0
LINE
  5
26E
330
1F
100
AcDbEntity
  8
C4
 62
     0
370
    18
100
AcDbLine
 10
1337.88858255945
 20
520.8948112424067
 30
0.0
 11
1465.395711244916
 21
520.8948112424067
 31
0.0
  0
LINE
  5
26F
330
1F
100
AcDbEntity
  8
C4
 62
     0
370
    18
100
AcDbLine
 10
1335.836674348803
 20
953.3948112424031
 30
0.0
 11
1477.88858255945
 21
953.3948112424031
 31
0.0
  0
LINE
  5
270
330
1F
100
AcDbEntity
  8
C4
 62
     0
370
    18
100
AcDbLine
 10
1332.88858255945
 20
518.3948112424067
 30
0.0
 11
1332.88858255945
 21
639.977504145524
 31
0.0
  0
LINE
  5
271
330
1F
100
AcDbEntity
  8
C4
 62
     0
370
    18
100
AcDbLine
 10
1320.38858255945
 20
1032.394811242403
 30
0.0
 11
1320.38858255945
 21
1045.394811242407
 31
0.0
  0
LINE
  5
272
330
1F
100
AcDbEntity
  8
C4
 62
     0
370
    18
100
AcDbLine
 10
1320.88858255945
 20
1028.394811242403
 30
0.0
 11
1475.977334758109
 21
1028.394811242403
 31
0.0
  0
LINE
  5
273
330
1F
100
AcDbEntity
  8
C4
 62
     0
370
    18
100
AcDbLine
 10
1321.88858255945
 20
1030.894811242403
 30
0.0
 11
1475.977334758109
 21
1030.894811242403
 31
0.0
  0
LINE
  5
274
330
1F
100
AcDbEntity
  8
C4
 62
     0
370
    18
100
AcDbLine
 10
1332.873352075085
 20
954.2673651070535
 30
0.0
 11
1331.632009295967
 21
1025.383845293664
 31
0.0
  0
LINE
  5
275
330
1F
100
AcDbEntity
  8
C4
 62
     0
370
    18
100
AcDbLine
 10
1517.38858255945
 20
937.8948112424067
 30
0.0
 11
1517.388582559454
 21
778.8948112424026
 31
0.0
  0
LINE
  5
276
330
1F
100
AcDbEntity
  8
C4
 62
     0
370
    18
100
AcDbLine
 10
1514.88858255945
 20
937.8948112424067
 30
0.0
 11
1514.88858255945
 21
778.8948112424026
 31
0.0
  0
LINE
  5
277
330
1F
100
AcDbEntity
  8
C4
 62
     0
370
    18
100
AcDbLine
 10
1510.308879128441
 20
767.8948112424067
 30
0.0
 11
1514.88858255945
 21
767.8948112424067
 31
0.0
  0
LINE
  5
278
330
1F
100
AcDbEntity
  8
C4
 62
     0
370
    18
100
AcDbLine
 10
1514.88858255945
 20
778.8948112424031
 30
0.0
 11
1517.38858255945
 21
778.8948112424031
 31
0.0
  0
LINE
  5
279
330
1F
100
AcDbEntity
  8
C4
 62
     0
370
    18
100
AcDbLine
 10
1514.88858255945
 20
778.8948112424031
 30
0.0
 11
1514.88858255945
 21
767.8948112424067
 31
0.0
  0
LINE
  5
27A
330
1F
100
AcDbEntity
  8
C4
 62
     0
370
    18
100
AcDbLine
 10
1517.38858255945
 20
767.8948112424067
 30
0.0
 11
1517.38858255945
 21
778.8948112424031
 31
0.0
  0
LINE
  5
27B
330
1F
100
AcDbEntity
  8
C4
 62
     0
370
    18
100
AcDbLine
 10
1510.308879128441
 20
765.3948112424067
 30
0.0
 11
1514.88858255945
 21
765.3948112424067
 31
0.0
  0
LINE
  5
27C
330
1F
100
AcDbEntity
  8
C4
 62
     0
370
    18
100
AcDbLine
 10
1510.308879128441
 20
948.8948112423994
 30
0.0
 11
1514.88858255945
 21
948.8948112424067
 31
0.0
  0
LINE
  5
27D
330
1F
100
AcDbEntity
  8
C4
 62
     0
370
    18
100
AcDbLine
 10
1514.88858255945
 20
937.8948112424067
 30
0.0
 11
1517.38858255945
 21
937.8948112424067
 31
0.0
  0
LINE
  5
27E
330
1F
100
AcDbEntity
  8
C4
 62
     0
370
    18
100
AcDbLine
 10
1514.88858255945
 20
937.8948112424067
 30
0.0
 11
1514.88858255945
 21
948.8948112424067
 31
0.0
  0
LINE
  5
27F
330
1F
100
AcDbEntity
  8
C4
 62
     0
370
    18
100
AcDbLine
 10
1517.38858255945
 20
948.8948112424067
 30
0.0
 11
1517.38858255945
 21
937.8948112424067
 31
0.0
  0
LINE
  5
280
330
1F
100
AcDbEntity
  8
C4
 62
     0
370
    18
100
AcDbLine
 10
1510.308879128441
 20
951.3948112424067
 30
0.0
 11
1514.88858255945
 21
951.3948112424067
 31
0.0
  0
LINE
  5
281
330
1F
100
AcDbEntity
  8
C4
 62
     0
370
    18
100
AcDbLine
 10
81.37651112830872
 20
259.1322423076466
 30
0.0
 11
428.3765111283087
 21
259.1322423076466
 31
0.0
  0
LINE
  5
282
330
1F
100
AcDbEntity
  8
C4
 62
     0
370
    18
100
AcDbLine
 10
1332.88858255945
 20
952.5221244633275
 30
0.0
 11
1332.88858255945
 21
836.8121183392931
 31
0.0
  0
LINE
  5
283
330
1F
100
AcDbEntity
  8
C4
 62
     0
370
    18
100
AcDbLine
 10
895.3765111282942
 20
274.1322423076466
 30
0.0
 11
895.3765111282942
 21
271.6322423076466
 31
0.0
  0
LINE
  5
284
330
1F
100
AcDbEntity
  8
C4
 62
     0
370
    18
100
AcDbLine
 10
61.37651112830872
 20
274.1322423076466
 30
0.0
 11
61.37651112830872
 21
271.6322423076466
 31
0.0
  0
LINE
  5
285
330
1F
100
AcDbEntity
  8
C4
 62
     0
370
    18
100
AcDbLine
 10
1317.88858255945
 20
1045.394811242407
 30
0.0
 11
1320.38858255945
 21
1045.394811242407
 31
0.0
  0
LINE
  5
286
330
1F
100
AcDbEntity
  8
C4
 62
     0
370
    18
100
AcDbLine
 10
1317.88858255945
 20
491.3948112424067
 30
0.0
 11
1320.38858255945
 21
491.3948112424067
 31
0.0
  0
LINE
  5
287
330
1F
100
AcDbEntity
  8
C4
 62
     0
370
    18
100
AcDbLine
 10
875.3765111282942
 20
261.1322423076466
 30
0.0
 11
528.3765111283087
 21
261.1322423076466
 31
0.0
  0
LINE
  5
288
330
1F
100
AcDbEntity
  8
C4
 62
     0
370
    18
100
AcDbLine
 10
81.37651112830872
 20
261.1322423076466
 30
0.0
 11
428.3765111283087
 21
261.1322423076466
 31
0.0
  0
CIRCLE
  5
289
330
1F
100
AcDbEntity
  8
C4
 62
     0
370
    18
100
AcDbCircle
 10
478.3765111283069
 20
858.3948112424031
 30
0.0
 40
79.49999999999922
  0
CIRCLE
  5
28A
330
1F
100
AcDbEntity
  8
C4
 62
     0
370
    18
100
AcDbCircle
 10
478.3765111283069
 20
858.3948112424031
 30
0.0
 40
90.49999999999912
  0
ARC
  5
28B
330
1F
100
AcDbEntity
  8
C4
 62
     0
370
    18
100
AcDbCircle
 10
818.3765111283069
 20
968.3948112424031
 30
0.0
 40
59.99999999999942
100
AcDbArc
 50
0.0
 51
90.0
  0
ARC
  5
28C
102
{ACAD_REACTORS
330
3AC
102
}
330
1F
100
AcDbEntity
  8
C4
 62
     0
370
    18
100
AcDbCircle
 10
138.3765111283069
 20
968.3948112424031
 30
0.0
 40
59.99999999999942
100
AcDbArc
 50
90.0
 51
180.0
  0
ARC
  5
28D
330
1F
100
AcDbEntity
  8
C4
 62
     0
370
    18
100
AcDbCircle
 10
763.3765111283069
 20
623.3948112424067
 30
0.0
 40
114.9999999999989
100
AcDbArc
 50
270.0
 51
0.0
  0
ARC
  5
28E
330
1F
100
AcDbEntity
  8
C4
 62
     0
370
    18
100
AcDbCircle
 10
193.3765111283069
 20
623.3948112424067
 30
0.0
 40
114.9999999999989
100
AcDbArc
 50
180.0
 51
270.0
  0
ARC
  5
28F
330
1F
100
AcDbEntity
  8
C4
 62
     0
370
    18
100
AcDbCircle
 10
478.3765111283069
 20
10523.39481124231
 30
0.0
 40
9999.999999999902
100
AcDbArc
 50
268.3545040906384
 51
271.6454959093616
  0
ARC
  5
290
330
1F
100
AcDbEntity
  8
C4
 62
     0
370
    18
100
AcDbCircle
 10
74.37651112830872
 20
270.1322423076502
 30
0.0
 40
1.499999999999985
100
AcDbArc
 50
0.0
 51
89.99978954073161
  0
ARC
  5
291
330
1F
100
AcDbEntity
  8
C4
 62
     0
370
    18
100
AcDbCircle
 10
387.8765111283087
 20
77.13224230765022
 30
0.0
 40
2.499999999999976
100
AcDbArc
 50
180.0
 51
269.9999415803923
  0
ARC
  5
292
330
1F
100
AcDbEntity
  8
C4
 62
     0
370
    18
100
AcDbCircle
 10
882.3765111282942
 20
270.1322423076502
 30
0.0
 40
1.499999999999985
100
AcDbArc
 50
90.00021045905996
 51
179.9998479604956
  0
ARC
  5
293
330
1F
100
AcDbEntity
  8
C4
 62
     0
370
    18
100
AcDbCircle
 10
568.8765111283087
 20
77.13224230765022
 30
0.0
 40
2.499999999999976
100
AcDbArc
 50
270.0000584196077
 51
0.0
  0
ARC
  5
294
330
1F
100
AcDbEntity
  8
C4
 62
     0
370
    18
100
AcDbCircle
 10
1321.88858255945
 20
504.3948112424067
 30
0.0
 40
1.499999999999985
100
AcDbArc
 50
90.0001520393481
 51
179.9997895408358
  0
ARC
  5
295
330
1F
100
AcDbEntity
  8
C4
 62
     0
370
    18
100
AcDbCircle
 10
1329.88858255945
 20
511.3948112424031
 30
0.0
 40
2.999999999999971
100
AcDbArc
 50
270.0
 51
0.0
  0
ARC
  5
296
330
1F
100
AcDbEntity
  8
C4
 62
     0
370
    18
100
AcDbCircle
 10
1337.88858255945
 20
518.3948112424067
 30
0.0
 40
2.499999999999976
100
AcDbArc
 50
90.0
 51
180.0
  0
ARC
  5
297
330
1F
100
AcDbEntity
  8
C4
 62
     0
370
    18
100
AcDbCircle
 10
1329.88858255945
 20
511.3948112424031
 30
0.0
 40
5.499999999999947
100
AcDbArc
 50
270.0
 51
0.0
  0
ARC
  5
298
330
1F
100
AcDbEntity
  8
C4
 62
     0
370
    18
100
AcDbCircle
 10
1321.88858255945
 20
1032.394811242403
 30
0.0
 40
1.499999999999985
100
AcDbArc
 50
180.0002104591121
 51
269.9998479604435
  0
ARC
  5
299
330
1F
100
AcDbEntity
  8
C4
 62
     0
370
    18
100
AcDbCircle
 10
1328.632466210491
 20
1025.331488074355
 30
0.0
 40
2.999999999999971
100
AcDbArc
 50
0.9999999999757105
 51
90.99999999997571
  0
ARC
  5
29A
330
1F
100
AcDbEntity
  8
C4
 62
     0
370
    18
100
AcDbCircle
 10
478.3765111283069
 20
-9046.6051887575
 30
0.0
 40
9999.999999999902
100
AcDbArc
 50
88.35450409063843
 51
88.86657674250003
  0
ARC
  5
29B
330
1F
100
AcDbEntity
  8
C4
 62
     0
370
    18
100
AcDbCircle
 10
5078.376511128266
 20
748.3948112424067
 30
0.0
 40
4999.999999999951
100
AcDbArc
 50
178.9866796872341
 51
181.2424681999328
  0
ARC
  5
29C
330
1F
100
AcDbEntity
  8
C4
 62
     0
370
    18
100
AcDbCircle
 10
-4121.62348887165
 20
748.3948112424067
 30
0.0
 40
4999.999999999951
100
AcDbArc
 50
358.7575318000671
 51
1.013320312765954
  0
ARC
  5
29D
102
{ACAD_REACTORS
330
396
102
}
330
1F
100
AcDbEntity
  8
C4
 62
     0
370
    18
100
AcDbCircle
 10
194.5250424752526
 20
642.4711022087457
 30
0.0
 40
114.9999999999989
100
AcDbArc
 50
181.2424681999329
 51
268.3545040906384
  0
ARC
  5
29E
330
1F
100
AcDbEntity
  8
C4
 62
     0
370
    18
100
AcDbCircle
 10
194.5250424752526
 20
834.3185202760641
 30
0.0
 40
114.9999999999989
100
AcDbArc
 50
91.64549590936159
 51
178.7575318000671
  0
ARC
  5
29F
330
1F
100
AcDbEntity
  8
C4
 62
     0
370
    18
100
AcDbCircle
 10
762.2279797813467
 20
834.3185202760641
 30
0.0
 40
114.9999999999989
100
AcDbArc
 50
1.242468199932881
 51
88.3545040906384
  0
ARC
  5
2A0
330
1F
100
AcDbEntity
  8
C4
 62
     0
370
    18
100
AcDbCircle
 10
478.3765111283069
 20
-9046.6051887575
 30
0.0
 40
9999.999999999902
100
AcDbArc
 50
91.13342325749996
 51
91.64549590936159
  0
ARC
  5
2A1
330
1F
100
AcDbEntity
  8
C4
 62
     0
370
    18
100
AcDbCircle
 10
1514.88858255945
 20
767.8948112424067
 30
0.0
 40
2.499999999999976
100
AcDbArc
 50
270.0
 51
0.0
  0
ARC
  5
2A2
330
1F
100
AcDbEntity
  8
C4
 62
     0
370
    18
100
AcDbCircle
 10
1514.88858255945
 20
948.8948112424067
 30
0.0
 40
2.499999999999976
100
AcDbArc
 50
0.0
 51
90.0
  0
ARC
  5
2A3
330
1F
100
AcDbEntity
  8
C4
 62
     0
370
    18
100
AcDbCircle
 10
1477.88858255945
 20
923.3948112424031
 30
0.0
 40
29.99999999999971
100
AcDbArc
 50
0.0
 51
90.0
  0
ARC
  5
2A4
330
1F
100
AcDbEntity
  8
C4
 62
     0
370
    18
100
AcDbCircle
 10
762.2279797813467
 20
642.471102208753
 30
0.0
 40
114.9999999999989
100
AcDbArc
 50
271.6454959093616
 51
358.7575318000671
  0
ARC
  5
2A5
330
1F
100
AcDbEntity
  8
C4
 62
     0
370
    18
100
AcDbCircle
 10
278.5916685086781
 20
1051.418678151188
 30
0.0
 40
99.99999999999902
100
AcDbArc
 50
271.1334232574999
 51
327.9517432982174
  0
ARC
  5
2A6
330
1F
100
AcDbEntity
  8
C4
 62
     0
370
    18
100
AcDbCircle
 10
678.1613537479357
 20
1051.418678151188
 30
0.0
 40
99.99999999999902
100
AcDbArc
 50
212.021582154028
 51
268.8665767425001
  0
ARC
  5
2A7
330
1F
100
AcDbEntity
  8
C4
 62
     0
370
    18
100
AcDbCircle
 10
417.5983107537254
 20
964.3948112424031
 30
0.0
 40
63.99999999999937
100
AcDbArc
 50
90.0
 51
147.9517432982172
  0
ARC
  5
2A8
330
1F
100
AcDbEntity
  8
C4
 62
     0
370
    18
100
AcDbCircle
 10
539.1546931081325
 20
964.3948165705214
 30
0.0
 40
64.00000478797497
100
AcDbArc
 50
32.04825832368719
 51
89.99999887160554
  0
ARC
  5
2A9
330
1F
100
AcDbEntity
  8
C4
 62
     0
370
    18
100
AcDbCircle
 10
763.3765111283069
 20
623.3948112424067
 30
0.0
 40
131.9999999999987
100
AcDbArc
 50
270.0
 51
0.0
  0
ARC
  5
2AA
330
1F
100
AcDbEntity
  8
C4
 62
     0
370
    18
100
AcDbCircle
 10
193.3765111283069
 20
623.3948112424067
 30
0.0
 40
131.9999999999987
100
AcDbArc
 50
180.0
 51
270.0
  0
ARC
  5
2AB
330
1F
100
AcDbEntity
  8
C4
 62
     0
370
    18
100
AcDbCircle
 10
138.3765111283069
 20
968.3948112424031
 30
0.0
 40
76.99999999999925
100
AcDbArc
 50
90.0
 51
180.0
  0
ARC
  5
2AC
330
1F
100
AcDbEntity
  8
C4
 62
     0
370
    18
100
AcDbCircle
 10
818.3765111283069
 20
968.3948112424031
 30
0.0
 40
76.99999999999925
100
AcDbArc
 50
0.0
 51
90.0
  0
ARC
  5
2AD
330
1F
100
AcDbEntity
  8
C4
 62
     0
370
    18
100
AcDbCircle
 10
505.9176474369256
 20
4583.691796473177
 30
0.0
 40
4499.999999999956
100
AcDbArc
 50
270.8267432003836
 51
274.3938910813529
  0
ARC
  5
2AE
330
1F
100
AcDbEntity
  8
C4
 62
     0
370
    18
100
AcDbCircle
 10
570.8765111283087
 20
82.1604630236919
 30
0.0
 40
1.99999999999998
100
AcDbArc
 50
90.82674320038359
 51
180.0
  0
ARC
  5
2AF
330
1F
100
AcDbEntity
  8
C4
 62
     0
370
    18
100
AcDbCircle
 10
505.9176474369256
 20
4583.691796473177
 30
0.0
 40
4502.499999999956
100
AcDbArc
 50
270.8330147149745
 51
274.3938910813529
  0
ARC
  5
2B0
330
1F
100
AcDbEntity
  8
C4
 62
     0
370
    18
100
AcDbCircle
 10
848.3765111282942
 20
126.8294554670295
 30
0.0
 40
29.99999999999971
100
AcDbArc
 50
274.3938910813529
 51
0.0
  0
ARC
  5
2B1
330
1F
100
AcDbEntity
  8
C4
 62
     0
370
    18
100
AcDbCircle
 10
848.3765111282942
 20
126.8294554670295
 30
0.0
 40
32.49999999999968
100
AcDbArc
 50
274.3938910813529
 51
0.0
  0
ARC
  5
2B2
330
1F
100
AcDbEntity
  8
C4
 62
     0
370
    18
100
AcDbCircle
 10
450.8353748196919
 20
4583.691796473177
 30
0.0
 40
4499.999999999956
100
AcDbArc
 50
265.606108918647
 51
269.1669852850255
  0
ARC
  5
2B3
330
1F
100
AcDbEntity
  8
C4
 62
     0
370
    18
100
AcDbCircle
 10
450.8353748196919
 20
4583.691796473177
 30
0.0
 40
4502.499999999956
100
AcDbArc
 50
265.606108918647
 51
269.1669852850255
  0
ARC
  5
2B4
330
1F
100
AcDbEntity
  8
C4
 62
     0
370
    18
100
AcDbCircle
 10
108.3765111283087
 20
126.8294554670295
 30
0.0
 40
29.99999999999971
100
AcDbArc
 50
180.0
 51
265.606108918647
  0
ARC
  5
2B5
330
1F
100
AcDbEntity
  8
C4
 62
     0
370
    18
100
AcDbCircle
 10
108.3765111283087
 20
126.8294554670295
 30
0.0
 40
32.49999999999968
100
AcDbArc
 50
180.0
 51
265.606108918647
  0
ARC
  5
2B6
330
1F
100
AcDbEntity
  8
C4
 62
     0
370
    18
100
AcDbCircle
 10
385.3765111283087
 20
81.66765313900154
 30
0.0
 40
2.499999999999976
100
AcDbArc
 50
0.0
 51
89.16698528502545
  0
ARC
  5
2B7
330
1F
100
AcDbEntity
  8
C4
 62
     0
370
    18
100
AcDbCircle
 10
-2689.946812742244
 20
902.7206023652096
 30
0.0
 40
4199.999999999959
100
AcDbArc
 50
355.1946337667208
 51
358.1274029281695
  0
ARC
  5
2B8
330
1F
100
AcDbEntity
  8
C4
 62
     0
370
    18
100
AcDbCircle
 10
-2689.946812742244
 20
902.7206023652096
 30
0.0
 40
4202.499999999958
100
AcDbArc
 50
355.1946337667208
 51
358.1274029281695
  0
ARC
  5
2B9
330
1F
100
AcDbEntity
  8
C4
 62
     0
370
    18
100
AcDbCircle
 10
1465.395711244916
 20
553.3948112424067
 30
0.0
 40
29.99999999999971
100
AcDbArc
 50
270.0
 51
355.1946337667208
  0
ARC
  5
2BA
330
1F
100
AcDbEntity
  8
C4
 62
     0
370
    18
100
AcDbCircle
 10
1465.395711244916
 20
553.3948112424067
 30
0.0
 40
32.49999999999968
100
AcDbArc
 50
270.0
 51
355.1946337667209
  0
ARC
  5
2BB
330
1F
100
AcDbEntity
  8
C4
 62
     0
370
    18
100
AcDbCircle
 10
1510.308879128441
 20
765.3948112424067
 30
0.0
 40
2.499999999999976
100
AcDbArc
 50
90.0
 51
178.1274029281685
  0
ARC
  5
2BC
330
1F
100
AcDbEntity
  8
C4
 62
     0
370
    18
100
AcDbCircle
 10
-2689.946812742244
 20
814.0690201196002
 30
0.0
 40
4199.999999999959
100
AcDbArc
 50
1.872597071830511
 51
2.533460938962514
  0
ARC
  5
2BD
330
1F
100
AcDbEntity
  8
C4
 62
     0
370
    18
100
AcDbCircle
 10
-2689.946812742244
 20
814.0690201196002
 30
0.0
 40
4202.499999999958
100
AcDbArc
 50
1.872597071830511
 51
2.533460938962514
  0
ARC
  5
2BE
330
1F
100
AcDbEntity
  8
C4
 62
     0
370
    18
100
AcDbCircle
 10
1510.308879128441
 20
951.3948112423994
 30
0.0
 40
2.499999999999976
100
AcDbArc
 50
181.8725970718315
 51
270.0
  0
ARC
  5
2BF
330
1F
100
AcDbEntity
  8
C4
 62
     0
370
    18
100
AcDbCircle
 10
1475.977334758109
 20
998.3948112424031
 30
0.0
 40
29.99999999999971
100
AcDbArc
 50
2.533460938962532
 51
90.0
  0
ARC
  5
2C0
330
1F
100
AcDbEntity
  8
C4
 62
     0
370
    18
100
AcDbCircle
 10
1475.977334758109
 20
998.3948112424031
 30
0.0
 40
32.49999999999968
100
AcDbArc
 50
2.533460938962535
 51
90.0
  0
ARC
  5
2C1
330
1F
100
AcDbEntity
  8
C4
 62
     0
370
    18
100
AcDbCircle
 10
81.37651112830872
 20
264.1322423076466
 30
0.0
 40
2.999999999999971
100
AcDbArc
 50
180.0
 51
270.0
  0
ARC
  5
2C2
330
1F
100
AcDbEntity
  8
C4
 62
     0
370
    18
100
AcDbCircle
 10
81.37651112830872
 20
262.1322423076466
 30
0.0
 40
2.999999999999971
100
AcDbArc
 50
180.0
 51
270.0
  0
ARC
  5
2C3
330
1F
100
AcDbEntity
  8
C4
 62
     0
370
    18
100
AcDbCircle
 10
875.3765111282942
 20
264.1322423076466
 30
0.0
 40
2.999999999999971
100
AcDbArc
 50
270.0
 51
0.0
  0
ARC
  5
2C4
330
1F
100
AcDbEntity
  8
C4
 62
     0
370
    18
100
AcDbCircle
 10
875.3765111282942
 20
262.1322423076466
 30
0.0
 40
2.999999999999971
100
AcDbArc
 50
270.0
 51
0.0
  0
ARC
  5
2C5
330
1F
100
AcDbEntity
  8
C4
 62
     0
370
    18
100
AcDbCircle
 10
1232.88858255945
 20
952.5221244633275
 30
0.0
 40
99.99999999999902
100
AcDbArc
 50
0.0
 51
0.9999999999757265
  0
ARC
  5
2C6
330
1F
100
AcDbEntity
  8
C4
 62
     0
370
    18
100
AcDbCircle
 10
1335.836674348803
 20
956.3948112424067
 30
0.0
 40
2.999999999999971
100
AcDbArc
 50
180.9999999999757
 51
270.0
  0
LINE
  5
2C7
330
1F
100
AcDbEntity
  8
C4
 62
     0
370
    18
100
AcDbLine
 10
1317.888586232674
 20
505.3948222620191
 30
0.0
 11
1317.888534807762
 21
491.3948112424067
 31
0.0
  0
ARC
  5
2C8
330
1F
100
AcDbEntity
  8
C4
 62
     0
370
    18
100
AcDbCircle
 10
1320.888586232645
 20
505.3948112424104
 30
0.0
 40
2.999999999999971
100
AcDbArc
 50
90.0
 51
179.9997895408358
  0
LINE
  5
2C9
330
1F
100
AcDbEntity
  8
C寸法
 62
     0
370
    18
100
AcDbLine
 10
882.3764964354873
 20
274.1322423076175
 30
0.0
 11
895.3765111282942
 21
274.1322423076466
 31
0.0
  0
LINE
  5
2CA
330
1F
100
AcDbEntity
  8
C4
 62
     0
370
    18
100
AcDbLine
 10
895.3765111282942
 20
274.1322423076466
 30
0.0
 11
881.3765111282942
 21
274.1322423076175
 31
0.0
  0
LINE
  5
2CB
330
1F
100
AcDbEntity
  8
C4
 62
     0
370
    18
100
AcDbLine
 10
61.37651112830872
 20
274.1322423076466
 30
0.0
 11
75.37651112832327
 21
274.1322423076175
 31
0.0
  0
CIRCLE
  5
2CC
330
1F
100
AcDbEntity
  8
C4
 62
     0
370
    18
100
AcDbCircle
 10
348.3765111283069
 20
1013.394811242403
 30
0.0
 40
5.999999999999937
  0
CIRCLE
  5
2CD
330
1F
100
AcDbEntity
  8
C4
 62
     0
370
    18
100
AcDbCircle
 10
608.3765111283069
 20
1013.394811242403
 30
0.0
 40
5.999999999999937
  0
LINE
  5
2CE
330
1F
100
AcDbEntity
  8
C4
 62
     0
100
AcDbLine
 10
1317.888582559414
 20
490.3948259352172
 30
0.0
 11
1317.88858255945
 21
1031.394811242403
 31
0.0
  0
DIMENSION
  5
2CF
330
1F
100
AcDbEntity
  8
C寸法
 62
     0
370
    13
100
AcDbDimension
  2
*D15
 10
1158.376511128294
 20
508.3948112424067
 30
0.0
 11
1140.876511128294
 21
768.3948112424066
 31
0.0
 70
    32
 71
     5
 42
519.9999999999999
  3
実寸
100
AcDbAlignedDimension
 13
910.376522358762
 23
1028.394811242407
 33
0.0
 14
910.376522358762
 24
508.3948112424067
 34
0.0
 50
90.0
100
AcDbRotatedDimension
1001
ACAD
1000
DSTYLE
1002
{
1070
   340
1005
F3
1070
   144
1040
1.0
1002
}
  0
DIMENSION
  5
2D0
330
1F
100
AcDbEntity
  8
C寸法
 62
     0
370
    13
100
AcDbDimension
  2
*D16
 10
1108.376511128294
 20
523.3948112424067
 30
0.0
 11
1090.876511128294
 21
775.8948112424066
 31
0.0
 70
    32
 71
     5
 42
504.9999999999999
  3
実寸
100
AcDbAlignedDimension
 13
910.376522358762
 23
1028.394811242407
 33
0.0
 14
910.376522358762
 24
523.3948112424067
 34
0.0
 50
90.0
100
AcDbRotatedDimension
1001
ACAD
1000
DSTYLE
1002
{
1070
   340
1005
F3
1070
   144
1040
1.0
1002
}
  0
DIMENSION
  5
2D1
330
1F
100
AcDbEntity
  8
C寸法
 62
     0
370
    13
100
AcDbDimension
  2
*D17
 10
1108.376511128294
 20
508.3948112424067
 30
0.0
 11
1108.376511128294
 21
434.8494243376448
 31
0.0
 70
   160
 71
     5
 42
15.0
  3
実寸
100
AcDbAlignedDimension
 13
478.3765111283069
 23
523.3948112424067
 33
0.0
 14
478.3765111283069
 24
508.3948112424067
 34
0.0
 50
90.0
100
AcDbRotatedDimension
1001
ACAD
1000
DSTYLE
1002
{
1070
   340
1005
F3
1070
   172
1070
     1
1070
   144
1040
1.0
1002
}
  0
DIMENSION
  5
2D2
330
1F
100
AcDbEntity
  8
C寸法
 62
     0
370
    13
100
AcDbDimension
  2
*D18
 10
1058.376511128294
 20
858.3948112424026
 30
0.0
 11
1040.876511128294
 21
943.3948112424046
 31
0.0
 70
    32
 71
     5
 42
170.000000000004
  3
実寸
100
AcDbAlignedDimension
 13
837.6113535302295
 23
1028.394811242407
 33
0.0
 14
921.9438349665669
 24
858.3948112424026
 34
0.0
 50
90.0
100
AcDbRotatedDimension
1001
ACAD
1000
DSTYLE
1002
{
1070
   340
1005
F3
1070
   144
1040
1.0
1002
}
  0
DIMENSION
  5
2D3
330
1F
100
AcDbEntity
  8
C寸法
 62
     0
370
    13
100
AcDbDimension
  2
*D19
 10
878.386511138317
 20
358.3948112424067
 30
0.0
 11
478.3815111333125
 21
375.8948112424067
 31
0.0
 70
    32
 71
     5
 42
800.010000010009
  3
実寸
100
AcDbAlignedDimension
 13
78.37651112830804
 23
623.3948112424067
 33
0.0
 14
878.386511138317
 24
640.6787592276381
 34
0.0
100
AcDbRotatedDimension
1001
ACAD
1000
DSTYLE
1002
{
1070
   340
1005
F3
1070
   144
1040
1.0
1002
}
  0
DIMENSION
  5
2D4
330
1F
100
AcDbEntity
  8
C寸法
 62
     0
370
    13
100
AcDbDimension
  2
*D20
 10
1058.376511128294
 20
84.13224230765064
 30
0.0
 11
1040.876511128294
 21
179.1322423076486
 31
0.0
 70
    32
 71
     5
 42
189.999999999996
  3
実寸
100
AcDbAlignedDimension
 13
908.3765111282942
 23
274.1322423076466
 33
0.0
 14
568.7497836907538
 24
84.13224230765067
 34
0.0
 50
90.0
100
AcDbRotatedDimension
1001
ACAD
1000
DSTYLE
1002
{
1070
   340
1005
F3
1070
   144
1040
1.0
1002
}
  0
LINE
  5
2D5
102
{ACAD_REACTORS
330
2DB
102
}
330
1F
100
AcDbEntity
  8
C寸法
  6
CENTER
 62
     7
 48
10.0
370
    13
100
AcDbLine
 10
678.3758329633497
 20
960.89446368286
 30
0.0
 11
678.375832963346
 21
1060.394811242403
 31
0.0
  0
LINE
  5
2D6
330
1F
100
AcDbEntity
  8
C寸法
  6
CENTER
 62
     7
 48
10.0
370
    13
100
AcDbLine
 10
649.7035516114051
 20
993.8943517856459
 30
0.0
 11
708.1404546465228
 21
993.8943517856459
 31
0.0
  0
CIRCLE
  5
2D7
330
1F
100
AcDbEntity
  8
C寸法
 62
     7
370
    18
100
AcDbCircle
 10
678.3758329633497
 20
993.8943517856459
 30
0.0
 40
17.99993896515419
  0
CIRCLE
  5
2D8
330
1F
100
AcDbEntity
  8
C寸法
  6
HIDDEN
 62
     7
370
    13
100
AcDbCircle
 10
278.3771892932641
 20
993.8943517856459
 30
0.0
 40
17.99993896515419
  0
DIMENSION
  5
2D9
102
{ACAD_REACTORS
330
2DB
102
}
102
{ACAD_XDICTIONARY
360
2DA
102
}
330
1F
100
AcDbEntity
  8
C寸法
 62
     7
370
    13
100
AcDbDimension
  2
*D21
 10
678.3758329633497
 20
1108.307421494226
 30
0.0
 11
778.3761720458281
 21
1108.307421494226
 31
0.0
 70
   160
 71
     5
 42
200.0006781649566
  3
実寸
100
AcDbAlignedDimension
 13
878.3765111283063
 23
968.3948112424031
 33
0.0
 14
678.3758329633497
 24
1060.394811242403
 34
0.0
100
AcDbRotatedDimension
1001
ACAD
1000
DSTYLE
1002
{
1070
   340
1005
F3
1070
   144
1040
1.0
1070
   172
1070
     1
1002
}
  0
DIMENSION
  5
2DC
330
1F
100
AcDbEntity
  8
C寸法
 62
     7
370
    13
100
AcDbDimension
  2
*D22
 10
1008.376511128294
 20
993.8943517856459
 30
0.0
 11
1008.376511128294
 21
1121.49004933764
 31
0.0
 70
   160
 71
     5
 42
34.50045945675641
  3
実寸
100
AcDbAlignedDimension
 13
818.3765111283069
 23
1028.394811242402
 33
0.0
 14
715.9474884248049
 24
993.8943517856459
 34
0.0
 50
90.0
100
AcDbRotatedDimension
1001
ACAD
1000
DSTYLE
1002
{
1070
   340
1005
F3
1070
   144
1040
1.0
1070
   172
1070
     1
1002
}
  0
DIMENSION
  5
2DD
330
1F
100
AcDbEntity
  8
C寸法
 62
     0
370
    13
100
AcDbDimension
  2
*D23
 10
1008.376511128294
 20
259.1322423076466
 30
0.0
 11
990.8765111282942
 21
185.5868554028847
 31
0.0
 70
    32
 71
     5
 42
14.96256893475982
  3
実寸
100
AcDbAlignedDimension
 13
886.2351834800394
 23
274.0948112424064
 33
0.0
 14
867.7309635401047
 24
259.1322423076466
 34
0.0
 50
90.0
100
AcDbRotatedDimension
1001
ACAD
1000
DSTYLE
1002
{
1070
   340
1005
F3
1070
   172
1070
     1
1070
   144
1040
1.0
1002
}
  0
LINE
  5
2DE
330
1F
100
AcDbEntity
  8
C4
 62
     0
370
    18
100
AcDbLine
 10
1507.888463807848
 20
766.0205825071956
 30
0.0
 11
1507.888463807848
 21
950.7690399776064
 31
0.0
  0
DIMENSION
  5
2DF
330
1F
100
AcDbEntity
  8
C寸法
 62
     0
 48
20.0
370
    13
100
AcDbDimension
  2
*D24
 10
388.0661793574977
 20
698.4234500192428
 30
0.0
 11
492.5527683527885
 21
698.4234500192428
 31
0.0
 70
   160
  1
Φ<>
 71
     5
 42
180.8103317708083
 52
-270.0
  3
実寸
100
AcDbAlignedDimension
 13
568.876511128306
 23
858.3948112424031
 33
0.0
 14
388.0661793574977
 24
858.1489839565339
 34
0.0
 50
180.0
100
AcDbRotatedDimension
1001
ACAD
1000
DSTYLE
1002
{
1070
   271
1070
     0
1070
   340
1005
F3
1070
   144
1040
1.0
1002
}
  0
DIMENSION
  5
365
330
1F
100
AcDbEntity
  8
0
370
    13
100
AcDbDimension
  2
*D25
 10
696.4573317789344
 20
1076.116954346678
 30
0.0
 11
528.6887969683114
 21
1076.116954346678
 31
0.0
 70
   160
  1
Φ36水栓穴
 71
     5
 42
35.83401100109916
  3
JIS-1
100
AcDbAlignedDimension
 13
660.6233207778353
 23
993.8791230902855
 33
0.0
 14
696.4573317789344
 24
993.8791230902855
 34
0.0
100
AcDbRotatedDimension
1001
ACAD
1000
DSTYLE
1002
{
1070
   147
1040
5.0
1070
   340
1005
F3
1070
   140
1040
25.0
1070
    41
1040
25.0
1002
}
  0
LINE
  5
375
330
1F
100
AcDbEntity
  8
C寸法
  6
CENTER
 62
     7
 48
10.0
370
    13
100
AcDbLine
 10
307.7569417280265
 20
993.8943517856459
 30
0.0
 11
249.3200386929088
 21
993.8943517856459
 31
0.0
  0
LINE
  5
376
102
{ACAD_REACTORS
330
379
102
}
330
1F
100
AcDbEntity
  8
C寸法
  6
CENTER
 62
     7
 48
10.0
370
    13
100
AcDbLine
 10
279.084660376082
 20
960.89446368286
 30
0.0
 11
279.0846603760856
 21
1060.394811242403
 31
0.0
  0
DIMENSION
  5
377
102
{ACAD_REACTORS
330
379
102
}
102
{ACAD_XDICTIONARY
360
378
102
}
330
1F
100
AcDbEntity
  8
C寸法
 62
     7
370
    13
100
AcDbDimension
  2
*D27
 10
279.084660376082
 20
1108.307421494226
 30
0.0
 11
179.0843212936036
 21
1108.307421494226
 31
0.0
 70
   160
 71
     5
 42
200.0006781649566
 52
-89.99999999999999
  3
実寸
100
AcDbAlignedDimension
 13
79.08398221112532
 23
968.3948112424031
 33
0.0
 14
279.084660376082
 24
1060.394811242403
 34
0.0
 50
180.0
100
AcDbRotatedDimension
1001
ACAD
1000
DSTYLE
1002
{
1070
   340
1005
F3
1070
   144
1040
1.0
1070
   172
1070
     1
1002
}
  0
DIMENSION
  5
394
102
{ACAD_REACTORS
330
396
102
}
102
{ACAD_XDICTIONARY
360
395
102
}
330
1F
100
AcDbEntity
  8
0
370
    13
100
AcDbDimension
  2
*D28
 10
194.5250424752526
 20
642.4711022087457
 30
0.0
 11
204.7697940397479
 21
648.7653107250447
 31
0.0
 70
   164
  1
4-<>
 71
     5
 42
114.9999999999988
  3
JIS-1
100
AcDbRadialDimension
 15
96.54058691781297
 25
582.2710484786046
 35
0.0
 40
0.0
1001
ACAD_DSTYLE_DIMRADIAL_EXTENSION
1070
   387
1070
     1
1070
   388
1040
3.163277814529949
1070
   390
1040
4.683669658938232
1001
ACAD
1000
DSTYLE
1002
{
1070
   140
1040
25.0
1070
   147
1040
5.0
1070
   340
1005
F3
1070
    41
1040
25.0
1070
   344
1005
90
1070
   173
1070
     1
1002
}
  0
DIMENSION
  5
39F
102
{ACAD_XDICTIONARY
360
3A0
102
}
330
1F
100
AcDbEntity
  8
0
370
    13
100
AcDbDimension
  2
*D29
 10
216.7328256234788
 20
599.4238568920988
 30
0.0
 11
231.7691184969144
 21
609.3311316772233
 31
0.0
 70
   164
  1
2-<>
 71
     5
 42
114.9999999999988
  3
JIS-1
100
AcDbRadialDimension
 15
312.7618486317598
 25
662.6964950548526
 35
0.0
 40
0.0
1001
ACAD_DSTYLE_DIMRADIAL_EXTENSION
1070
   387
1070
     0
1070
   388
1040
3.141592653589793
1070
   390
1040
4.71238898038469
1001
ACAD
1000
DSTYLE
1002
{
1070
   147
1040
5.0
1070
   140
1040
25.0
1070
   340
1005
F3
1070
    41
1040
25.0
1070
   344
1005
90
1070
   173
1070
     1
1002
}
  0
DIMENSION
  5
3AA
102
{ACAD_REACTORS
330
3AC
102
}
102
{ACAD_XDICTIONARY
360
3AB
102
}
330
1F
100
AcDbEntity
  8
0
370
    13
100
AcDbDimension
  2
*D30
 10
138.3765111283069
 20
968.3948112424031
 30
0.0
 11
205.3340868321766
 21
873.8390916130775
 31
0.0
 70
   164
  1
2-<>
 71
     5
 42
59.99999999999934
  3
JIS-1
100
AcDbRadialDimension
 15
173.0508640281355
 25
919.4286060496574
 35
0.0
 40
0.0
1001
ACAD_DSTYLE_DIMRADIAL_EXTENSION
1070
   387
1070
     0
1070
   388
1040
1.570796326794897
1070
   390
1040
3.141592653589793
1001
ACAD
1000
DSTYLE
1002
{
1070
   140
1040
25.0
1070
   340
1005
F3
1070
   147
1040
5.0
1070
    41
1040
25.0
1070
   344
1005
90
1070
   173
1070
     1
1002
}
  0
ENDSEC
  0
SECTION
  2
OBJECTS
  0
DICTIONARY
  5
C
330
0
100
AcDbDictionary
281
     1
  3
ACAD_COLOR
350
F5
  3
ACAD_DETAILVIEWSTYLE
350
DA
  3
ACAD_GROUP
350
D
  3
ACAD_IMAGE_VARS
350
6A
  3
ACAD_LAYOUT
350
1A
  3
ACAD_MATERIAL
350
97
  3
ACAD_MLEADERSTYLE
350
3F
  3
ACAD_MLINESTYLE
350
17
  3
ACAD_PLOTSETTINGS
350
19
  3
ACAD_PLOTSTYLENAME
350
E
  3
ACAD_SCALELIST
350
40
  3
ACAD_SECTIONVIEWSTYLE
350
DB
  3
ACAD_TABLESTYLE
350
3B
  3
ACDB_RECOMPOSE_DATA
350
3BB
  3
AcDbVariableDictionary
350
3D
  3
APPDATA
350
96
  0
DICTIONARY
  5
239
330
2
100
AcDbDictionary
280
     1
281
     1
  3
ACAD_LAYERSTATES
360
23A
  0
DICTIONARY
  5
2DA
330
2D9
100
AcDbDictionary
280
     1
281
     1
  3
ACAD_DIMASSOC
360
2DB
  0
DICTIONARY
  5
378
330
377
100
AcDbDictionary
280
     1
281
     1
  3
ACAD_DIMASSOC
360
379
  0
DICTIONARY
  5
395
330
394
100
AcDbDictionary
280
     1
281
     1
  3
ACAD_DIMASSOC
360
396
  0
DICTIONARY
  5
3A0
330
39F
100
AcDbDictionary
280
     1
281
     1
  0
DICTIONARY
  5
3AB
330
3AA
100
AcDbDictionary
280
     1
281
     1
  3
ACAD_DIMASSOC
360
3AC
  0
DICTIONARY
  5
F5
102
{ACAD_REACTORS
330
C
102
}
330
C
100
AcDbDictionary
281
     1
  0
DICTIONARY
  5
DA
102
{ACAD_REACTORS
330
C
102
}
330
C
100
AcDbDictionary
281
     1
  0
DICTIONARY
  5
D
102
{ACAD_REACTORS
330
C
102
}
330
C
100
AcDbDictionary
281
     1
  0
RASTERVARIABLES
  5
6A
102
{ACAD_REACTORS
330
C
102
}
330
C
100
AcDbRasterVariables
 90
        0
 70
     1
 71
     1
 72
     1
  0
DICTIONARY
  5
1A
102
{ACAD_REACTORS
330
C
102
}
330
C
100
AcDbDictionary
281
     1
  3
Model
350
22
  3
Sheet1
350
1E
  3
Sheet2
350
26
  0
DICTIONARY
  5
97
102
{ACAD_REACTORS
330
C
102
}
330
C
100
AcDbDictionary
281
     1
  3
ByBlock
350
99
  3
ByLayer
350
98
  3
Global
350
9A
  0
DICTIONARY
  5
3F
102
{ACAD_REACTORS
330
C
102
}
330
C
100
AcDbDictionary
281
     1
  3
Standard
350
DC
  0
DICTIONARY
  5
17
102
{ACAD_REACTORS
330
C
102
}
330
C
100
AcDbDictionary
281
     1
  3
Standard
350
18
  0
DICTIONARY
  5
19
102
{ACAD_REACTORS
330
C
102
}
330
C
100
AcDbDictionary
281
     1
  0
ACDBDICTIONARYWDFLT
  5
E
102
{ACAD_REACTORS
330
C
102
}
330
C
100
AcDbDictionary
281
     1
  3
Normal
350
F
100
AcDbDictionaryWithDefault
340
F
  0
DICTIONARY
  5
40
102
{ACAD_REACTORS
330
C
102
}
330
C
100
AcDbDictionary
281
     1
  3
A0
350
41
  3
A1
350
42
  3
A2
350
43
  3
A3
350
44
  3
A4
350
45
  3
A5
350
46
  3
A6
350
47
  3
A7
350
48
  3
A8
350
49
  3
A9
350
4A
  3
B0
350
4B
  3
B1
350
4C
  3
B2
350
4D
  3
B3
350
4E
  3
B4
350
4F
  3
B5
350
50
  3
B6
350
51
  3
B7
350
52
  3
B8
350
53
  3
B9
350
54
  3
C0
350
55
  3
C1
350
56
  3
C2
350
57
  3
C3
350
58
  3
C4
350
59
  3
C5
350
5A
  3
C6
350
5B
  3
C7
350
5C
  3
C8
350
5D
  3
C9
350
5E
  3
D0
350
5F
  3
D1
350
60
  3
D2
350
61
  0
DICTIONARY
  5
DB
102
{ACAD_REACTORS
330
C
102
}
330
C
100
AcDbDictionary
281
     1
  0
DICTIONARY
  5
3B
102
{ACAD_REACTORS
330
C
102
}
330
C
100
AcDbDictionary
281
     1
  3
Standard
350
3C
  0
XRECORD
  5
3BB
102
{ACAD_REACTORS
330
C
102
}
330
C
100
AcDbXrecord
280
     1
 90
        1
330
3C
  0
DICTIONARY
  5
3D
102
{ACAD_REACTORS
330
C
102
}
330
C
100
AcDbDictionary
281
     1
  3
CANNOSCALE
350
62
  3
CMLEADERSTYLE
350
3B5
  3
CTABLESTYLE
350
3E
  3
LIGHTSINBLOCKS
350
6F
  3
XCLIPFRAME
350
70
  0
DICTIONARY
  5
96
102
{ACAD_REACTORS
330
C
102
}
330
C
100
AcDbDictionary
281
     1
  0
DICTIONARY
  5
23A
102
{ACAD_REACTORS
330
239
102
}
330
239
100
AcDbDictionary
281
     1
  0
DIMASSOC
  5
2DB
102
{ACAD_REACTORS
330
2DA
102
}
330
2DA
100
AcDbDimAssoc
330
2D9
 90
        2
 70
     0
 71
     0
  1
AcDbOsnapPointRef
 72
     1
331
2D5
 73
     2
 91
        0
 40
0.9999999999999977
 10
0.0
 20
0.0
 30
2.000000000000000E+50
 75
     0
  0
DIMASSOC
  5
379
102
{ACAD_REACTORS
330
378
102
}
330
378
100
AcDbDimAssoc
330
377
 90
        2
 70
     0
 71
     0
  1
AcDbOsnapPointRef
 72
     1
331
376
 73
     2
 91
        0
 40
0.9999999999999977
 10
0.0
 20
0.0
 30
2.000000000000000E+50
 75
     0
  0
DIMASSOC
  5
396
102
{ACAD_REACTORS
330
395
102
}
330
395
100
AcDbDimAssoc
330
394
 90
        2
 70
     0
 71
     1
  1
AcDbOsnapPointRef
 72
     3
331
29D
 73
     0
 91
        0
 40
0.0
 10
0.0
 20
0.0
 30
0.0
 75
     0
  0
DIMASSOC
  5
3AC
102
{ACAD_REACTORS
330
3AB
102
}
330
3AB
100
AcDbDimAssoc
330
3AA
 90
        2
 70
     0
 71
     1
  1
AcDbOsnapPointRef
 72
     3
331
28C
 73
     0
 91
        0
 40
0.0
 10
0.0
 20
0.0
 30
0.0
 75
     0
  0
LAYOUT
  5
22
102
{ACAD_REACTORS
330
1A
102
}
330
1A
100
AcDbPlotSettings
  1

  2
none_device
  4
ISO_A3_(420.00_x_297.00_MM)
  6

 40
7.5
 41
20.0
 42
7.5
 43
20.0
 44
420.0
 45
297.0
 46
20.78282828282826
 47
0.0
 48
0.0
 49
0.0
140
0.0
141
0.0
142
1.0
143
1.155642023346303
 70
  1204
 72
     1
 73
     0
 74
     1
  7
monochrome.ctb
 75
     0
 76
     0
 77
     2
 78
   300
147
0.8653198653198654
148
-134.1869158878504
149
0.0
100
AcDbLayout
  1
Model
 70
     1
 71
     0
 10
0.0
 20
0.0
 11
420.0
 21
297.0
 12
0.0
 22
0.0
 32
0.0
 14
4.187561697926867
 24
4.046082742528824
 34
0.0
 15
1804.243220940473
 25
1205.594570650022
 35
0.0
146
0.0
 13
0.0
 23
0.0
 33
0.0
 16
1.0
 26
0.0
 36
0.0
 17
0.0
 27
1.0
 37
0.0
 76
     0
330
1F
331
29
  0
LAYOUT
  5
1E
102
{ACAD_REACTORS
330
1A
102
}
330
1A
100
AcDbPlotSettings
  1

  2
none_device
  4

  6

 40
0.0
 41
0.0
 42
0.0
 43
0.0
 44
0.0
 45
0.0
 46
0.0
 47
0.0
 48
0.0
 49
0.0
140
0.0
141
0.0
142
1.0
143
1.0
 70
   688
 72
     0
 73
     0
 74
     5
  7

 75
    16
 76
     0
 77
     2
 78
   300
147
1.0
148
0.0
149
0.0
100
AcDbLayout
  1
Sheet1
 70
     1
 71
     1
 10
0.0
 20
0.0
 11
420.0
 21
297.0
 12
0.0
 22
0.0
 32
0.0
 14
1.000000000000000E+20
 24
1.000000000000000E+20
 34
1.000000000000000E+20
 15
-1.000000000000000E+20
 25
-1.000000000000000E+20
 35
-1.000000000000000E+20
146
0.0
 13
0.0
 23
0.0
 33
0.0
 16
1.0
 26
0.0
 36
0.0
 17
0.0
 27
1.0
 37
0.0
 76
     0
330
1B
  0
LAYOUT
  5
26
102
{ACAD_REACTORS
330
1A
102
}
330
1A
100
AcDbPlotSettings
  1

  2
none_device
  4

  6

 40
0.0
 41
0.0
 42
0.0
 43
0.0
 44
0.0
 45
0.0
 46
0.0
 47
0.0
 48
0.0
 49
0.0
140
0.0
141
0.0
142
1.0
143
1.0
 70
   688
 72
     0
 73
     0
 74
     5
  7

 75
    16
 76
     0
 77
     2
 78
   300
147
1.0
148
0.0
149
0.0
100
AcDbLayout
  1
Sheet2
 70
     1
 71
     2
 10
0.0
 20
0.0
 11
0.0
 21
0.0
 12
0.0
 22
0.0
 32
0.0
 14
0.0
 24
0.0
 34
0.0
 15
0.0
 25
0.0
 35
0.0
146
0.0
 13
0.0
 23
0.0
 33
0.0
 16
1.0
 26
0.0
 36
0.0
 17
0.0
 27
1.0
 37
0.0
 76
     0
330
23
  0
MATERIAL
  5
99
102
{ACAD_REACTORS
330
97
102
}
330
97
100
AcDbMaterial
  1
ByBlock
  0
MATERIAL
  5
98
102
{ACAD_REACTORS
330
97
102
}
330
97
100
AcDbMaterial
  1
ByLayer
  0
MATERIAL
  5
9A
102
{ACAD_REACTORS
330
97
102
}
330
97
100
AcDbMaterial
  1
Global
  0
MLEADERSTYLE
  5
DC
102
{ACAD_REACTORS
330
3F
102
}
330
3F
100
AcDbMLeaderStyle
170
     2
171
     1
172
     0
 90
        2
 40
0.0
 41
0.0
173
     1
 91
-1056964608
340
14
 92
       -2
290
     1
 42
2.0
291
     1
 43
8.0
  3
Standard
341
0
 44
4.0
300

342
11
174
     1
178
     6
175
     1
176
     0
 93
-1056964608
 45
4.0
292
     0
297
     0
 46
4.0
343
0
 94
-1056964608
 47
1.0
 49
1.0
140
1.0
293
     1
141
0.0
294
     1
177
     0
142
1.0
295
     0
296
     0
143
3.75
1001
ACAD_MLEADERVER
1070
     2
  0
MLINESTYLE
  5
18
102
{ACAD_REACTORS
330
17
102
}
330
17
100
AcDbMlineStyle
  2
Standard
 70
     0
  3

 62
   256
 51
90.0
 52
90.0
 71
     2
 49
0.5
 62
   256
  6
BYLAYER
 49
-0.5
 62
   256
  6
BYLAYER
  0
ACDBPLACEHOLDER
  5
F
102
{ACAD_REACTORS
330
E
102
}
330
E
  0
SCALE
  5
41
102
{ACAD_REACTORS
330
40
102
}
330
40
100
AcDbScale
 70
     0
300
1:1
140
1.0
141
1.0
290
     1
  0
SCALE
  5
42
102
{ACAD_REACTORS
330
40
102
}
330
40
100
AcDbScale
 70
     0
300
1:2
140
1.0
141
2.0
290
     0
  0
SCALE
  5
43
102
{ACAD_REACTORS
330
40
102
}
330
40
100
AcDbScale
 70
     0
300
1:4
140
1.0
141
4.0
290
     0
  0
SCALE
  5
44
102
{ACAD_REACTORS
330
40
102
}
330
40
100
AcDbScale
 70
     0
300
1:5
140
1.0
141
5.0
290
     0
  0
SCALE
  5
45
102
{ACAD_REACTORS
330
40
102
}
330
40
100
AcDbScale
 70
     0
300
1:8
140
1.0
141
8.0
290
     0
  0
SCALE
  5
46
102
{ACAD_REACTORS
330
40
102
}
330
40
100
AcDbScale
 70
     0
300
1:10
140
1.0
141
10.0
290
     0
  0
SCALE
  5
47
102
{ACAD_REACTORS
330
40
102
}
330
40
100
AcDbScale
 70
     0
300
1:16
140
1.0
141
16.0
290
     0
  0
SCALE
  5
48
102
{ACAD_REACTORS
330
40
102
}
330
40
100
AcDbScale
 70
     0
300
1:20
140
1.0
141
20.0
290
     0
  0
SCALE
  5
49
102
{ACAD_REACTORS
330
40
102
}
330
40
100
AcDbScale
 70
     0
300
1:30
140
1.0
141
30.0
290
     0
  0
SCALE
  5
4A
102
{ACAD_REACTORS
330
40
102
}
330
40
100
AcDbScale
 70
     0
300
1:40
140
1.0
141
40.0
290
     0
  0
SCALE
  5
4B
102
{ACAD_REACTORS
330
40
102
}
330
40
100
AcDbScale
 70
     0
300
1:50
140
1.0
141
50.0
290
     0
  0
SCALE
  5
4C
102
{ACAD_REACTORS
330
40
102
}
330
40
100
AcDbScale
 70
     0
300
1:100
140
1.0
141
100.0
290
     0
  0
SCALE
  5
4D
102
{ACAD_REACTORS
330
40
102
}
330
40
100
AcDbScale
 70
     0
300
2:1
140
2.0
141
1.0
290
     0
  0
SCALE
  5
4E
102
{ACAD_REACTORS
330
40
102
}
330
40
100
AcDbScale
 70
     0
300
4:1
140
4.0
141
1.0
290
     0
  0
SCALE
  5
4F
102
{ACAD_REACTORS
330
40
102
}
330
40
100
AcDbScale
 70
     0
300
8:1
140
8.0
141
1.0
290
     0
  0
SCALE
  5
50
102
{ACAD_REACTORS
330
40
102
}
330
40
100
AcDbScale
 70
     0
300
10:1
140
10.0
141
1.0
290
     0
  0
SCALE
  5
51
102
{ACAD_REACTORS
330
40
102
}
330
40
100
AcDbScale
 70
     0
300
100:1
140
100.0
141
1.0
290
     0
  0
SCALE
  5
52
102
{ACAD_REACTORS
330
40
102
}
330
40
100
AcDbScale
 70
     0
300
1/128" = 1'-0"
140
0.0078125
141
12.0
290
     0
  0
SCALE
  5
53
102
{ACAD_REACTORS
330
40
102
}
330
40
100
AcDbScale
 70
     0
300
1/64" = 1'-0"
140
0.015625
141
12.0
290
     0
  0
SCALE
  5
54
102
{ACAD_REACTORS
330
40
102
}
330
40
100
AcDbScale
 70
     0
300
1/32" = 1'-0"
140
0.03125
141
12.0
290
     0
  0
SCALE
  5
55
102
{ACAD_REACTORS
330
40
102
}
330
40
100
AcDbScale
 70
     0
300
1/16" = 1'-0"
140
0.0625
141
12.0
290
     0
  0
SCALE
  5
56
102
{ACAD_REACTORS
330
40
102
}
330
40
100
AcDbScale
 70
     0
300
3/32" = 1'-0"
140
0.09375
141
12.0
290
     0
  0
SCALE
  5
57
102
{ACAD_REACTORS
330
40
102
}
330
40
100
AcDbScale
 70
     0
300
1/8" = 1'-0"
140
0.125
141
12.0
290
     0
  0
SCALE
  5
58
102
{ACAD_REACTORS
330
40
102
}
330
40
100
AcDbScale
 70
     0
300
3/16" = 1'-0"
140
0.1875
141
12.0
290
     0
  0
SCALE
  5
59
102
{ACAD_REACTORS
330
40
102
}
330
40
100
AcDbScale
 70
     0
300
1/4" = 1'-0"
140
0.25
141
12.0
290
     0
  0
SCALE
  5
5A
102
{ACAD_REACTORS
330
40
102
}
330
40
100
AcDbScale
 70
     0
300
3/8" = 1'-0"
140
0.375
141
12.0
290
     0
  0
SCALE
  5
5B
102
{ACAD_REACTORS
330
40
102
}
330
40
100
AcDbScale
 70
     0
300
1/2" = 1'-0"
140
0.5
141
12.0
290
     0
  0
SCALE
  5
5C
102
{ACAD_REACTORS
330
40
102
}
330
40
100
AcDbScale
 70
     0
300
3/4" = 1'-0"
140
0.75
141
12.0
290
     0
  0
SCALE
  5
5D
102
{ACAD_REACTORS
330
40
102
}
330
40
100
AcDbScale
 70
     0
300
1" = 1'-0"
140
1.0
141
12.0
290
     0
  0
SCALE
  5
5E
102
{ACAD_REACTORS
330
40
102
}
330
40
100
AcDbScale
 70
     0
300
1-1/2" = 1'-0"
140
1.5
141
12.0
290
     0
  0
SCALE
  5
5F
102
{ACAD_REACTORS
330
40
102
}
330
40
100
AcDbScale
 70
     0
300
3" = 1'-0"
140
3.0
141
12.0
290
     0
  0
SCALE
  5
60
102
{ACAD_REACTORS
330
40
102
}
330
40
100
AcDbScale
 70
     0
300
6" = 1'-0"
140
6.0
141
12.0
290
     0
  0
SCALE
  5
61
102
{ACAD_REACTORS
330
40
102
}
330
40
100
AcDbScale
 70
     0
300
1'-0" = 1'-0"
140
12.0
141
12.0
290
     0
  0
TABLESTYLE
  5
3C
102
{ACAD_REACTORS
330
3B
102
}
102
{ACAD_XDICTIONARY
360
3B7
102
}
330
3B
100
AcDbTableStyle
  3
Standard
 70
     0
 71
     0
 40
1.5
 41
1.5
280
     0
281
     0
  7
Standard
140
4.5
170
     2
 62
     0
 63
   257
283
     0
274
    -2
284
     1
 64
     0
275
    -2
285
     1
 65
     0
276
    -2
286
     1
 66
     0
277
    -2
287
     1
 67
     0
278
    -2
288
     1
 68
     0
279
    -2
289
     1
 69
     0
  7
Standard
140
6.0
170
     5
 62
     0
 63
   257
283
     0
274
    -2
284
     1
 64
     0
275
    -2
285
     1
 65
     0
276
    -2
286
     1
 66
     0
277
    -2
287
     1
 67
     0
278
    -2
288
     1
 68
     0
279
    -2
289
     1
 69
     0
  7
Standard
140
4.5
170
     5
 62
     0
 63
   257
283
     0
274
    -2
284
     1
 64
     0
275
    -2
285
     1
 65
     0
276
    -2
286
     1
 66
     0
277
    -2
287
     1
 67
     0
278
    -2
288
     1
 68
     0
279
    -2
289
     1
 69
     0
  0
DICTIONARYVAR
  5
62
102
{ACAD_REACTORS
330
3D
102
}
330
3D
100
DictionaryVariables
280
     0
  1
1:1
  0
DICTIONARYVAR
  5
3B5
102
{ACAD_REACTORS
330
3D
102
}
330
3D
100
DictionaryVariables
280
     0
  1
Standard
  0
DICTIONARYVAR
  5
3E
102
{ACAD_REACTORS
330
3D
102
}
330
3D
100
DictionaryVariables
280
     0
  1
Standard
  0
DICTIONARYVAR
  5
6F
102
{ACAD_REACTORS
330
3D
102
}
330
3D
100
DictionaryVariables
280
     0
  1
0
  0
DICTIONARYVAR
  5
70
102
{ACAD_REACTORS
330
3D
102
}
330
3D
100
DictionaryVariables
280
     0
  1
0
  0
DICTIONARY
  5
3B7
330
3C
100
AcDbDictionary
280
     1
281
     1
  3
ACAD_ROUNDTRIP_2008_TABLESTYLE_CELLSTYLEMAP
360
3B9
  3
ACAD_XREC_ROUNDTRIP
360
3B8
  0
CELLSTYLEMAP
  5
3B9
102
{ACAD_REACTORS
330
3B7
102
}
330
3B7
100
AcDbCellStyleMap
 90
        3
300
CELLSTYLE
  1
TABLEFORMAT_BEGIN
 90
        5
170
     1
 91
        0
 92
    32768
 62
   257
 93
        1
300
CONTENTFORMAT
  1
CONTENTFORMAT_BEGIN
 90
        0
 91
        0
 92
      512
 93
        0
300

 40
0.0
140
1.0
 94
        5
 62
     0
340
11
144
6.0
309
CONTENTFORMAT_END
171
     1
301
MARGIN
  1
CELLMARGIN_BEGIN
 40
1.5
 40
1.5
 40
1.5
 40
1.5
 40
0.18
 40
0.18
309
CELLMARGIN_END
 94
        6
 95
        1
302
GRIDFORMAT
  1
GRIDFORMAT_BEGIN
 90
        0
 91
        1
 62
     0
 92
       -2
340
0
 93
        0
 40
0.045
309
GRIDFORMAT_END
 95
        2
302
GRIDFORMAT
  1
GRIDFORMAT_BEGIN
 90
        0
 91
        1
 62
     0
 92
       -2
340
0
 93
        0
 40
0.045
309
GRIDFORMAT_END
 95
        4
302
GRIDFORMAT
  1
GRIDFORMAT_BEGIN
 90
        0
 91
        1
 62
     0
 92
       -2
340
0
 93
        0
 40
0.045
309
GRIDFORMAT_END
 95
        8
302
GRIDFORMAT
  1
GRIDFORMAT_BEGIN
 90
        0
 91
        1
 62
     0
 92
       -2
340
0
 93
        0
 40
0.045
309
GRIDFORMAT_END
 95
       16
302
GRIDFORMAT
  1
GRIDFORMAT_BEGIN
 90
        0
 91
        1
 62
     0
 92
       -2
340
0
 93
        0
 40
0.045
309
GRIDFORMAT_END
 95
       32
302
GRIDFORMAT
  1
GRIDFORMAT_BEGIN
 90
        0
 91
        1
 62
     0
 92
       -2
340
0
 93
        0
 40
0.045
309
GRIDFORMAT_END
309
TABLEFORMAT_END
  1
CELLSTYLE_BEGIN
 90
        1
 91
        1
300
_TITLE
309
CELLSTYLE_END
300
CELLSTYLE
  1
TABLEFORMAT_BEGIN
 90
        5
170
     1
 91
        0
 92
        0
 62
   257
 93
        1
300
CONTENTFORMAT
  1
CONTENTFORMAT_BEGIN
 90
        0
 91
        0
 92
      512
 93
        0
300

 40
0.0
140
1.0
 94
        5
 62
     0
340
11
144
4.5
309
CONTENTFORMAT_END
171
     1
301
MARGIN
  1
CELLMARGIN_BEGIN
 40
1.5
 40
1.5
 40
1.5
 40
1.5
 40
0.18
 40
0.18
309
CELLMARGIN_END
 94
        6
 95
        1
302
GRIDFORMAT
  1
GRIDFORMAT_BEGIN
 90
        0
 91
        1
 62
     0
 92
       -2
340
0
 93
        0
 40
0.045
309
GRIDFORMAT_END
 95
        2
302
GRIDFORMAT
  1
GRIDFORMAT_BEGIN
 90
        0
 91
        1
 62
     0
 92
       -2
340
0
 93
        0
 40
0.045
309
GRIDFORMAT_END
 95
        4
302
GRIDFORMAT
  1
GRIDFORMAT_BEGIN
 90
        0
 91
        1
 62
     0
 92
       -2
340
0
 93
        0
 40
0.045
309
GRIDFORMAT_END
 95
        8
302
GRIDFORMAT
  1
GRIDFORMAT_BEGIN
 90
        0
 91
        1
 62
     0
 92
       -2
340
0
 93
        0
 40
0.045
309
GRIDFORMAT_END
 95
       16
302
GRIDFORMAT
  1
GRIDFORMAT_BEGIN
 90
        0
 91
        1
 62
     0
 92
       -2
340
0
 93
        0
 40
0.045
309
GRIDFORMAT_END
 95
       32
302
GRIDFORMAT
  1
GRIDFORMAT_BEGIN
 90
        0
 91
        1
 62
     0
 92
       -2
340
0
 93
        0
 40
0.045
309
GRIDFORMAT_END
309
TABLEFORMAT_END
  1
CELLSTYLE_BEGIN
 90
        2
 91
        1
300
_HEADER
309
CELLSTYLE_END
300
CELLSTYLE
  1
TABLEFORMAT_BEGIN
 90
        5
170
     1
 91
        0
 92
        0
 62
   257
 93
        1
300
CONTENTFORMAT
  1
CONTENTFORMAT_BEGIN
 90
        0
 91
        0
 92
      512
 93
        0
300

 40
0.0
140
1.0
 94
        2
 62
     0
340
11
144
4.5
309
CONTENTFORMAT_END
171
     1
301
MARGIN
  1
CELLMARGIN_BEGIN
 40
1.5
 40
1.5
 40
1.5
 40
1.5
 40
0.18
 40
0.18
309
CELLMARGIN_END
 94
        6
 95
        1
302
GRIDFORMAT
  1
GRIDFORMAT_BEGIN
 90
        0
 91
        1
 62
     0
 92
       -2
340
0
 93
        0
 40
0.045
309
GRIDFORMAT_END
 95
        2
302
GRIDFORMAT
  1
GRIDFORMAT_BEGIN
 90
        0
 91
        1
 62
     0
 92
       -2
340
0
 93
        0
 40
0.045
309
GRIDFORMAT_END
 95
        4
302
GRIDFORMAT
  1
GRIDFORMAT_BEGIN
 90
        0
 91
        1
 62
     0
 92
       -2
340
0
 93
        0
 40
0.045
309
GRIDFORMAT_END
 95
        8
302
GRIDFORMAT
  1
GRIDFORMAT_BEGIN
 90
        0
 91
        1
 62
     0
 92
       -2
340
0
 93
        0
 40
0.045
309
GRIDFORMAT_END
 95
       16
302
GRIDFORMAT
  1
GRIDFORMAT_BEGIN
 90
        0
 91
        1
 62
     0
 92
       -2
340
0
 93
        0
 40
0.045
309
GRIDFORMAT_END
 95
       32
302
GRIDFORMAT
  1
GRIDFORMAT_BEGIN
 90
        0
 91
        1
 62
     0
 92
       -2
340
0
 93
        0
 40
0.045
309
GRIDFORMAT_END
309
TABLEFORMAT_END
  1
CELLSTYLE_BEGIN
 90
        3
 91
        2
300
_DATA
309
CELLSTYLE_END
  0
XRECORD
  5
3B8
102
{ACAD_REACTORS
330
3B7
102
}
330
3B7
100
AcDbXrecord
280
     1
102
ACAD_ROUNDTRIP_PRE2007_TABLESTYLE
 90
      512
 91
        0
  1

 92
      512
 93
        0
  2

 94
      512
 95
        0
  3

  0
ENDSEC
  0
EOF
