  0
SECTION
  2
HEADER
  9
$ACADVER
  1
AC1018
  9
$ACADMAINTVER
 70
     0
  9
$DWGCODEPAGE
  3
ANSI_932
  9
$LASTSAVEDBY
  1
小谷 浩和
  9
$INSBASE
 10
0.0
 20
0.0
 30
0.0
  9
$EXTMIN
 10
3.637261060755463
 20
4.596383379700228
 30
0.0
  9
$EXTMAX
 10
1803.692920303302
 20
1206.144871287193
 30
0.0
  9
$LIMMIN
 10
0.0
 20
0.0
  9
$LIMMAX
 10
420.0
 20
297.0
  9
$ORTHOMODE
 70
     0
  9
$REGENMODE
 70
     1
  9
$FILLMODE
 70
     1
  9
$QTEXTMODE
 70
     0
  9
$MIRRTEXT
 70
     0
  9
$LTSCALE
 40
1.0
  9
$ATTMODE
 70
     1
  9
$TEXTSIZE
 40
2.5
  9
$TRACEWID
 40
1.0
  9
$TEXTSTYLE
  7
Standard
  9
$CLAYER
  8
0
  9
$CELTYPE
  6
ByLayer
  9
$CECOLOR
 62
   256
  9
$CELTSCALE
 40
1.0
  9
$DISPSILH
 70
     0
  9
$DIMSCALE
 40
1.0
  9
$DIMASZ
 40
2.5
  9
$DIMEXO
 40
0.625
  9
$DIMDLI
 40
3.75
  9
$DIMRND
 40
0.0
  9
$DIMDLE
 40
0.0
  9
$DIMEXE
 40
1.25
  9
$DIMTP
 40
0.0
  9
$DIMTM
 40
0.0
  9
$DIMTXT
 40
2.5
  9
$DIMCEN
 40
2.5
  9
$DIMTSZ
 40
0.0
  9
$DIMTOL
 70
     0
  9
$DIMLIM
 70
     0
  9
$DIMTIH
 70
     0
  9
$DIMTOH
 70
     0
  9
$DIMSE1
 70
     0
  9
$DIMSE2
 70
     0
  9
$DIMTAD
 70
     1
  9
$DIMZIN
 70
     8
  9
$DIMBLK
  1
OPEN
  9
$DIMASO
 70
     1
  9
$DIMSHO
 70
     1
  9
$DIMPOST
  1

  9
$DIMAPOST
  1

  9
$DIMALT
 70
     0
  9
$DIMALTD
 70
     3
  9
$DIMALTF
 40
0.03937007874016
  9
$DIMLFAC
 40
1.0
  9
$DIMTOFL
 70
     1
  9
$DIMTVP
 40
0.0
  9
$DIMTIX
 70
     0
  9
$DIMSOXD
 70
     0
  9
$DIMSAH
 70
     0
  9
$DIMBLK1
  1

  9
$DIMBLK2
  1

  9
$DIMSTYLE
  2
JIS-1
  9
$DIMCLRD
 70
     0
  9
$DIMCLRE
 70
     0
  9
$DIMCLRT
 70
     0
  9
$DIMTFAC
 40
1.0
  9
$DIMGAP
 40
0.625
  9
$DIMJUST
 70
     0
  9
$DIMSD1
 70
     0
  9
$DIMSD2
 70
     0
  9
$DIMTOLJ
 70
     0
  9
$DIMTZIN
 70
     8
  9
$DIMALTZ
 70
     0
  9
$DIMALTTZ
 70
     0
  9
$DIMUPT
 70
     0
  9
$DIMDEC
 70
     2
  9
$DIMTDEC
 70
     2
  9
$DIMALTU
 70
     2
  9
$DIMALTTD
 70
     3
  9
$DIMTXSTY
  7
Standard
  9
$DIMAUNIT
 70
     0
  9
$DIMADEC
 70
     0
  9
$DIMALTRND
 40
0.0
  9
$DIMAZIN
 70
     0
  9
$DIMDSEP
 70
    44
  9
$DIMATFIT
 70
     3
  9
$DIMFRAC
 70
     0
  9
$DIMLDRBLK
  1
OPEN
  9
$DIMLUNIT
 70
     2
  9
$DIMLWD
 70
    -2
  9
$DIMLWE
 70
    -2
  9
$DIMTMOVE
 70
     0
  9
$LUNITS
 70
     2
  9
$LUPREC
 70
     3
  9
$SKETCHINC
 40
1.0
  9
$FILLETRAD
 40
10.0
  9
$AUNITS
 70
     0
  9
$AUPREC
 70
     0
  9
$MENU
  1
.
  9
$ELEVATION
 40
0.0
  9
$PELEVATION
 40
0.0
  9
$THICKNESS
 40
0.0
  9
$LIMCHECK
 70
     0
  9
$CHAMFERA
 40
10.0
  9
$CHAMFERB
 40
10.0
  9
$CHAMFERC
 40
20.0
  9
$CHAMFERD
 40
0.0
  9
$SKPOLY
 70
     0
  9
$TDCREATE
 40
2455023.012359514
  9
$TDUCREATE
 40
2455022.637359514
  9
$TDUPDATE
 40
2457241.754868264
  9
$TDUUPDATE
 40
2457241.379868264
  9
$TDINDWG
 40
0.0370818056
  9
$TDUSRTIMER
 40
2457241.379595972
  9
$USRTIMER
 70
     1
  9
$ANGBASE
 50
0.0
  9
$ANGDIR
 70
     0
  9
$PDMODE
 70
     0
  9
$PDSIZE
 40
0.0
  9
$PLINEWID
 40
0.0
  9
$SPLFRAME
 70
     0
  9
$SPLINETYPE
 70
     6
  9
$SPLINESEGS
 70
     8
  9
$HANDSEED
  5
3E5
  9
$SURFTAB1
 70
     6
  9
$SURFTAB2
 70
     6
  9
$SURFTYPE
 70
     6
  9
$SURFU
 70
     6
  9
$SURFV
 70
     6
  9
$UCSBASE
  2

  9
$UCSNAME
  2

  9
$UCSORG
 10
0.0
 20
0.0
 30
0.0
  9
$UCSXDIR
 10
1.0
 20
0.0
 30
0.0
  9
$UCSYDIR
 10
0.0
 20
1.0
 30
0.0
  9
$UCSORTHOREF
  2

  9
$UCSORTHOVIEW
 70
     0
  9
$UCSORGTOP
 10
0.0
 20
0.0
 30
0.0
  9
$UCSORGBOTTOM
 10
0.0
 20
0.0
 30
0.0
  9
$UCSORGLEFT
 10
0.0
 20
0.0
 30
0.0
  9
$UCSORGRIGHT
 10
0.0
 20
0.0
 30
0.0
  9
$UCSORGFRONT
 10
0.0
 20
0.0
 30
0.0
  9
$UCSORGBACK
 10
0.0
 20
0.0
 30
0.0
  9
$PUCSBASE
  2

  9
$PUCSNAME
  2

  9
$PUCSORG
 10
0.0
 20
0.0
 30
0.0
  9
$PUCSXDIR
 10
1.0
 20
0.0
 30
0.0
  9
$PUCSYDIR
 10
0.0
 20
1.0
 30
0.0
  9
$PUCSORTHOREF
  2

  9
$PUCSORTHOVIEW
 70
     0
  9
$PUCSORGTOP
 10
0.0
 20
0.0
 30
0.0
  9
$PUCSORGBOTTOM
 10
0.0
 20
0.0
 30
0.0
  9
$PUCSORGLEFT
 10
0.0
 20
0.0
 30
0.0
  9
$PUCSORGRIGHT
 10
0.0
 20
0.0
 30
0.0
  9
$PUCSORGFRONT
 10
0.0
 20
0.0
 30
0.0
  9
$PUCSORGBACK
 10
0.0
 20
0.0
 30
0.0
  9
$USERI1
 70
     0
  9
$USERI2
 70
     0
  9
$USERI3
 70
     0
  9
$USERI4
 70
     0
  9
$USERI5
 70
     0
  9
$USERR1
 40
0.0
  9
$USERR2
 40
0.0
  9
$USERR3
 40
0.0
  9
$USERR4
 40
0.0
  9
$USERR5
 40
0.0
  9
$WORLDVIEW
 70
     1
  9
$SHADEDGE
 70
     3
  9
$SHADEDIF
 70
    70
  9
$TILEMODE
 70
     1
  9
$MAXACTVP
 70
    64
  9
$PINSBASE
 10
0.0
 20
0.0
 30
0.0
  9
$PLIMCHECK
 70
     0
  9
$PEXTMIN
 10
1.000000000000000E+20
 20
1.000000000000000E+20
 30
1.000000000000000E+20
  9
$PEXTMAX
 10
-1.000000000000000E+20
 20
-1.000000000000000E+20
 30
-1.000000000000000E+20
  9
$PLIMMIN
 10
0.0
 20
0.0
  9
$PLIMMAX
 10
0.0
 20
0.0
  9
$UNITMODE
 70
     0
  9
$VISRETAIN
 70
     1
  9
$PLINEGEN
 70
     0
  9
$PSLTSCALE
 70
     1
  9
$TREEDEPTH
 70
  3020
  9
$CMLSTYLE
  2
Standard
  9
$CMLJUST
 70
     0
  9
$CMLSCALE
 40
20.0
  9
$PROXYGRAPHICS
 70
     1
  9
$MEASUREMENT
 70
     1
  9
$CELWEIGHT
370
    -1
  9
$ENDCAPS
280
     0
  9
$JOINSTYLE
280
     0
  9
$LWDISPLAY
290
     0
  9
$INSUNITS
 70
     4
  9
$HYPERLINKBASE
  1

  9
$STYLESHEET
  1

  9
$XEDIT
290
     1
  9
$CEPSNTYPE
380
     0
  9
$PSTYLEMODE
290
     0
  9
$FINGERPRINTGUID
  2
{EC6BB858-51AA-46EC-B484-6C9CC7AB3E2E}
  9
$VERSIONGUID
  2
{FAEB1C32-E019-11D5-929B-00C0DF256EC4}
  9
$EXTNAMES
290
     1
  9
$PSVPSCALE
 40
0.0
  9
$OLESTARTUP
290
     0
  9
$SORTENTS
280
   127
  9
$INDEXCTL
280
     0
  9
$HIDETEXT
280
     1
  9
$XCLIPFRAME
290
     0
  9
$HALOGAP
280
     0
  9
$OBSCOLOR
 70
   257
  9
$OBSLTYPE
280
     0
  9
$INTERSECTIONDISPLAY
280
     0
  9
$INTERSECTIONCOLOR
 70
   257
  9
$DIMASSOC
280
     2
  9
$PROJECTNAME
  1

  0
ENDSEC
  0
SECTION
  2
CLASSES
  0
CLASS
  1
ACDBDICTIONARYWDFLT
  2
AcDbDictionaryWithDefault
  3
ObjectDBX Classes
 90
        0
 91
        4
280
     0
281
     0
  0
CLASS
  1
VISUALSTYLE
  2
AcDbVisualStyle
  3
ObjectDBX Classes
 90
     4095
 91
        4
280
     0
281
     0
  0
CLASS
  1
TABLESTYLE
  2
AcDbTableStyle
  3
ObjectDBX Classes
 90
     4095
 91
        4
280
     0
281
     0
  0
CLASS
  1
DICTIONARYVAR
  2
AcDbDictionaryVar
  3
ObjectDBX Classes
 90
        0
 91
        4
280
     0
281
     0
  0
CLASS
  1
SCALE
  2
AcDbScale
  3
ObjectDBX Classes
 90
     1153
 91
        4
280
     0
281
     0
  0
CLASS
  1
CELLSTYLEMAP
  2
AcDbCellStyleMap
  3
ObjectDBX Classes
 90
     1152
 91
        4
280
     0
281
     0
  0
CLASS
  1
RASTERVARIABLES
  2
AcDbRasterVariables
  3
ISM
 90
        0
 91
        4
280
     0
281
     0
  0
CLASS
  1
DIMASSOC
  2
AcDbDimAssoc
  3
"AcDbDimAssoc|Product Desc:     AcDim ARX App For Dimension|Company:          Autodesk, Inc.|WEB Address:      www.autodesk.com"
 90
        0
 91
        4
280
     0
281
     0
  0
CLASS
  1
MATERIAL
  2
AcDbMaterial
  3
ObjectDBX Classes
 90
     1153
 91
        4
280
     0
281
     0
  0
CLASS
  1
SUN
  2
AcDbSun
  3
SCENEOE
 90
     1153
 91
        4
280
     0
281
     0
  0
CLASS
  1
MLEADERSTYLE
  2
AcDbMLeaderStyle
  3
ACDB_MLEADERSTYLE_CLASS
 90
     4095
 91
        4
280
     0
281
     0
  0
CLASS
  1
SORTENTSTABLE
  2
AcDbSortentsTable
  3
ObjectDBX Classes
 90
        0
 91
        4
280
     0
281
     0
  0
ENDSEC
  0
SECTION
  2
TABLES
  0
TABLE
  2
VPORT
  5
8
330
0
100
AcDbSymbolTable
 70
     1
  0
VPORT
  5
29
330
8
100
AcDbSymbolTableRecord
100
AcDbViewportTableRecord
  2
*Active
 70
     0
 10
0.0
 20
0.0
 11
1.0
 21
1.0
 12
850.660009128958
 22
936.1723662389846
 13
0.0
 23
0.0
 14
10.0
 24
10.0
 15
10.0
 25
10.0
 16
0.0
 26
0.0
 36
1.0
 17
-134.1869158878503
 27
0.0
 37
0.0
 40
482.3729022704833
 41
1.664884135472371
 42
50.0
 43
0.0
 44
0.0
 50
0.0
 51
0.0
 71
    16
 72
  1000
 73
     1
 74
     3
 75
     0
 76
     0
 77
     0
 78
     0
281
     0
 65
     1
110
0.0
120
0.0
130
0.0
111
1.0
121
0.0
131
0.0
112
0.0
122
1.0
132
0.0
 79
     0
146
0.0
  0
ENDTAB
  0
TABLE
  2
LTYPE
  5
5
330
0
100
AcDbSymbolTable
 70
     4
  0
LTYPE
  5
14
330
5
100
AcDbSymbolTableRecord
100
AcDbLinetypeTableRecord
  2
ByBlock
 70
     0
  3

 72
    65
 73
     0
 40
0.0
  0
LTYPE
  5
15
330
5
100
AcDbSymbolTableRecord
100
AcDbLinetypeTableRecord
  2
ByLayer
 70
     0
  3

 72
    65
 73
     0
 40
0.0
  0
LTYPE
  5
16
330
5
100
AcDbSymbolTableRecord
100
AcDbLinetypeTableRecord
  2
Continuous
 70
     0
  3
Solid line
 72
    65
 73
     0
 40
0.0
  0
LTYPE
  5
E2
330
5
100
AcDbSymbolTableRecord
100
AcDbLinetypeTableRecord
  2
CENTER
 70
     0
  3
 Center ____ _ ____ _ ____ _ ____ _ ____ _ ____
 72
    65
 73
     4
 40
2.0
 49
1.25
 74
     0
 49
-0.25
 74
     0
 49
0.25
 74
     0
 49
-0.25
 74
     0
  0
LTYPE
  5
386
330
5
100
AcDbSymbolTableRecord
100
AcDbLinetypeTableRecord
  2
DASHED
 70
     0
  3
Dashed __  __  __  __  __  __  __  __  __  __  
 72
    65
 73
     2
 40
19.05
 49
12.7
 74
     0
 49
-6.35
 74
     0
  0
LTYPE
  5
387
330
5
100
AcDbSymbolTableRecord
100
AcDbLinetypeTableRecord
  2
HIDDEN
 70
     0
  3
Hidden _ _ _ _ _ _ _ _ _ _ _ _ _ _ _ _ _ _ _ _ 
 72
    65
 73
     2
 40
9.524999999999999
 49
6.35
 74
     0
 49
-3.175
 74
     0
  0
ENDTAB
  0
TABLE
  2
LAYER
  5
2
102
{ACAD_XDICTIONARY
360
24B
102
}
330
0
100
AcDbSymbolTable
 70
     5
  0
LAYER
  5
10
330
2
100
AcDbSymbolTableRecord
100
AcDbLayerTableRecord
  2
0
 70
     0
 62
     7
  6
Continuous
370
    -3
390
F
  0
LAYER
  5
7E
330
2
100
AcDbSymbolTableRecord
100
AcDbLayerTableRecord
  2
Defpoints
 70
     0
 62
     7
  6
Continuous
290
     0
370
    -3
390
F
  0
LAYER
  5
DE
330
2
100
AcDbSymbolTableRecord
100
AcDbLayerTableRecord
  2
C2
 70
     0
 62
     1
  6
CENTER
370
    -3
390
F
  0
LAYER
  5
E3
330
2
100
AcDbSymbolTableRecord
100
AcDbLayerTableRecord
  2
C4
 70
     0
 62
     3
  6
Continuous
370
    -3
390
F
  0
LAYER
  5
E4
330
2
100
AcDbSymbolTableRecord
100
AcDbLayerTableRecord
  2
C寸法
 70
     0
 62
     4
  6
Continuous
370
    -3
390
F
  0
ENDTAB
  0
TABLE
  2
STYLE
  5
3
330
0
100
AcDbSymbolTable
 70
     2
  0
STYLE
  5
11
330
3
100
AcDbSymbolTableRecord
100
AcDbTextStyleTableRecord
  2
Standard
 70
     0
 40
0.138
 41
1.0
 50
0.0
 71
     0
 42
2.5
  3
arial.ttf
  4

1001
ACAD
1000
Arial
1071
        0
  0
STYLE
  5
F3
330
3
100
AcDbSymbolTableRecord
100
AcDbTextStyleTableRecord
  2
KANJI
 70
     0
 40
0.0
 41
1.0
 50
0.0
 71
     0
 42
2.5
  3
romans
  4
bigfont
  0
ENDTAB
  0
TABLE
  2
VIEW
  5
6
330
0
100
AcDbSymbolTable
 70
     0
  0
ENDTAB
  0
TABLE
  2
UCS
  5
7
330
0
100
AcDbSymbolTable
 70
     0
  0
ENDTAB
  0
TABLE
  2
APPID
  5
9
330
0
100
AcDbSymbolTable
 70
     8
  0
APPID
  5
12
330
9
100
AcDbSymbolTableRecord
100
AcDbRegAppTableRecord
  2
ACAD
 70
     0
  0
APPID
  5
EE
330
9
100
AcDbSymbolTableRecord
100
AcDbRegAppTableRecord
  2
ACAD_DSTYLE_DIMBREAK
 70
     0
  0
APPID
  5
EF
330
9
100
AcDbSymbolTableRecord
100
AcDbRegAppTableRecord
  2
ACAD_DSTYLE_DIMJAG
 70
     0
  0
APPID
  5
F0
330
9
100
AcDbSymbolTableRecord
100
AcDbRegAppTableRecord
  2
ACAD_DSTYLE_DIMTALN
 70
     0
  0
APPID
  5
F1
330
9
100
AcDbSymbolTableRecord
100
AcDbRegAppTableRecord
  2
ACAD_NAV_VCDISPLAY
 70
     0
  0
APPID
  5
F2
330
9
100
AcDbSymbolTableRecord
100
AcDbRegAppTableRecord
  2
PLOTTRANSPARENCY
 70
     0
  0
APPID
  5
3B7
330
9
100
AcDbSymbolTableRecord
100
AcDbRegAppTableRecord
  2
ACAD_DSTYLE_DIMRADIAL_EXTENSION
 70
     0
  0
APPID
  5
3E3
330
9
100
AcDbSymbolTableRecord
100
AcDbRegAppTableRecord
  2
ACAD_MLEADERVER
 70
     0
  0
ENDTAB
  0
TABLE
  2
DIMSTYLE
  5
A
330
0
100
AcDbSymbolTable
 70
     5
100
AcDbDimStyleTable
  0
DIMSTYLE
105
27
330
A
100
AcDbSymbolTableRecord
100
AcDbDimStyleTableRecord
  2
ISO-25
 70
     0
 41
2.5
 42
0.625
 43
3.75
 44
1.25
 73
     0
 74
     0
 77
     1
 78
     8
140
2.5
141
2.5
143
0.03937007874016
147
0.625
171
     3
172
     1
178
     0
271
     2
272
     2
274
     3
278
    44
283
     0
284
     8
340
11
  0
DIMSTYLE
105
72
330
A
100
AcDbSymbolTableRecord
100
AcDbDimStyleTableRecord
  2
GB-1
 70
     0
 41
2.5
 42
0.625
 43
3.75
 44
1.25
 73
     0
 74
     0
 77
     1
 78
     8
140
2.5
141
2.5
143
0.03937007874016
147
0.625
171
     3
172
     1
178
     0
271
     2
272
     2
274
     3
278
    44
283
     0
284
     8
340
11
341
76
342
76
  0
DIMSTYLE
105
8E
102
{ACAD_REACTORS
330
3A8
330
3B8
330
3C3
330
3CE
102
}
330
A
100
AcDbSymbolTableRecord
100
AcDbDimStyleTableRecord
  2
JIS-1
 70
     0
 41
2.5
 42
0.625
 43
3.75
 44
1.25
 73
     0
 74
     0
 77
     1
 78
     8
140
2.5
141
2.5
143
0.03937007874016
147
0.625
171
     3
172
     1
178
     0
271
     2
272
     2
274
     3
278
    44
283
     0
284
     8
340
11
341
90
342
90
  0
DIMSTYLE
105
E5
330
A
100
AcDbSymbolTableRecord
100
AcDbDimStyleTableRecord
  2
Standard
 70
     0
178
     0
340
11
  0
DIMSTYLE
105
E7
102
{ACAD_REACTORS
330
2F5
330
2F6
330
2F7
330
2F8
330
2F9
330
2FA
330
2FF
330
302
330
303
330
305
330
399
102
}
330
A
100
AcDbSymbolTableRecord
100
AcDbDimStyleTableRecord
  2
実寸
 70
     0
 41
25.0
 42
10.0
 43
6.0
 44
0.0
 47
5.0
 73
     0
 74
     0
 77
     1
 78
     8
140
25.0
141
0.0
144
5.0
147
5.0
178
     0
271
     1
272
     1
284
     8
340
11
341
90
342
90
1001
ACAD_DSTYLE_DIMBREAK
1070
   391
1040
0.125
1001
ACAD_DSTYLE_DIMJAG
1070
   388
1040
1.5
1001
ACAD_DSTYLE_DIMTALN
1070
   392
1070
     0
  0
ENDTAB
  0
TABLE
  2
BLOCK_RECORD
  5
1
330
0
100
AcDbSymbolTable
 70
    30
  0
BLOCK_RECORD
  5
1F
330
1
100
AcDbSymbolTableRecord
100
AcDbBlockTableRecord
  2
*Model_Space
340
22
  0
BLOCK_RECORD
  5
1B
330
1
100
AcDbSymbolTableRecord
100
AcDbBlockTableRecord
  2
*Paper_Space
340
1E
  0
BLOCK_RECORD
  5
23
330
1
100
AcDbSymbolTableRecord
100
AcDbBlockTableRecord
  2
*Paper_Space0
340
26
  0
BLOCK_RECORD
  5
76
330
1
100
AcDbSymbolTableRecord
100
AcDbBlockTableRecord
  2
_CLOSED
340
0
  0
BLOCK_RECORD
  5
90
330
1
100
AcDbSymbolTableRecord
100
AcDbBlockTableRecord
  2
_OPEN
340
0
102
{BLKREFS
331
30C
331
30D
331
318
331
319
331
324
331
325
331
330
331
331
331
33C
331
33D
331
34B
331
34C
331
357
331
358
331
366
331
367
331
374
331
375
331
380
331
381
331
0
331
3B2
331
3C0
331
3CB
331
3D6
331
3A2
331
3A3
102
}
  0
BLOCK_RECORD
  5
306
330
1
100
AcDbSymbolTableRecord
100
AcDbBlockTableRecord
  2
*D15
340
0
  0
BLOCK_RECORD
  5
312
330
1
100
AcDbSymbolTableRecord
100
AcDbBlockTableRecord
  2
*D16
340
0
  0
BLOCK_RECORD
  5
31E
330
1
100
AcDbSymbolTableRecord
100
AcDbBlockTableRecord
  2
*D17
340
0
  0
BLOCK_RECORD
  5
32A
330
1
100
AcDbSymbolTableRecord
100
AcDbBlockTableRecord
  2
*D18
340
0
  0
BLOCK_RECORD
  5
336
330
1
100
AcDbSymbolTableRecord
100
AcDbBlockTableRecord
  2
*D19
340
0
  0
BLOCK_RECORD
  5
342
330
1
100
AcDbSymbolTableRecord
100
AcDbBlockTableRecord
  2
*D20
340
0
  0
BLOCK_RECORD
  5
351
330
1
100
AcDbSymbolTableRecord
100
AcDbBlockTableRecord
  2
*D21
340
0
  0
BLOCK_RECORD
  5
35D
330
1
100
AcDbSymbolTableRecord
100
AcDbBlockTableRecord
  2
*D22
340
0
  0
BLOCK_RECORD
  5
36C
330
1
100
AcDbSymbolTableRecord
100
AcDbBlockTableRecord
  2
*D23
340
0
  0
BLOCK_RECORD
  5
37A
330
1
100
AcDbSymbolTableRecord
100
AcDbBlockTableRecord
  2
*D24
340
0
  0
BLOCK_RECORD
  5
39C
330
1
100
AcDbSymbolTableRecord
100
AcDbBlockTableRecord
  2
*D25
340
0
  0
BLOCK_RECORD
  5
3A9
330
1
100
AcDbSymbolTableRecord
100
AcDbBlockTableRecord
  2
*D26
340
0
  0
BLOCK_RECORD
  5
3BB
330
1
100
AcDbSymbolTableRecord
100
AcDbBlockTableRecord
  2
*D27
340
0
  0
BLOCK_RECORD
  5
3C6
330
1
100
AcDbSymbolTableRecord
100
AcDbBlockTableRecord
  2
*D28
340
0
  0
BLOCK_RECORD
  5
3D1
330
1
100
AcDbSymbolTableRecord
100
AcDbBlockTableRecord
  2
*D29
340
0
  0
ENDTAB
  0
ENDSEC
  0
SECTION
  2
BLOCKS
  0
BLOCK
  5
20
330
1F
100
AcDbEntity
  8
0
100
AcDbBlockBegin
  2
*Model_Space
 70
     0
 10
0.0
 20
0.0
 30
0.0
  3
*Model_Space
  1
*Model_Space
  0
ENDBLK
  5
21
330
1F
100
AcDbEntity
  8
0
100
AcDbBlockEnd
  0
BLOCK
  5
1C
330
1B
100
AcDbEntity
 67
     1
  8
0
100
AcDbBlockBegin
  2
*Paper_Space
 70
     0
 10
0.0
 20
0.0
 30
0.0
  3
*Paper_Space
  1
*Paper_Space
  0
ENDBLK
  5
1D
330
1B
100
AcDbEntity
 67
     1
  8
0
100
AcDbBlockEnd
  0
BLOCK
  5
24
330
23
100
AcDbEntity
  8
0
100
AcDbBlockBegin
  2
*Paper_Space0
 70
     0
 10
0.0
 20
0.0
 30
0.0
  3
*Paper_Space0
  1
*Paper_Space0
  0
ENDBLK
  5
25
330
23
100
AcDbEntity
  8
0
100
AcDbBlockEnd
  0
BLOCK
  5
77
330
76
100
AcDbEntity
  8
0
100
AcDbBlockBegin
  2
_CLOSED
 70
     0
 10
0.0
 20
0.0
 30
0.0
  3
_CLOSED
  1
_CLOSED
  0
LINE
  5
78
330
76
100
AcDbEntity
  8
0
  6
ByBlock
 62
     0
370
    -2
100
AcDbLine
 10
-1.0
 20
0.166667
 30
0.0
 11
0.0
 21
0.0
 31
0.0
  0
LINE
  5
79
330
76
100
AcDbEntity
  8
0
  6
ByBlock
 62
     0
370
    -2
100
AcDbLine
 10
0.0
 20
0.0
 30
0.0
 11
-1.0
 21
-0.166667
 31
0.0
  0
LINE
  5
7A
330
76
100
AcDbEntity
  8
0
  6
ByBlock
 62
     0
370
    -2
100
AcDbLine
 10
-1.0
 20
0.166667
 30
0.0
 11
-1.0
 21
-0.166667
 31
0.0
  0
LINE
  5
7B
330
76
100
AcDbEntity
  8
0
  6
ByBlock
 62
     0
370
    -2
100
AcDbLine
 10
0.0
 20
0.0
 30
0.0
 11
-1.0
 21
0.0
 31
0.0
  0
ENDBLK
  5
7C
330
76
100
AcDbEntity
  8
0
100
AcDbBlockEnd
  0
BLOCK
  5
91
330
90
100
AcDbEntity
  8
0
100
AcDbBlockBegin
  2
_OPEN
 70
     0
 10
0.0
 20
0.0
 30
0.0
  3
_OPEN
  1
_OPEN
  0
LINE
  5
92
330
90
100
AcDbEntity
  8
0
  6
ByBlock
 62
     0
370
    -2
100
AcDbLine
 10
-1.0
 20
0.166667
 30
0.0
 11
0.0
 21
0.0
 31
0.0
  0
LINE
  5
93
330
90
100
AcDbEntity
  8
0
  6
ByBlock
 62
     0
370
    -2
100
AcDbLine
 10
-1.0
 20
-0.166667
 30
0.0
 11
0.0
 21
0.0
 31
0.0
  0
LINE
  5
94
330
90
100
AcDbEntity
  8
0
  6
ByBlock
 62
     0
370
    -2
100
AcDbLine
 10
0.0
 20
0.0
 30
0.0
 11
-1.0
 21
0.0
 31
0.0
  0
ENDBLK
  5
95
330
90
100
AcDbEntity
  8
0
100
AcDbBlockEnd
  0
BLOCK
  5
307
330
306
100
AcDbEntity
  8
0
100
AcDbBlockBegin
  2
*D15
 70
     1
 10
0.0
 20
0.0
 30
0.0
  3
*D15
  1
*D15
  0
LINE
  5
309
330
306
100
AcDbEntity
  8
C寸法
 62
     0
370
    -2
100
AcDbLine
 10
148.6367812658919
 20
658.494359700095
 30
0.0
 11
148.636781265892
 21
351.2237041616875
 31
0.0
  0
LINE
  5
30A
330
306
100
AcDbEntity
  8
C寸法
 62
     0
370
    -2
100
AcDbLine
 10
948.6367812657755
 20
646.5849756124101
 30
0.0
 11
948.6367812657755
 21
351.2237041616875
 31
0.0
  0
LINE
  5
30B
330
306
100
AcDbEntity
  8
C寸法
 62
     0
370
    -2
100
AcDbLine
 10
173.636781265892
 20
351.2237041616875
 30
0.0
 11
923.6367812657755
 21
351.2237041616875
 31
0.0
  0
INSERT
  5
30C
330
306
100
AcDbEntity
  8
C寸法
 62
     0
370
    -2
100
AcDbBlockReference
  2
_OPEN
 10
148.636781265892
 20
351.2237041616875
 30
0.0
 41
25.0
 42
25.0
 43
25.0
 50
180.0
  0
INSERT
  5
30D
330
306
100
AcDbEntity
  8
C寸法
 62
     0
370
    -2
100
AcDbBlockReference
  2
_OPEN
 10
948.6367812657755
 20
351.2237041616875
 30
0.0
 41
25.0
 42
25.0
 43
25.0
  0
MTEXT
  5
30E
330
306
100
AcDbEntity
  8
C寸法
 62
     0
370
    13
100
AcDbMText
 10
548.6367812658337
 20
368.7237041616875
 30
0.0
 40
25.0
 41
0.0
 71
     5
 72
     1
  1
\A1;800
  7
KANJI
 73
     1
 44
1.0
  0
POINT
  5
30F
330
306
100
AcDbEntity
  8
Defpoints
 62
     0
100
AcDbPoint
 10
148.6367812658919
 20
668.494359700095
 30
0.0
  0
POINT
  5
310
330
306
100
AcDbEntity
  8
Defpoints
 62
     0
100
AcDbPoint
 10
948.6367812657755
 20
656.5849756124101
 30
0.0
  0
POINT
  5
311
330
306
100
AcDbEntity
  8
Defpoints
 62
     0
100
AcDbPoint
 10
948.6367812657755
 20
351.2237041616875
 30
0.0
  0
ENDBLK
  5
308
330
306
100
AcDbEntity
  8
0
100
AcDbBlockEnd
  0
BLOCK
  5
313
330
312
100
AcDbEntity
  8
0
100
AcDbBlockBegin
  2
*D16
 70
     1
 10
0.0
 20
0.0
 30
0.0
  3
*D16
  1
*D16
  0
LINE
  5
315
330
312
100
AcDbEntity
  8
C寸法
 62
     0
370
    -2
100
AcDbLine
 10
988.6367812657755
 20
266.9237041616896
 30
0.0
 11
1128.636781265775
 21
266.9237041616896
 31
0.0
  0
LINE
  5
316
330
312
100
AcDbEntity
  8
C寸法
 62
     0
370
    -2
100
AcDbLine
 10
626.117001224835
 20
76.92370416171906
 30
0.0
 11
1128.636781265775
 21
76.92370416171903
 31
0.0
  0
LINE
  5
317
330
312
100
AcDbEntity
  8
C寸法
 62
     0
370
    -2
100
AcDbLine
 10
1128.636781265775
 20
241.9237041616896
 30
0.0
 11
1128.636781265775
 21
101.923704161719
 31
0.0
  0
INSERT
  5
318
330
312
100
AcDbEntity
  8
C寸法
 62
     0
370
    -2
100
AcDbBlockReference
  2
_OPEN
 10
1128.636781265775
 20
266.9237041616896
 30
0.0
 41
25.0
 42
25.0
 43
25.0
 50
90.0
  0
INSERT
  5
319
330
312
100
AcDbEntity
  8
C寸法
 62
     0
370
    -2
100
AcDbBlockReference
  2
_OPEN
 10
1128.636781265775
 20
76.92370416171903
 30
0.0
 41
25.0
 42
25.0
 43
25.0
 50
270.0
  0
MTEXT
  5
31A
330
312
100
AcDbEntity
  8
C寸法
 62
     0
370
    13
100
AcDbMText
 10
1111.136781265775
 20
171.9237041617043
 30
0.0
 40
25.0
 41
0.0
 71
     5
 72
     1
  1
\A1;190
  7
KANJI
 11
0.0
 21
1.0
 31
0.0
 73
     1
 44
1.0
  0
POINT
  5
31B
330
312
100
AcDbEntity
  8
Defpoints
 62
     0
100
AcDbPoint
 10
978.6367812657755
 20
266.9237041616896
 30
0.0
  0
POINT
  5
31C
330
312
100
AcDbEntity
  8
Defpoints
 62
     0
100
AcDbPoint
 10
616.117001224835
 20
76.92370416171906
 30
0.0
  0
POINT
  5
31D
330
312
100
AcDbEntity
  8
Defpoints
 62
     0
100
AcDbPoint
 10
1128.636781265775
 20
76.92370416171903
 30
0.0
  0
ENDBLK
  5
314
330
312
100
AcDbEntity
  8
0
100
AcDbBlockEnd
  0
BLOCK
  5
31F
330
31E
100
AcDbEntity
  8
0
100
AcDbBlockBegin
  2
*D17
 70
     1
 10
0.0
 20
0.0
 30
0.0
  3
*D17
  1
*D17
  0
LINE
  5
321
330
31E
100
AcDbEntity
  8
C寸法
 62
     0
370
    -2
100
AcDbLine
 10
988.6367812657755
 20
1021.223704161577
 30
0.0
 11
1228.636781265775
 21
1021.223704161577
 31
0.0
  0
LINE
  5
322
330
31E
100
AcDbEntity
  8
C寸法
 62
     0
370
    -2
100
AcDbLine
 10
988.6367812657755
 20
501.2237041616529
 30
0.0
 11
1228.636781265775
 21
501.2237041616529
 31
0.0
  0
LINE
  5
323
330
31E
100
AcDbEntity
  8
C寸法
 62
     0
370
    -2
100
AcDbLine
 10
1228.636781265775
 20
996.2237041615765
 30
0.0
 11
1228.636781265775
 21
526.2237041616529
 31
0.0
  0
INSERT
  5
324
330
31E
100
AcDbEntity
  8
C寸法
 62
     0
370
    -2
100
AcDbBlockReference
  2
_OPEN
 10
1228.636781265775
 20
1021.223704161577
 30
0.0
 41
25.0
 42
25.0
 43
25.0
 50
90.0
  0
INSERT
  5
325
330
31E
100
AcDbEntity
  8
C寸法
 62
     0
370
    -2
100
AcDbBlockReference
  2
_OPEN
 10
1228.636781265775
 20
501.2237041616529
 30
0.0
 41
25.0
 42
25.0
 43
25.0
 50
270.0
  0
MTEXT
  5
326
330
31E
100
AcDbEntity
  8
C寸法
 62
     0
370
    13
100
AcDbMText
 10
1211.136781265775
 20
761.2237041616147
 30
0.0
 40
25.0
 41
0.0
 71
     5
 72
     1
  1
\A1;520
  7
KANJI
 11
0.0
 21
1.0
 31
0.0
 73
     1
 44
1.0
  0
POINT
  5
327
330
31E
100
AcDbEntity
  8
Defpoints
 62
     0
100
AcDbPoint
 10
978.6367812657755
 20
1021.223704161577
 30
0.0
  0
POINT
  5
328
330
31E
100
AcDbEntity
  8
Defpoints
 62
     0
100
AcDbPoint
 10
978.6367812657755
 20
501.2237041616529
 30
0.0
  0
POINT
  5
329
330
31E
100
AcDbEntity
  8
Defpoints
 62
     0
100
AcDbPoint
 10
1228.636781265775
 20
501.2237041616529
 30
0.0
  0
ENDBLK
  5
320
330
31E
100
AcDbEntity
  8
0
100
AcDbBlockEnd
  0
BLOCK
  5
32B
330
32A
100
AcDbEntity
  8
0
100
AcDbBlockBegin
  2
*D18
 70
     1
 10
0.0
 20
0.0
 30
0.0
  3
*D18
  1
*D18
  0
LINE
  5
32D
330
32A
100
AcDbEntity
  8
C寸法
 62
     0
370
    -2
100
AcDbLine
 10
988.6367812657755
 20
1021.223704161575
 30
0.0
 11
1178.636781265775
 21
1021.223704161575
 31
0.0
  0
LINE
  5
32E
330
32A
100
AcDbEntity
  8
C寸法
 62
     0
370
    -2
100
AcDbLine
 10
988.6367812657755
 20
516.2237041616529
 30
0.0
 11
1178.636781265775
 21
516.2237041616529
 31
0.0
  0
LINE
  5
32F
330
32A
100
AcDbEntity
  8
C寸法
 62
     0
370
    -2
100
AcDbLine
 10
1178.636781265775
 20
996.2237041615747
 30
0.0
 11
1178.636781265775
 21
541.2237041616529
 31
0.0
  0
INSERT
  5
330
330
32A
100
AcDbEntity
  8
C寸法
 62
     0
370
    -2
100
AcDbBlockReference
  2
_OPEN
 10
1178.636781265775
 20
1021.223704161575
 30
0.0
 41
25.0
 42
25.0
 43
25.0
 50
90.0
  0
INSERT
  5
331
330
32A
100
AcDbEntity
  8
C寸法
 62
     0
370
    -2
100
AcDbBlockReference
  2
_OPEN
 10
1178.636781265775
 20
516.2237041616529
 30
0.0
 41
25.0
 42
25.0
 43
25.0
 50
270.0
  0
MTEXT
  5
332
330
32A
100
AcDbEntity
  8
C寸法
 62
     0
370
    13
100
AcDbMText
 10
1161.136781265775
 20
768.7237041616138
 30
0.0
 40
25.0
 41
0.0
 71
     5
 72
     1
  1
\A1;505
  7
KANJI
 11
0.0
 21
1.0
 31
0.0
 73
     1
 44
1.0
  0
POINT
  5
333
330
32A
100
AcDbEntity
  8
Defpoints
 62
     0
100
AcDbPoint
 10
978.6367812657755
 20
1021.223704161575
 30
0.0
  0
POINT
  5
334
330
32A
100
AcDbEntity
  8
Defpoints
 62
     0
100
AcDbPoint
 10
978.6367812657755
 20
516.2237041616529
 30
0.0
  0
POINT
  5
335
330
32A
100
AcDbEntity
  8
Defpoints
 62
     0
100
AcDbPoint
 10
1178.636781265775
 20
516.2237041616529
 30
0.0
  0
ENDBLK
  5
32C
330
32A
100
AcDbEntity
  8
0
100
AcDbBlockEnd
  0
BLOCK
  5
337
330
336
100
AcDbEntity
  8
0
100
AcDbBlockBegin
  2
*D19
 70
     1
 10
0.0
 20
0.0
 30
0.0
  3
*D19
  1
*D19
  0
LINE
  5
339
330
336
100
AcDbEntity
  8
C寸法
 62
     0
370
    -2
100
AcDbLine
 10
898.6367812657828
 20
1021.223704161575
 30
0.0
 11
1128.636781265775
 21
1021.223704161575
 31
0.0
  0
LINE
  5
33A
330
336
100
AcDbEntity
  8
C寸法
 62
     0
370
    -2
100
AcDbLine
 10
989.9812844899726
 20
851.2237041616002
 30
0.0
 11
1128.636781265775
 21
851.2237041616002
 31
0.0
  0
LINE
  5
33B
330
336
100
AcDbEntity
  8
C寸法
 62
     0
370
    -2
100
AcDbLine
 10
1128.636781265775
 20
996.2237041615747
 30
0.0
 11
1128.636781265775
 21
876.2237041616002
 31
0.0
  0
INSERT
  5
33C
330
336
100
AcDbEntity
  8
C寸法
 62
     0
370
    -2
100
AcDbBlockReference
  2
_OPEN
 10
1128.636781265775
 20
1021.223704161575
 30
0.0
 41
25.0
 42
25.0
 43
25.0
 50
90.0
  0
INSERT
  5
33D
330
336
100
AcDbEntity
  8
C寸法
 62
     0
370
    -2
100
AcDbBlockReference
  2
_OPEN
 10
1128.636781265775
 20
851.2237041616002
 30
0.0
 41
25.0
 42
25.0
 43
25.0
 50
270.0
  0
MTEXT
  5
33E
330
336
100
AcDbEntity
  8
C寸法
 62
     0
370
    13
100
AcDbMText
 10
1111.136781265775
 20
936.2237041615874
 30
0.0
 40
25.0
 41
0.0
 71
     5
 72
     1
  1
\A1;170
  7
KANJI
 11
0.0
 21
1.0
 31
0.0
 73
     1
 44
1.0
  0
POINT
  5
33F
330
336
100
AcDbEntity
  8
Defpoints
 62
     0
100
AcDbPoint
 10
888.6367812657828
 20
1021.223704161575
 30
0.0
  0
POINT
  5
340
330
336
100
AcDbEntity
  8
Defpoints
 62
     0
100
AcDbPoint
 10
979.9812844899726
 20
851.2237041616002
 30
0.0
  0
POINT
  5
341
330
336
100
AcDbEntity
  8
Defpoints
 62
     0
100
AcDbPoint
 10
1128.636781265775
 20
851.2237041616002
 30
0.0
  0
ENDBLK
  5
338
330
336
100
AcDbEntity
  8
0
100
AcDbBlockEnd
  0
BLOCK
  5
343
330
342
100
AcDbEntity
  8
0
100
AcDbBlockBegin
  2
*D20
 70
     1
 10
0.0
 20
0.0
 30
0.0
  3
*D20
  1
*D20
  0
LINE
  5
345
330
342
100
AcDbEntity
  8
C寸法
 62
     0
370
    -2
100
AcDbLine
 10
558.6367812658337
 20
516.2237041616529
 30
0.0
 11
1178.636781265775
 21
516.2237041616529
 31
0.0
  0
LINE
  5
346
330
342
100
AcDbEntity
  8
C寸法
 62
     0
370
    -2
100
AcDbLine
 10
558.6367812658337
 20
501.2237041616529
 30
0.0
 11
1178.636781265775
 21
501.2237041616529
 31
0.0
  0
LINE
  5
347
330
342
100
AcDbEntity
  8
C寸法
 62
     0
370
    -2
100
AcDbLine
 10
1178.636781265775
 20
501.2237041616529
 30
0.0
 11
1178.636781265775
 21
404.132930352129
 31
0.0
  0
LINE
  5
348
330
342
100
AcDbEntity
  8
C寸法
 62
     0
370
    -2
100
AcDbLine
 10
1178.636781265775
 20
516.2237041616529
 30
0.0
 11
1178.636781265775
 21
501.2237041616529
 31
0.0
  0
LINE
  5
349
330
342
100
AcDbEntity
  8
C寸法
 62
     0
370
    -2
100
AcDbLine
 10
1178.636781265775
 20
541.2237041616529
 30
0.0
 11
1178.636781265775
 21
566.2237041616529
 31
0.0
  0
LINE
  5
34A
330
342
100
AcDbEntity
  8
C寸法
 62
     0
370
    -2
100
AcDbLine
 10
1178.636781265775
 20
476.2237041616529
 30
0.0
 11
1178.636781265775
 21
451.2237041616529
 31
0.0
  0
INSERT
  5
34B
330
342
100
AcDbEntity
  8
C寸法
 62
     0
370
    -2
100
AcDbBlockReference
  2
_OPEN
 10
1178.636781265775
 20
516.2237041616529
 30
0.0
 41
25.0
 42
25.0
 43
25.0
 50
270.0
  0
INSERT
  5
34C
330
342
100
AcDbEntity
  8
C寸法
 62
     0
370
    -2
100
AcDbBlockReference
  2
_OPEN
 10
1178.636781265775
 20
501.2237041616529
 30
0.0
 41
25.0
 42
25.0
 43
25.0
 50
90.0
  0
MTEXT
  5
34D
330
342
100
AcDbEntity
  8
C寸法
 62
     0
370
    13
100
AcDbMText
 10
1161.136781265775
 20
427.6783172568909
 30
0.0
 40
25.0
 41
0.0
 71
     5
 72
     1
  1
\A1;15
  7
KANJI
 11
0.0
 21
1.0
 31
0.0
 73
     1
 44
1.0
  0
POINT
  5
34E
330
342
100
AcDbEntity
  8
Defpoints
 62
     0
100
AcDbPoint
 10
548.6367812658337
 20
516.2237041616529
 30
0.0
  0
POINT
  5
34F
330
342
100
AcDbEntity
  8
Defpoints
 62
     0
100
AcDbPoint
 10
548.6367812658337
 20
501.2237041616529
 30
0.0
  0
POINT
  5
350
330
342
100
AcDbEntity
  8
Defpoints
 62
     0
100
AcDbPoint
 10
1178.636781265775
 20
501.2237041616528
 30
0.0
  0
ENDBLK
  5
344
330
342
100
AcDbEntity
  8
0
100
AcDbBlockEnd
  0
BLOCK
  5
352
330
351
100
AcDbEntity
  8
0
100
AcDbBlockBegin
  2
*D21
 70
     1
 10
0.0
 20
0.0
 30
0.0
  3
*D21
  1
*D21
  0
LINE
  5
354
330
351
100
AcDbEntity
  8
C寸法
 62
     0
370
    -2
100
AcDbLine
 10
748.6367812658083
 20
1058.223704161598
 30
0.0
 11
748.6367812658083
 21
1117.411181113779
 31
0.0
  0
LINE
  5
355
330
351
100
AcDbEntity
  8
C寸法
 62
     0
370
    -2
100
AcDbLine
 10
948.6367812657755
 20
948.6982873197331
 30
0.0
 11
948.6367812657755
 21
1117.411181113779
 31
0.0
  0
LINE
  5
356
330
351
100
AcDbEntity
  8
C寸法
 62
     0
370
    -2
100
AcDbLine
 10
773.6367812658083
 20
1117.411181113779
 30
0.0
 11
923.6367812657755
 21
1117.411181113779
 31
0.0
  0
INSERT
  5
357
330
351
100
AcDbEntity
  8
C寸法
 62
     0
370
    -2
100
AcDbBlockReference
  2
_OPEN
 10
748.6367812658083
 20
1117.411181113779
 30
0.0
 41
25.0
 42
25.0
 43
25.0
 50
180.0
  0
INSERT
  5
358
330
351
100
AcDbEntity
  8
C寸法
 62
     0
370
    -2
100
AcDbBlockReference
  2
_OPEN
 10
948.6367812657755
 20
1117.411181113779
 30
0.0
 41
25.0
 42
25.0
 43
25.0
  0
MTEXT
  5
359
330
351
100
AcDbEntity
  8
C寸法
 62
     0
370
    13
100
AcDbMText
 10
848.6367812657919
 20
1134.911181113779
 30
0.0
 40
25.0
 41
0.0
 71
     5
 72
     1
  1
\A1;200
  7
KANJI
 73
     1
 44
1.0
  0
POINT
  5
35A
330
351
100
AcDbEntity
  8
Defpoints
 62
     0
100
AcDbPoint
 10
748.6367812658083
 20
1048.223704161598
 30
0.0
  0
POINT
  5
35B
330
351
100
AcDbEntity
  8
Defpoints
 62
     0
100
AcDbPoint
 10
948.6367812657755
 20
938.6982873197331
 30
0.0
  0
POINT
  5
35C
330
351
100
AcDbEntity
  8
Defpoints
 62
     0
100
AcDbPoint
 10
948.6367812657755
 20
1117.411181113779
 30
0.0
  0
ENDBLK
  5
353
330
351
100
AcDbEntity
  8
0
100
AcDbBlockEnd
  0
BLOCK
  5
35E
330
35D
100
AcDbEntity
  8
0
100
AcDbBlockBegin
  2
*D22
 70
     1
 10
0.0
 20
0.0
 30
0.0
  3
*D22
  1
*D22
  0
LINE
  5
360
330
35D
100
AcDbEntity
  8
C寸法
 62
     0
370
    -2
100
AcDbLine
 10
988.6367812657755
 20
1021.223704161575
 30
0.0
 11
1078.636781265775
 21
1021.223704161575
 31
0.0
  0
LINE
  5
361
330
35D
100
AcDbEntity
  8
C寸法
 62
     0
370
    -2
100
AcDbLine
 10
795.3300223739722
 20
986.7237041615979
 30
0.0
 11
1078.636781265775
 21
986.7237041615979
 31
0.0
  0
LINE
  5
362
330
35D
100
AcDbEntity
  8
C寸法
 62
     0
370
    -2
100
AcDbLine
 10
1078.636781265775
 20
1021.223704161575
 30
0.0
 11
1078.636781265775
 21
1157.414180352051
 31
0.0
  0
LINE
  5
363
330
35D
100
AcDbEntity
  8
C寸法
 62
     0
370
    -2
100
AcDbLine
 10
1078.636781265775
 20
1021.223704161575
 30
0.0
 11
1078.636781265775
 21
986.7237041615979
 31
0.0
  0
LINE
  5
364
330
35D
100
AcDbEntity
  8
C寸法
 62
     0
370
    -2
100
AcDbLine
 10
1078.636781265775
 20
1046.223704161575
 30
0.0
 11
1078.636781265775
 21
1071.223704161575
 31
0.0
  0
LINE
  5
365
330
35D
100
AcDbEntity
  8
C寸法
 62
     0
370
    -2
100
AcDbLine
 10
1078.636781265775
 20
961.7237041615979
 30
0.0
 11
1078.636781265775
 21
936.7237041615979
 31
0.0
  0
INSERT
  5
366
330
35D
100
AcDbEntity
  8
C寸法
 62
     0
370
    -2
100
AcDbBlockReference
  2
_OPEN
 10
1078.636781265775
 20
1021.223704161575
 30
0.0
 41
25.0
 42
25.0
 43
25.0
 50
270.0
  0
INSERT
  5
367
330
35D
100
AcDbEntity
  8
C寸法
 62
     0
370
    -2
100
AcDbBlockReference
  2
_OPEN
 10
1078.636781265775
 20
986.7237041615979
 30
0.0
 41
25.0
 42
25.0
 43
25.0
 50
90.0
  0
MTEXT
  5
368
330
35D
100
AcDbEntity
  8
C寸法
 62
     0
370
    13
100
AcDbMText
 10
1061.136781265775
 20
1114.318942256813
 30
0.0
 40
25.0
 41
0.0
 71
     5
 72
     1
  1
\A1;34.5
  7
KANJI
 11
0.0
 21
1.0
 31
0.0
 73
     1
 44
1.0
  0
POINT
  5
369
330
35D
100
AcDbEntity
  8
Defpoints
 62
     0
100
AcDbPoint
 10
978.6367812657755
 20
1021.223704161575
 30
0.0
  0
POINT
  5
36A
330
35D
100
AcDbEntity
  8
Defpoints
 62
     0
100
AcDbPoint
 10
785.3300223739722
 20
986.7237041615979
 30
0.0
  0
POINT
  5
36B
330
35D
100
AcDbEntity
  8
Defpoints
 62
     0
100
AcDbPoint
 10
1078.636781265775
 20
986.7237041615979
 30
0.0
  0
ENDBLK
  5
35F
330
35D
100
AcDbEntity
  8
0
100
AcDbBlockEnd
  0
BLOCK
  5
36D
330
36C
100
AcDbEntity
  8
0
100
AcDbBlockBegin
  2
*D23
 70
     1
 10
0.0
 20
0.0
 30
0.0
  3
*D23
  1
*D23
  0
LINE
  5
36F
330
36C
100
AcDbEntity
  8
C寸法
 62
     0
370
    -2
100
AcDbLine
 10
966.7310694952217
 20
266.9237041616896
 30
0.0
 11
1078.636781265775
 21
266.9237041616896
 31
0.0
  0
LINE
  5
370
330
36C
100
AcDbEntity
  8
C寸法
 62
     0
370
    -2
100
AcDbLine
 10
947.5267506422898
 20
251.9237041616931
 30
0.0
 11
1078.636781265775
 21
251.9237041616931
 31
0.0
  0
LINE
  5
371
330
36C
100
AcDbEntity
  8
C寸法
 62
     0
370
    -2
100
AcDbLine
 10
1078.636781265775
 20
226.9237041616931
 30
0.0
 11
1078.636781265775
 21
154.8329303521693
 31
0.0
  0
LINE
  5
372
330
36C
100
AcDbEntity
  8
C寸法
 62
     0
370
    -2
100
AcDbLine
 10
1078.636781265775
 20
266.9237041616896
 30
0.0
 11
1078.636781265775
 21
251.9237041616931
 31
0.0
  0
LINE
  5
373
330
36C
100
AcDbEntity
  8
C寸法
 62
     0
370
    -2
100
AcDbLine
 10
1078.636781265775
 20
291.9237041616896
 30
0.0
 11
1078.636781265775
 21
316.9237041616896
 31
0.0
  0
INSERT
  5
374
330
36C
100
AcDbEntity
  8
C寸法
 62
     0
370
    -2
100
AcDbBlockReference
  2
_OPEN
 10
1078.636781265775
 20
266.9237041616896
 30
0.0
 41
25.0
 42
25.0
 43
25.0
 50
270.0
  0
INSERT
  5
375
330
36C
100
AcDbEntity
  8
C寸法
 62
     0
370
    -2
100
AcDbBlockReference
  2
_OPEN
 10
1078.636781265775
 20
251.9237041616931
 30
0.0
 41
25.0
 42
25.0
 43
25.0
 50
90.0
  0
MTEXT
  5
376
330
36C
100
AcDbEntity
  8
C寸法
 62
     0
370
    13
100
AcDbMText
 10
1061.136781265775
 20
178.3783172569312
 30
0.0
 40
25.0
 41
0.0
 71
     5
 72
     1
  1
\A1;15
  7
KANJI
 11
0.0
 21
1.0
 31
0.0
 73
     1
 44
1.0
  0
POINT
  5
377
330
36C
100
AcDbEntity
  8
Defpoints
 62
     0
100
AcDbPoint
 10
956.7310694952217
 20
266.9237041616896
 30
0.0
  0
POINT
  5
378
330
36C
100
AcDbEntity
  8
Defpoints
 62
     0
100
AcDbPoint
 10
937.5267506422898
 20
251.9237041616931
 30
0.0
  0
POINT
  5
379
330
36C
100
AcDbEntity
  8
Defpoints
 62
     0
100
AcDbPoint
 10
1078.636781265775
 20
251.9237041616931
 30
0.0
  0
ENDBLK
  5
36E
330
36C
100
AcDbEntity
  8
0
100
AcDbBlockEnd
  0
BLOCK
  5
37B
330
37A
100
AcDbEntity
  8
0
100
AcDbBlockBegin
  2
*D24
 70
     1
 10
0.0
 20
0.0
 30
0.0
  3
*D24
  1
*D24
  0
LINE
  5
37D
330
37A
100
AcDbEntity
  8
C寸法
 62
     0
370
    -2
100
AcDbLine
 10
639.1367812658337
 20
841.2237041616002
 30
0.0
 11
639.1367812658337
 21
691.2523429384398
 31
0.0
  0
LINE
  5
37E
330
37A
100
AcDbEntity
  8
C寸法
 62
     0
370
    -2
100
AcDbLine
 10
458.3264494950255
 20
840.977876875731
 30
0.0
 11
458.3264494950255
 21
691.2523429384398
 31
0.0
  0
LINE
  5
37F
330
37A
100
AcDbEntity
  8
C寸法
 62
     0
370
    -2
100
AcDbLine
 10
614.1367812658337
 20
691.2523429384398
 30
0.0
 11
483.3264494950255
 21
691.2523429384398
 31
0.0
  0
INSERT
  5
380
330
37A
100
AcDbEntity
  8
C寸法
 62
     0
370
    -2
100
AcDbBlockReference
  2
_OPEN
 10
639.1367812658337
 20
691.2523429384398
 30
0.0
 41
25.0
 42
25.0
 43
25.0
  0
INSERT
  5
381
330
37A
100
AcDbEntity
  8
C寸法
 62
     0
370
    -2
100
AcDbBlockReference
  2
_OPEN
 10
458.3264494950255
 20
691.2523429384398
 30
0.0
 41
25.0
 42
25.0
 43
25.0
 50
180.0
  0
MTEXT
  5
382
330
37A
100
AcDbEntity
  8
C寸法
 62
     0
370
    13
100
AcDbMText
 10
562.8130384903162
 20
708.7523429384398
 30
0.0
 40
25.0
 41
0.0
 71
     5
 72
     1
  1
\A1;Φ181
  7
KANJI
 73
     1
 44
1.0
  0
POINT
  5
383
330
37A
100
AcDbEntity
  8
Defpoints
 62
     0
100
AcDbPoint
 10
639.1367812658337
 20
851.2237041616002
 30
0.0
  0
POINT
  5
384
330
37A
100
AcDbEntity
  8
Defpoints
 62
     0
100
AcDbPoint
 10
458.3264494950255
 20
850.977876875731
 30
0.0
  0
POINT
  5
385
330
37A
100
AcDbEntity
  8
Defpoints
 62
     0
100
AcDbPoint
 10
458.3264494950255
 20
691.2523429384398
 30
0.0
  0
ENDBLK
  5
37C
330
37A
100
AcDbEntity
  8
0
100
AcDbBlockEnd
  0
BLOCK
  5
39D
330
39C
100
AcDbEntity
  8
0
100
AcDbBlockBegin
  2
*D25
 70
     1
 10
0.0
 20
0.0
 30
0.0
  3
*D25
  1
*D25
  0
LINE
  5
39F
330
39C
100
AcDbEntity
  8
C寸法
 62
     0
370
    -2
100
AcDbLine
 10
348.6492501675556
 20
1058.223704161598
 30
0.0
 11
348.6492501675556
 21
1113.500314998018
 31
0.0
  0
LINE
  5
3A0
330
39C
100
AcDbEntity
  8
C寸法
 62
     0
370
    -2
100
AcDbLine
 10
148.6492501675883
 20
948.6982873197331
 30
0.0
 11
148.6492501675883
 21
1113.500314998018
 31
0.0
  0
LINE
  5
3A1
330
39C
100
AcDbEntity
  8
C寸法
 62
     0
370
    -2
100
AcDbLine
 10
323.6492501675556
 20
1113.500314998018
 30
0.0
 11
173.6492501675883
 21
1113.500314998018
 31
0.0
  0
INSERT
  5
3A2
330
39C
100
AcDbEntity
  8
C寸法
 62
     0
370
    -2
100
AcDbBlockReference
  2
_OPEN
 10
348.6492501675556
 20
1113.500314998018
 30
0.0
 41
25.0
 42
25.0
 43
25.0
  0
INSERT
  5
3A3
330
39C
100
AcDbEntity
  8
C寸法
 62
     0
370
    -2
100
AcDbBlockReference
  2
_OPEN
 10
148.6492501675883
 20
1113.500314998018
 30
0.0
 41
25.0
 42
25.0
 43
25.0
 50
180.0
  0
MTEXT
  5
3A4
330
39C
100
AcDbEntity
  8
C寸法
 62
     0
370
    13
100
AcDbMText
 10
248.6492501675719
 20
1131.000314998018
 30
0.0
 40
25.0
 41
0.0
 71
     5
 72
     1
  1
\A1;200
  7
KANJI
 73
     1
 44
1.0
  0
POINT
  5
3A5
330
39C
100
AcDbEntity
  8
Defpoints
 62
     0
100
AcDbPoint
 10
348.6492501675556
 20
1048.223704161598
 30
0.0
  0
POINT
  5
3A6
330
39C
100
AcDbEntity
  8
Defpoints
 62
     0
100
AcDbPoint
 10
148.6492501675883
 20
938.6982873197331
 30
0.0
  0
POINT
  5
3A7
330
39C
100
AcDbEntity
  8
Defpoints
 62
     0
100
AcDbPoint
 10
148.6492501675883
 20
1113.500314998018
 30
0.0
  0
ENDBLK
  5
39E
330
39C
100
AcDbEntity
  8
0
100
AcDbBlockEnd
  0
BLOCK
  5
3AA
330
3A9
100
AcDbEntity
  8
0
100
AcDbBlockBegin
  2
*D26
 70
     1
 10
0.0
 20
0.0
 30
0.0
  3
*D26
  1
*D26
  0
LINE
  5
3AC
330
3A9
100
AcDbEntity
  8
0
 62
     0
370
    -2
100
AcDbLine
 10
730.7069503449777
 20
991.7041931579038
 30
0.0
 11
730.7069503449777
 21
1084.025895360406
 31
0.0
  0
LINE
  5
3AD
330
3A9
100
AcDbEntity
  8
0
 62
     0
370
    -2
100
AcDbLine
 10
766.8291561067294
 20
991.8195995660883
 30
0.0
 11
766.8291561067294
 21
1084.025895360406
 31
0.0
  0
LINE
  5
3AE
330
3A9
100
AcDbEntity
  8
0
 62
     0
370
    -2
100
AcDbLine
 10
730.7069503449777
 20
1082.775895360406
 30
0.0
 11
516.83790272593
 21
1082.775895360406
 31
0.0
  0
LINE
  5
3AF
330
3A9
100
AcDbEntity
  8
0
 62
     0
370
    -2
100
AcDbLine
 10
730.7069503449777
 20
1082.775895360406
 30
0.0
 11
766.8291561067294
 21
1082.775895360406
 31
0.0
  0
LINE
  5
3B0
330
3A9
100
AcDbEntity
  8
0
 62
     0
370
    -2
100
AcDbLine
 10
705.7069503449777
 20
1082.775895360406
 30
0.0
 11
680.7069503449777
 21
1082.775895360406
 31
0.0
  0
LINE
  5
3B1
330
3A9
100
AcDbEntity
  8
0
 62
     0
370
    -2
100
AcDbLine
 10
791.8291561067294
 20
1082.775895360406
 30
0.0
 11
816.8291561067294
 21
1082.775895360406
 31
0.0
  0
INSERT
  5
3B2
330
3A9
100
AcDbEntity
  8
0
 62
     0
370
    -2
100
AcDbBlockReference
  2
_OPEN
 10
730.7069503449777
 20
1082.775895360406
 30
0.0
 41
25.0
 42
25.0
 43
25.0
  0
INSERT
  5
3B3
330
3A9
100
AcDbEntity
  8
0
 62
     0
370
    -2
100
AcDbBlockReference
  2
_OPEN
 10
766.8291561067294
 20
1082.775895360406
 30
0.0
 41
25.0
 42
25.0
 43
25.0
 50
180.0
  0
MTEXT
  5
3B4
330
3A9
100
AcDbEntity
  8
0
 62
     0
370
    13
100
AcDbMText
 10
598.7724265354539
 20
1100.275895360406
 30
0.0
 40
25.0
 41
0.0
 71
     5
 72
     1
  1
Φ36水栓穴
  7
KANJI
 73
     1
 44
1.0
  0
POINT
  5
3B5
330
3A9
100
AcDbEntity
  8
Defpoints
 62
     0
100
AcDbPoint
 10
730.7069503449777
 20
986.7041931579038
 30
0.0
  0
POINT
  5
3B6
330
3A9
100
AcDbEntity
  8
Defpoints
 62
     0
100
AcDbPoint
 10
766.8291561067294
 20
986.8195995660883
 30
0.0
  0
POINT
  5
3DF
330
3A9
100
AcDbEntity
  8
Defpoints
 62
     0
100
AcDbPoint
 10
766.8291561067294
 20
1082.775895360406
 30
0.0
  0
ENDBLK
  5
3AB
330
3A9
100
AcDbEntity
  8
0
100
AcDbBlockEnd
  0
BLOCK
  5
3BC
330
3BB
100
AcDbEntity
  8
0
100
AcDbBlockBegin
  2
*D27
 70
     1
 10
0.0
 20
0.0
 30
0.0
  3
*D27
  1
*D27
  0
LINE
  5
3BE
330
3BB
100
AcDbEntity
  8
C寸法
 62
     0
370
    -2
100
AcDbLine
 10
174.8242290921056
 20
562.6688900304543
 30
0.0
 11
349.9270444408616
 21
672.076538195983
 31
0.0
  0
MTEXT
  5
3BF
330
3BB
100
AcDbEntity
  8
C寸法
 62
     0
370
    13
100
AcDbMText
 10
275.3326304498403
 20
646.1036555123799
 30
0.0
 40
25.0
 41
0.0
 71
     5
 72
     1
  1
4-R115
  7
KANJI
 11
0.8480671067986536
 21
0.5298888396316356
 31
0.0
 73
     1
 44
1.0
  0
INSERT
  5
3C0
330
3BB
100
AcDbEntity
  8
C寸法
 62
     0
370
    -2
100
AcDbBlockReference
  2
_OPEN
 10
174.8242290921056
 20
562.6688900304543
 30
0.0
 41
25.0
 42
25.0
 43
25.0
 50
211.9979444777571
  0
POINT
  5
3C1
330
3BB
100
AcDbEntity
  8
Defpoints
 62
     0
100
AcDbPoint
 10
174.8242290921056
 20
562.6688900304543
 30
0.0
  0
POINT
  5
3C2
330
3BB
100
AcDbEntity
  8
Defpoints
 62
     0
100
AcDbPoint
 10
272.351946373936
 20
623.6061065880832
 30
0.0
  0
ENDBLK
  5
3BD
330
3BB
100
AcDbEntity
  8
0
100
AcDbBlockEnd
  0
BLOCK
  5
3C7
330
3C6
100
AcDbEntity
  8
0
100
AcDbBlockBegin
  2
*D28
 70
     1
 10
0.0
 20
0.0
 30
0.0
  3
*D28
  1
*D28
  0
LINE
  5
3C9
330
3C6
100
AcDbEntity
  8
C寸法
 62
     0
370
    -2
100
AcDbLine
 10
195.9340842903729
 20
523.5253006087478
 30
0.0
 11
386.7242530329062
 21
643.0584907636251
 31
0.0
  0
MTEXT
  5
3CA
330
3C6
100
AcDbEntity
  8
C寸法
 62
     0
370
    13
100
AcDbMText
 10
312.1615712800561
 20
616.9946513806162
 30
0.0
 40
25.0
 41
0.0
 71
     5
 72
     1
  1
2-R115
  7
KANJI
 11
0.8474202188921183
 21
0.5309227557873503
 31
0.0
 73
     1
 44
1.0
  0
INSERT
  5
3CB
330
3C6
100
AcDbEntity
  8
C寸法
 62
     0
370
    -2
100
AcDbBlockReference
  2
_OPEN
 10
195.9340842903729
 20
523.5253006087478
 30
0.0
 41
25.0
 42
25.0
 43
25.0
 50
212.0678229414322
  0
POINT
  5
3CC
330
3C6
100
AcDbEntity
  8
Defpoints
 62
     0
100
AcDbPoint
 10
195.9340842903729
 20
523.5253006087478
 30
0.0
  0
POINT
  5
3CD
330
3C6
100
AcDbEntity
  8
Defpoints
 62
     0
100
AcDbPoint
 10
293.3874094629517
 20
584.5814175242838
 30
0.0
  0
ENDBLK
  5
3C8
330
3C6
100
AcDbEntity
  8
0
100
AcDbBlockEnd
  0
BLOCK
  5
3D2
330
3D1
100
AcDbEntity
  8
0
100
AcDbBlockBegin
  2
*D29
 70
     1
 10
0.0
 20
0.0
 30
0.0
  3
*D29
  1
*D29
  0
LINE
  5
3D4
330
3D1
100
AcDbEntity
  8
0
 62
     0
370
    -2
100
AcDbLine
 10
152.5919071040705
 20
986.6716229365484
 30
0.0
 11
354.4986965738384
 21
845.44354895713
 31
0.0
  0
MTEXT
  5
3D5
330
3D1
100
AcDbEntity
  8
0
 62
     0
370
    13
100
AcDbMText
 10
311.168357580001
 20
897.108063718143
 30
0.0
 40
25.0
 41
0.0
 71
     5
 72
     1
  1
2-R60
  7
KANJI
 11
0.819435269953004
 21
-0.5731717354833955
 31
0.0
 73
     1
 44
1.0
  0
INSERT
  5
3D6
330
3D1
100
AcDbEntity
  8
0
 62
     0
370
    -2
100
AcDbBlockReference
  2
_OPEN
 10
152.5919071040705
 20
986.6716229365484
 30
0.0
 41
25.0
 42
25.0
 43
25.0
 50
145.0283020025954
  0
POINT
  5
3D7
330
3D1
100
AcDbEntity
  8
Defpoints
 62
     0
100
AcDbPoint
 10
152.5919071040705
 20
986.6716229365484
 30
0.0
  0
POINT
  5
3D8
330
3D1
100
AcDbEntity
  8
Defpoints
 62
     0
100
AcDbPoint
 10
201.7580233012433
 20
952.2813188075498
 30
0.0
  0
ENDBLK
  5
3D3
330
3D1
100
AcDbEntity
  8
0
100
AcDbBlockEnd
  0
ENDSEC
  0
SECTION
  2
ENTITIES
  0
TEXT
  5
250
330
1F
100
AcDbEntity
  8
C寸法
 62
     7
100
AcDbText
 10
1194.895253302034
 20
141.0826031716782
 30
0.0
 40
30.0
  1
品　番　：N801BIA 寸法図
  7
KANJI
100
AcDbText
  0
LINE
  5
251
330
1F
100
AcDbEntity
  8
0
100
AcDbLine
 10
1190.344280856883
 20
129.2889710391914
 30
0.0
 11
1756.963920959415
 21
129.2889710391914
 31
0.0
  0
TEXT
  5
252
330
1F
100
AcDbEntity
  8
C寸法
 62
     7
100
AcDbText
 10
1235.808191448749
 20
92.40444124616198
 30
0.0
 40
25.0
  1
※詳細はお問合せください
  7
KANJI
100
AcDbText
  0
LWPOLYLINE
  5
253
330
1F
100
AcDbEntity
  8
0
100
AcDbPolyline
 90
        4
 70
     1
 43
0.0
 10
3.637261060755577
 20
1206.144871287193
 10
3.637261060755577
 20
4.596383379700228
 10
1803.692920303302
 20
4.596383379700228
 10
1803.692920303302
 20
1206.144871287193
  0
CIRCLE
  5
254
330
1F
100
AcDbEntity
  8
C寸法
 62
     7
370
    13
100
AcDbCircle
 10
548.6367812658337
 20
851.2237041615988
 30
0.0
 40
110.5
  0
CIRCLE
  5
255
330
1F
100
AcDbEntity
  8
C4
 62
     0
100
AcDbCircle
 10
548.6367812658337
 20
851.2237041615988
 30
0.0
 40
90.5
  0
LINE
  5
256
330
1F
100
AcDbEntity
  8
C2
  6
CENTER
 62
     0
 48
20.0
370
    13
100
AcDbLine
 10
548.6367812658337
 20
1067.85478237828
 30
0.0
 11
548.6367812658337
 21
466.2237041616584
 31
0.0
  0
LINE
  5
257
330
1F
100
AcDbEntity
  8
C2
  6
CENTER
 62
     0
 48
20.0
370
    13
100
AcDbLine
 10
110.6892790071847
 20
851.2237041616003
 30
0.0
 11
978.5970615513057
 21
851.2237041616002
 31
0.0
  0
LINE
  5
258
330
1F
100
AcDbEntity
  8
C4
 62
     0
100
AcDbLine
 10
263.6367812658774
 20
501.2237041616529
 30
0.0
 11
833.6367812657901
 21
501.2237041616529
 31
0.0
  0
LINE
  5
259
330
1F
100
AcDbEntity
  8
C4
 62
     0
100
AcDbLine
 10
263.6367812658774
 20
484.2237041616547
 30
0.0
 11
833.6367812657901
 21
484.2237041616547
 31
0.0
  0
LINE
  5
25A
330
1F
100
AcDbEntity
  8
C4
 62
     0
100
AcDbLine
 10
148.636781265892
 20
616.2237041616347
 30
0.0
 11
148.636781265892
 21
961.2237041615838
 31
0.0
  0
LINE
  5
25B
330
1F
100
AcDbEntity
  8
C4
 62
     0
100
AcDbLine
 10
131.636781265892
 20
961.2237041615838
 30
0.0
 11
131.636781265892
 21
616.2237041616347
 31
0.0
  0
LINE
  5
25C
330
1F
100
AcDbEntity
  8
C4
 62
     0
100
AcDbLine
 10
948.6367812657755
 20
616.2237041616347
 30
0.0
 11
948.6367812657755
 21
961.2237041615838
 31
0.0
  0
LINE
  5
25D
330
1F
100
AcDbEntity
  8
C4
 62
     0
100
AcDbLine
 10
965.6368037266931
 20
961.2237041615838
 30
0.0
 11
965.636781265761
 21
616.2237041616347
 31
0.0
  0
LINE
  5
25E
330
1F
100
AcDbEntity
  8
C4
 62
     0
100
AcDbLine
 10
888.6367812657828
 20
1038.223704161571
 30
0.0
 11
208.6367812658847
 21
1038.223704161571
 31
0.0
  0
LINE
  5
25F
330
1F
100
AcDbEntity
  8
C4
 62
     0
100
AcDbLine
 10
208.6367812658847
 20
1021.223704161577
 30
0.0
 11
888.6367812657828
 21
1021.223704161577
 31
0.0
  0
LINE
  5
260
330
1F
100
AcDbEntity
  8
C4
 62
     0
100
AcDbLine
 10
638.6367619930662
 20
755.3390936622557
 30
0.0
 11
874.2688855348298
 21
891.381390309841
 31
0.0
  0
LINE
  5
261
330
1F
100
AcDbEntity
  8
C4
 62
     0
100
AcDbLine
 10
633.0589131244689
 20
758.2574863241546
 30
0.0
 11
874.2688855348298
 21
891.381390309841
 31
0.0
  0
LINE
  5
262
330
1F
100
AcDbEntity
  8
C4
 62
     0
100
AcDbLine
 10
223.0046769968377
 20
891.381390309841
 30
0.0
 11
458.6367812658483
 21
755.3391314804151
 31
0.0
  0
LINE
  5
263
330
1F
100
AcDbEntity
  8
C4
 62
     0
100
AcDbLine
 10
223.0046769968377
 20
891.381390309841
 30
0.0
 11
464.2146494071986
 21
758.2574863241546
 31
0.0
  0
LINE
  5
264
330
1F
100
AcDbEntity
  8
C4
 62
     0
100
AcDbLine
 10
1388.136794439166
 20
484.2237041616547
 30
0.0
 11
1388.136794439166
 21
1038.223704161571
 31
0.0
  0
LINE
  5
265
330
1F
100
AcDbEntity
  8
C4
 62
     0
100
AcDbLine
 10
1390.636794439166
 20
497.2237041616547
 30
0.0
 11
1390.636794439166
 21
484.2237041616547
 31
0.0
  0
LINE
  5
266
330
1F
100
AcDbEntity
  8
C4
 62
     0
100
AcDbLine
 10
1400.136794439173
 20
501.2237041616529
 30
0.0
 11
1392.13678382481
 21
501.2237041616529
 31
0.0
  0
LINE
  5
267
330
1F
100
AcDbEntity
  8
C4
 62
     0
100
AcDbLine
 10
1400.136794439173
 20
498.7237041616529
 30
0.0
 11
1392.136794439159
 21
498.7237041616529
 31
0.0
  0
LINE
  5
268
330
1F
100
AcDbEntity
  8
C4
 62
     0
100
AcDbLine
 10
1403.136794439166
 20
511.2237041616511
 30
0.0
 11
1403.136794439166
 21
504.2237041616511
 31
0.0
  0
LINE
  5
269
330
1F
100
AcDbEntity
  8
C4
 62
     0
100
AcDbLine
 10
1408.136794439166
 20
516.2237041616511
 30
0.0
 11
1530.482260258721
 21
516.2237041616511
 31
0.0
  0
LINE
  5
26A
330
1F
100
AcDbEntity
  8
C4
 62
     0
100
AcDbLine
 10
1405.636794439166
 20
504.2237041616511
 30
0.0
 11
1405.636794439166
 21
511.2237041616511
 31
0.0
  0
LINE
  5
26B
330
1F
100
AcDbEntity
  8
C4
 62
     0
100
AcDbLine
 10
1408.136794439166
 20
513.7237041616511
 30
0.0
 11
1530.482260258721
 21
513.7237041616511
 31
0.0
  0
LINE
  5
26C
330
1F
100
AcDbEntity
  8
C4
 62
     0
100
AcDbLine
 10
1406.084886228511
 20
946.2237041615856
 30
0.0
 11
1545.184652720875
 21
946.2237041615856
 31
0.0
  0
LINE
  5
26D
330
1F
100
AcDbEntity
  8
C4
 62
     0
100
AcDbLine
 10
1403.136794439166
 20
511.2237041616511
 30
0.0
 11
1403.136794439166
 21
632.8063970647465
 31
0.0
  0
LINE
  5
26E
330
1F
100
AcDbEntity
  8
C4
 62
     0
100
AcDbLine
 10
1390.636794439166
 20
1025.223704161575
 30
0.0
 11
1390.636794439166
 21
1038.223704161571
 31
0.0
  0
LINE
  5
26F
330
1F
100
AcDbEntity
  8
C4
 62
     0
100
AcDbLine
 10
1392.13678382481
 20
1021.223704161577
 30
0.0
 11
1535.980183516802
 21
1021.22370416154
 31
0.0
  0
LINE
  5
270
330
1F
100
AcDbEntity
  8
C4
 62
     0
100
AcDbLine
 10
1392.136794439159
 20
1023.723704161577
 30
0.0
 11
1535.980183516802
 21
1023.72370416154
 31
0.0
  0
LINE
  5
271
330
1F
100
AcDbEntity
  8
C4
 62
     0
100
AcDbLine
 10
1403.121563954794
 20
947.096258026236
 30
0.0
 11
1401.880221175676
 21
1018.212738212834
 31
0.0
  0
LINE
  5
272
330
1F
100
AcDbEntity
  8
C4
 62
     0
100
AcDbLine
 10
1587.636794439144
 20
930.7237041615874
 30
0.0
 11
1587.63679443914
 21
771.7237041616115
 31
0.0
  0
LINE
  5
273
330
1F
100
AcDbEntity
  8
C4
 62
     0
100
AcDbLine
 10
1585.136794439144
 20
930.7237041615874
 30
0.0
 11
1585.136794439144
 21
771.7237041616115
 31
0.0
  0
LINE
  5
274
330
1F
100
AcDbEntity
  8
C4
 62
     0
100
AcDbLine
 10
1580.39926334442
 20
760.7237041616147
 30
0.0
 11
1585.136794439144
 21
760.7237041616147
 31
0.0
  0
LINE
  5
275
330
1F
100
AcDbEntity
  8
C4
 62
     0
100
AcDbLine
 10
1585.136794439144
 20
771.7237041616111
 30
0.0
 11
1587.636794439144
 21
771.7237041616111
 31
0.0
  0
LINE
  5
276
330
1F
100
AcDbEntity
  8
C4
 62
     0
100
AcDbLine
 10
1585.136794439144
 20
771.7237041616111
 30
0.0
 11
1585.136794439144
 21
760.7237041616147
 31
0.0
  0
LINE
  5
277
330
1F
100
AcDbEntity
  8
C4
 62
     0
100
AcDbLine
 10
1587.636794439144
 20
760.7237041616147
 30
0.0
 11
1587.636794439144
 21
771.7237041616111
 31
0.0
  0
LINE
  5
278
330
1F
100
AcDbEntity
  8
C4
 62
     0
100
AcDbLine
 10
1403.136794439166
 20
945.35101738251
 30
0.0
 11
1403.136794439166
 21
829.641011258492
 31
0.0
  0
LINE
  5
279
330
1F
100
AcDbEntity
  8
C4
 62
     0
100
AcDbLine
 10
1388.136794439166
 20
1038.223704161571
 30
0.0
 11
1390.636794439166
 21
1038.223704161571
 31
0.0
  0
LINE
  5
27A
330
1F
100
AcDbEntity
  8
C4
 62
     0
100
AcDbLine
 10
1388.136794439166
 20
484.2237041616547
 30
0.0
 11
1390.636794439166
 21
484.2237041616547
 31
0.0
  0
LINE
  5
27B
330
1F
100
AcDbEntity
  8
C4
 62
     0
100
AcDbLine
 10
1580.39926334442
 20
758.2237041616147
 30
0.0
 11
1585.136794439144
 21
758.2237041616147
 31
0.0
  0
LINE
  5
27C
330
1F
100
AcDbEntity
  8
C4
 62
     0
100
AcDbLine
 10
1575.154389017784
 20
917.5708887418216
 30
0.0
 11
1578.136794439137
 21
851.2237041616002
 31
0.0
  0
LINE
  5
27D
330
1F
100
AcDbEntity
  8
C4
 62
     0
100
AcDbLine
 10
1577.911670368898
 20
758.4724634591687
 30
0.0
 11
1576.13679443913
 21
740.7237041616165
 31
0.0
  0
LINE
  5
27E
330
1F
100
AcDbEntity
  8
C4
 62
     0
100
AcDbLine
 10
1580.39926334442
 20
758.2237041616147
 30
0.0
 11
1578.069589297824
 21
734.9269636956244
 31
0.0
  0
LINE
  5
27F
330
1F
100
AcDbEntity
  8
C4
 62
     0
100
AcDbLine
 10
1570.830795857872
 20
731.2237041616183
 30
0.0
 11
1575.898458764166
 21
736.2913670679093
 31
0.0
  0
LINE
  5
280
330
1F
100
AcDbEntity
  8
C4
 62
     0
100
AcDbLine
 10
1573.296394164257
 20
730.1537685620581
 30
0.0
 11
1578.069589297824
 21
734.9269636956244
 31
0.0
  0
LINE
  5
281
330
1F
100
AcDbEntity
  8
C4
 62
     0
100
AcDbLine
 10
1580.39926334442
 20
941.7237041615856
 30
0.0
 11
1585.136794439144
 21
941.7237041615856
 31
0.0
  0
LINE
  5
282
330
1F
100
AcDbEntity
  8
C4
 62
     0
100
AcDbLine
 10
1585.136794439144
 20
930.7237041615874
 30
0.0
 11
1587.636794439144
 21
930.7237041615874
 31
0.0
  0
LINE
  5
283
330
1F
100
AcDbEntity
  8
C4
 62
     0
100
AcDbLine
 10
1585.136794439144
 20
930.7237041615874
 30
0.0
 11
1585.136794439144
 21
941.7237041615856
 31
0.0
  0
LINE
  5
284
330
1F
100
AcDbEntity
  8
C4
 62
     0
100
AcDbLine
 10
1587.636794439144
 20
941.7237041615856
 30
0.0
 11
1587.636794439144
 21
930.7237041615874
 31
0.0
  0
LINE
  5
285
330
1F
100
AcDbEntity
  8
C4
 62
     0
100
AcDbLine
 10
1580.39926334442
 20
944.2237041615856
 30
0.0
 11
1585.136794439144
 21
944.2237041615856
 31
0.0
  0
LINE
  5
286
330
1F
100
AcDbEntity
  8
C4
 62
     0
100
AcDbLine
 10
1576.13679443913
 20
961.7237041615801
 30
0.0
 11
1577.911670368898
 21
943.9749448640334
 31
0.0
  0
LINE
  5
287
330
1F
100
AcDbEntity
  8
C4
 62
     0
100
AcDbLine
 10
1578.601101672006
 20
962.2053208856262
 30
0.0
 11
1580.39926334442
 21
944.2237041615856
 31
0.0
  0
LINE
  5
288
330
1F
100
AcDbEntity
  8
C4
 62
     0
100
AcDbLine
 10
965.636781265761
 20
266.9237041616896
 30
0.0
 11
131.636781265892
 21
266.9237041616896
 31
0.0
  0
LINE
  5
289
330
1F
100
AcDbEntity
  8
C4
 62
     0
100
AcDbLine
 10
628.1367812658119
 20
67.4237041617223
 30
0.0
 11
469.136781265841
 21
67.4237041617223
 31
0.0
  0
LINE
  5
28A
330
1F
100
AcDbEntity
  8
C4
 62
     0
100
AcDbLine
 10
422.2871455290098
 20
76.92370416171866
 30
0.0
 11
640.5731862053455
 21
76.92370416171912
 31
0.0
  0
LINE
  5
28B
330
1F
100
AcDbEntity
  8
C4
 62
     0
100
AcDbLine
 10
628.1367812658119
 20
69.9237041617223
 30
0.0
 11
469.136781265841
 21
69.92370416172184
 31
0.0
  0
LINE
  5
28C
330
1F
100
AcDbEntity
  8
C4
 62
     0
100
AcDbLine
 10
952.6367812657683
 20
264.4237041616914
 30
0.0
 11
965.636781265761
 21
264.4237041616914
 31
0.0
  0
LINE
  5
28D
330
1F
100
AcDbEntity
  8
C4
 62
     0
100
AcDbLine
 10
948.6367812657755
 20
124.6209173210925
 30
0.0
 11
948.6367812657755
 21
262.9237147760493
 31
0.0
  0
LINE
  5
28E
330
1F
100
AcDbEntity
  8
C4
 62
     0
100
AcDbLine
 10
951.1367812657755
 20
124.7825602740202
 30
0.0
 11
951.1367812657755
 21
262.9237041616914
 31
0.0
  0
LINE
  5
28F
330
1F
100
AcDbEntity
  8
C4
 62
     0
100
AcDbLine
 10
639.1367812658119
 20
74.66123525644139
 30
0.0
 11
639.1367812658119
 21
69.9237041617223
 31
0.0
  0
LINE
  5
290
330
1F
100
AcDbEntity
  8
C4
 62
     0
100
AcDbLine
 10
628.1367812658119
 20
69.9237041617223
 30
0.0
 11
628.1367812658119
 21
67.4237041617223
 31
0.0
  0
LINE
  5
291
330
1F
100
AcDbEntity
  8
C4
 62
     0
100
AcDbLine
 10
628.1367812658119
 20
69.9237041617223
 30
0.0
 11
639.1367812658119
 21
69.9237041617223
 31
0.0
  0
LINE
  5
292
330
1F
100
AcDbEntity
  8
C4
 62
     0
100
AcDbLine
 10
639.1367812658119
 20
67.4237041617223
 30
0.0
 11
628.1367812658119
 21
67.4237041617223
 31
0.0
  0
LINE
  5
293
330
1F
100
AcDbEntity
  8
C4
 62
     0
100
AcDbLine
 10
945.636781265761
 20
251.9237041616932
 30
0.0
 11
598.6367812658265
 21
251.9237041616932
 31
0.0
  0
LINE
  5
294
330
1F
100
AcDbEntity
  8
C4
 62
     0
100
AcDbLine
 10
965.636781265761
 20
266.9237041616896
 30
0.0
 11
965.636781265761
 21
264.4237041616914
 31
0.0
  0
LINE
  5
295
330
1F
100
AcDbEntity
  8
C4
 62
     0
100
AcDbLine
 10
945.636781265761
 20
253.9237041616932
 30
0.0
 11
598.6367812658265
 21
253.9237041616932
 31
0.0
  0
LINE
  5
296
330
1F
100
AcDbEntity
  8
C4
 62
     0
100
AcDbLine
 10
641.6367812658119
 20
69.9237041617223
 30
0.0
 11
641.6367812658119
 21
74.66123525644139
 31
0.0
  0
LINE
  5
297
330
1F
100
AcDbEntity
  8
C4
 62
     0
100
AcDbLine
 10
641.3880219682743
 20
77.1488282319649
 30
0.0
 11
659.1367812658119
 21
78.92370416171866
 31
0.0
  0
LINE
  5
298
330
1F
100
AcDbEntity
  8
C4
 62
     0
100
AcDbLine
 10
641.6367812658119
 20
74.66123525644139
 30
0.0
 11
659.3855405633641
 21
76.43611118619515
 31
0.0
  0
LINE
  5
299
330
1F
100
AcDbEntity
  8
C4
 62
     0
100
AcDbLine
 10
801.5063381795172
 20
85.43422621519562
 30
0.0
 11
804.7137328116715
 21
88.12518329082809
 31
0.0
  0
LINE
  5
29A
330
1F
100
AcDbEntity
  8
C4
 62
     0
100
AcDbLine
 10
802.4822775893682
 20
82.98969050456503
 30
0.0
 11
805.6721133796437
 21
85.66591596928333
 31
0.0
  0
LINE
  5
29B
330
1F
100
AcDbEntity
  8
C4
 62
     0
100
AcDbLine
 10
144.6367812658992
 20
264.4237041616914
 30
0.0
 11
131.636781265892
 21
264.4237041616914
 31
0.0
  0
LINE
  5
29C
330
1F
100
AcDbEntity
  8
C4
 62
     0
100
AcDbLine
 10
148.636781265892
 20
124.6209173210925
 30
0.0
 11
148.636781265892
 21
262.9237147760493
 31
0.0
  0
LINE
  5
29D
330
1F
100
AcDbEntity
  8
C4
 62
     0
100
AcDbLine
 10
146.136781265892
 20
124.7825602740202
 30
0.0
 11
146.136781265892
 21
262.9237041616914
 31
0.0
  0
LINE
  5
29E
330
1F
100
AcDbEntity
  8
C4
 62
     0
100
AcDbLine
 10
458.1367812658337
 20
74.66123525644139
 30
0.0
 11
458.1367812658337
 21
69.9237041617223
 31
0.0
  0
LINE
  5
29F
330
1F
100
AcDbEntity
  8
C4
 62
     0
100
AcDbLine
 10
469.136781265841
 20
69.9237041617223
 30
0.0
 11
469.136781265841
 21
67.4237041617223
 31
0.0
  0
LINE
  5
2A0
330
1F
100
AcDbEntity
  8
C4
 62
     0
100
AcDbLine
 10
469.136781265841
 20
69.9237041617223
 30
0.0
 11
458.1367812658337
 21
69.9237041617223
 31
0.0
  0
LINE
  5
2A1
330
1F
100
AcDbEntity
  8
C4
 62
     0
100
AcDbLine
 10
458.1367812658337
 20
67.4237041617223
 30
0.0
 11
469.136781265841
 21
67.4237041617223
 31
0.0
  0
LINE
  5
2A2
330
1F
100
AcDbEntity
  8
C4
 62
     0
100
AcDbLine
 10
151.6367812658847
 20
251.9237041616932
 30
0.0
 11
498.636781265841
 21
251.9237041616932
 31
0.0
  0
LINE
  5
2A3
330
1F
100
AcDbEntity
  8
C4
 62
     0
100
AcDbLine
 10
131.636781265892
 20
266.9237041616896
 30
0.0
 11
131.636781265892
 21
264.4237041616914
 31
0.0
  0
LINE
  5
2A4
330
1F
100
AcDbEntity
  8
C4
 62
     0
100
AcDbLine
 10
151.6367812658847
 20
253.9237041616932
 30
0.0
 11
498.636781265841
 21
253.9237041616932
 31
0.0
  0
LINE
  5
2A5
330
1F
100
AcDbEntity
  8
C4
 62
     0
100
AcDbLine
 10
455.6367812658337
 20
69.9237041617223
 30
0.0
 11
455.6367812658337
 21
74.66123525644139
 31
0.0
  0
LINE
  5
2A6
330
1F
100
AcDbEntity
  8
C4
 62
     0
100
AcDbLine
 10
455.8855405633932
 20
77.1488282319649
 30
0.0
 11
438.136781265841
 21
78.92370416171866
 31
0.0
  0
LINE
  5
2A7
330
1F
100
AcDbEntity
  8
C4
 62
     0
100
AcDbLine
 10
455.6367812658337
 20
74.66123525644139
 30
0.0
 11
437.8880219683034
 21
76.43611118619515
 31
0.0
  0
LINE
  5
2A8
330
1F
100
AcDbEntity
  8
C4
 62
     0
100
AcDbLine
 10
295.7672243521503
 20
85.43422621519562
 30
0.0
 11
292.5598297199959
 21
88.12518329082809
 31
0.0
  0
LINE
  5
2A9
330
1F
100
AcDbEntity
  8
C4
 62
     0
100
AcDbLine
 10
294.7912849422993
 20
82.98969050456503
 30
0.0
 11
291.6014491520237
 21
85.66591596928333
 31
0.0
  0
CIRCLE
  5
2AA
330
1F
100
AcDbEntity
  8
C4
 62
     0
100
AcDbCircle
 10
548.6367812658337
 20
851.2237041616002
 30
0.0
 40
79.49999999998795
  0
CIRCLE
  5
2AB
330
1F
100
AcDbEntity
  8
C4
 62
     0
100
AcDbCircle
 10
678.6367812658119
 20
1006.223704161578
 30
0.0
 40
2.099999999999681
  0
CIRCLE
  5
2AC
330
1F
100
AcDbEntity
  8
C4
 62
     0
100
AcDbCircle
 10
418.6367812658556
 20
1006.223704161578
 30
0.0
 40
2.099999999999681
  0
ARC
  5
2AD
330
1F
100
AcDbEntity
  8
C4
 62
     0
100
AcDbCircle
 10
888.6367812657828
 20
961.2237041615838
 30
0.0
 40
59.99999999999091
100
AcDbArc
 50
0.0
 51
90.0
  0
ARC
  5
2AE
330
1F
100
AcDbEntity
  8
C4
 62
     0
100
AcDbCircle
 10
208.6367812658847
 20
961.2237041615838
 30
0.0
 40
59.99999999999091
100
AcDbArc
 50
90.0
 51
180.0
  0
ARC
  5
2AF
330
1F
100
AcDbEntity
  8
C4
 62
     0
100
AcDbCircle
 10
833.6367812657901
 20
616.2237041616347
 30
0.0
 40
114.9999999999826
100
AcDbArc
 50
270.0
 51
0.0
  0
ARC
  5
2B0
330
1F
100
AcDbEntity
  8
C4
 62
     0
100
AcDbCircle
 10
263.6367812658774
 20
616.2237041616347
 30
0.0
 40
114.9999999999826
100
AcDbArc
 50
180.0
 51
270.0
  0
ARC
  5
2B1
330
1F
100
AcDbEntity
  8
C4
 62
     0
100
AcDbCircle
 10
548.6367812658337
 20
10516.22370416014
 30
0.0
 40
9999.999999998485
100
AcDbArc
 50
268.3545040907426
 51
271.6454959092574
  0
ARC
  5
2B2
330
1F
100
AcDbEntity
  8
C4
 62
     0
100
AcDbCircle
 10
548.6367812658337
 20
-9053.776295836897
 30
0.0
 40
9999.999999998485
100
AcDbArc
 50
88.3545040907427
 51
88.86657674239581
  0
ARC
  5
2B3
330
1F
100
AcDbEntity
  8
C4
 62
     0
100
AcDbCircle
 10
5148.636781265136
 20
741.2237041616165
 30
0.0
 40
4999.999999999242
100
AcDbArc
 50
178.9866796872324
 51
181.2424681999345
  0
ARC
  5
2B4
330
1F
100
AcDbEntity
  8
C4
 62
     0
100
AcDbCircle
 10
-4051.363218733468
 20
741.2237041616183
 30
0.0
 40
4999.999999999242
100
AcDbArc
 50
358.7575318000655
 51
1.013320312767583
  0
ARC
  5
2B5
330
1F
100
AcDbEntity
  8
C4
 62
     0
100
AcDbCircle
 10
264.7853126128304
 20
635.2999951279737
 30
0.0
 40
114.9999999999826
100
AcDbArc
 50
181.2424681999345
 51
268.3545040907426
  0
ARC
  5
2B6
330
1F
100
AcDbEntity
  8
C4
 62
     0
100
AcDbCircle
 10
264.7853126128304
 20
827.147413195263
 30
0.0
 40
114.9999999999826
100
AcDbArc
 50
91.64549590925728
 51
178.7575318000655
  0
ARC
  5
2B7
330
1F
100
AcDbEntity
  8
C4
 62
     0
100
AcDbCircle
 10
832.4882499188371
 20
827.1474131952648
 30
0.0
 40
114.9999999999826
100
AcDbArc
 50
1.242468199934473
 51
88.35450409074272
  0
ARC
  5
2B8
330
1F
100
AcDbEntity
  8
C4
 62
     0
100
AcDbCircle
 10
548.6367812658337
 20
-9053.776295836897
 30
0.0
 40
9999.999999998485
100
AcDbArc
 50
91.13342325760419
 51
91.6454959092573
  0
ARC
  5
2B9
330
1F
100
AcDbEntity
  8
C4
 62
     0
100
AcDbCircle
 10
832.4882499188371
 20
635.2999951279774
 30
0.0
 40
114.9999999999826
100
AcDbArc
 50
271.6454959092574
 51
358.7575318000655
  0
ARC
  5
2BA
330
1F
100
AcDbEntity
  8
C4
 62
     0
100
AcDbCircle
 10
348.8519386462341
 20
1044.247571070356
 30
0.0
 40
99.99999999998485
100
AcDbArc
 50
271.1334232576041
 51
327.9517432982165
  0
ARC
  5
2BB
330
1F
100
AcDbEntity
  8
C4
 62
     0
100
AcDbCircle
 10
748.4216238854334
 20
1044.247571070356
 30
0.0
 40
99.99999999998485
100
AcDbArc
 50
212.0215821538401
 51
268.8665767423959
  0
ARC
  5
2BC
330
1F
100
AcDbEntity
  8
C4
 62
     0
100
AcDbCircle
 10
487.8585808912522
 20
957.2237041615856
 30
0.0
 40
63.99999999999031
100
AcDbArc
 50
90.0
 51
147.9517432982172
  0
ARC
  5
2BD
330
1F
100
AcDbEntity
  8
C4
 62
     0
100
AcDbCircle
 10
609.4149632456448
 20
957.2237094897057
 30
0.0
 40
64.00000478796585
100
AcDbArc
 50
32.04825832373191
 51
89.99999887170976
  0
ARC
  5
2BE
330
1F
100
AcDbEntity
  8
C4
 62
     0
100
AcDbCircle
 10
833.6367812657901
 20
616.2237041616347
 30
0.0
 40
131.99999999998
100
AcDbArc
 50
270.0
 51
0.0
  0
ARC
  5
2BF
330
1F
100
AcDbEntity
  8
C4
 62
     0
100
AcDbCircle
 10
263.6367812658774
 20
616.2237041616347
 30
0.0
 40
131.99999999998
100
AcDbArc
 50
180.0
 51
270.0
  0
ARC
  5
2C0
330
1F
100
AcDbEntity
  8
C4
 62
     0
100
AcDbCircle
 10
208.6367812658847
 20
961.2237041615838
 30
0.0
 40
76.99999999998833
100
AcDbArc
 50
90.0
 51
180.0
  0
ARC
  5
2C1
330
1F
100
AcDbEntity
  8
C4
 62
     0
100
AcDbCircle
 10
888.6367812657828
 20
961.2237041615838
 30
0.0
 40
76.99999999998833
100
AcDbArc
 50
0.0
 51
90.0
  0
ARC
  5
2C2
330
1F
100
AcDbEntity
  8
C4
 62
     0
100
AcDbCircle
 10
548.6367812658337
 20
911.2237041615911
 30
0.0
 40
179.9999999999727
100
AcDbArc
 50
240.0000000000021
 51
299.999999999998
  0
ARC
  5
2C3
330
1F
100
AcDbEntity
  8
C4
 62
     0
100
AcDbCircle
 10
548.6367812658337
 20
911.2237041615911
 30
0.0
 40
174.7162274863059
100
AcDbArc
 50
241.1056721743803
 51
298.8943278256197
  0
ARC
  5
2C4
330
1F
100
AcDbEntity
  8
C4
 62
     0
100
AcDbCircle
 10
1392.136794439159
 20
497.2237041616547
 30
0.0
 40
3.999999999999394
100
AcDbArc
 50
90.0001520394523
 51
179.9997895408358
  0
ARC
  5
2C5
330
1F
100
AcDbEntity
  8
C4
 62
     0
100
AcDbCircle
 10
1392.136794439159
 20
497.2237041616547
 30
0.0
 40
1.499999999999773
100
AcDbArc
 50
90.0001520394523
 51
179.9997895408358
  0
ARC
  5
2C6
330
1F
100
AcDbEntity
  8
C4
 62
     0
100
AcDbCircle
 10
1400.136794439173
 20
504.2237041616511
 30
0.0
 40
2.999999999999545
100
AcDbArc
 50
270.0
 51
0.0
  0
ARC
  5
2C7
330
1F
100
AcDbEntity
  8
C4
 62
     0
100
AcDbCircle
 10
1408.136794439166
 20
511.2237041616511
 30
0.0
 40
4.999999999999242
100
AcDbArc
 50
90.0
 51
180.0
  0
ARC
  5
2C8
330
1F
100
AcDbEntity
  8
C4
 62
     0
100
AcDbCircle
 10
1408.136794439166
 20
511.2237041616511
 30
0.0
 40
2.499999999999621
100
AcDbArc
 50
90.0
 51
180.0
  0
ARC
  5
2C9
330
1F
100
AcDbEntity
  8
C4
 62
     0
100
AcDbCircle
 10
1400.136794439173
 20
504.2237041616511
 30
0.0
 40
5.499999999999167
100
AcDbArc
 50
270.0
 51
0.0
  0
ARC
  5
2CA
330
1F
100
AcDbEntity
  8
C4
 62
     0
100
AcDbCircle
 10
1392.136794439159
 20
1025.223704161575
 30
0.0
 40
3.999999999999394
100
AcDbArc
 50
180.0002104591121
 51
269.9998479605477
  0
ARC
  5
2CB
330
1F
100
AcDbEntity
  8
C4
 62
     0
100
AcDbCircle
 10
1392.136794439159
 20
1025.223704161575
 30
0.0
 40
1.499999999999773
100
AcDbArc
 50
180.0002104591121
 51
269.9998479605477
  0
ARC
  5
2CC
330
1F
100
AcDbEntity
  8
C4
 62
     0
100
AcDbCircle
 10
1398.880678090214
 20
1018.160380993523
 30
0.0
 40
2.999999999999545
100
AcDbArc
 50
0.9999999999758622
 51
91.0000000000801
  0
ARC
  5
2CD
330
1F
100
AcDbEntity
  8
C4
 62
     0
100
AcDbCircle
 10
1585.136794439144
 20
760.7237041616147
 30
0.0
 40
2.499999999999621
100
AcDbArc
 50
270.0
 51
0.0
  0
ARC
  5
2CE
330
1F
100
AcDbEntity
  8
C4
 62
     0
100
AcDbCircle
 10
1545.184652720875
 20
916.2237041615892
 30
0.0
 40
29.99999999999545
100
AcDbArc
 50
2.573798554792355
 51
90.0
  0
ARC
  5
2CF
330
1F
100
AcDbEntity
  8
C4
 62
     0
100
AcDbCircle
 10
1303.13679443918
 20
945.35101738251
 30
0.0
 40
99.99999999998485
100
AcDbArc
 50
0.0
 51
0.9999999999773631
  0
ARC
  5
2D0
330
1F
100
AcDbEntity
  8
C4
 62
     0
100
AcDbCircle
 10
1406.084886228511
 20
949.2237041615838
 30
0.0
 40
2.999999999999545
100
AcDbArc
 50
180.999999999978
 51
270.0
  0
ARC
  5
2D1
330
1F
100
AcDbEntity
  8
C4
 62
     0
100
AcDbCircle
 10
1580.39926334442
 20
758.2237041616147
 30
0.0
 40
2.499999999999621
100
AcDbArc
 50
90.0
 51
174.2894068624703
  0
ARC
  5
2D2
330
1F
100
AcDbEntity
  8
C4
 62
     0
100
AcDbCircle
 10
-2626.836443739654
 20
871.1870765283213
 30
0.0
 40
4199.999999999363
100
AcDbArc
 50
355.5304732141868
 51
358.0902867748007
  0
ARC
  5
2D3
330
1F
100
AcDbEntity
  8
C4
 62
     0
100
AcDbCircle
 10
-2617.922922737549
 20
964.0241491913596
 30
0.0
 40
4199.999999999363
100
AcDbArc
 50
356.8917787130804
 51
356.9523313561693
  0
ARC
  5
2D4
330
1F
100
AcDbEntity
  8
C4
 62
     0
100
AcDbCircle
 10
-2626.836443739654
 20
871.1870765283213
 30
0.0
 40
4202.499999999362
100
AcDbArc
 50
355.5304732141868
 51
358.0768278736697
  0
ARC
  5
2D5
330
1F
100
AcDbEntity
  8
C4
 62
     0
100
AcDbCircle
 10
1530.482260258721
 20
546.2237041616456
 30
0.0
 40
29.99999999999545
100
AcDbArc
 50
270.0
 51
355.5304732141868
  0
ARC
  5
2D6
330
1F
100
AcDbEntity
  8
C4
 62
     0
100
AcDbCircle
 10
1530.482260258721
 20
546.2237041616456
 30
0.0
 40
32.49999999999507
100
AcDbArc
 50
270.0
 51
355.5304732141869
  0
ARC
  5
2D7
330
1F
100
AcDbEntity
  8
C4
 62
     0
100
AcDbCircle
 10
1585.136794439144
 20
941.7237041615856
 30
0.0
 40
2.499999999999621
100
AcDbArc
 50
0.0
 51
90.0
  0
ARC
  5
2D8
330
1F
100
AcDbEntity
  8
C4
 62
     0
100
AcDbCircle
 10
1580.39926334442
 20
944.2237041615856
 30
0.0
 40
2.499999999999621
100
AcDbArc
 50
185.7105931375297
 51
270.0
  0
ARC
  5
2D9
330
1F
100
AcDbEntity
  8
C4
 62
     0
100
AcDbCircle
 10
-2452.823428741374
 20
-224.6487162966648
 30
0.0
 40
4199.999999999363
100
AcDbArc
 50
16.4076550295898
 51
16.9523396119061
  0
ARC
  5
2DA
330
1F
100
AcDbEntity
  8
C4
 62
     0
100
AcDbCircle
 10
1535.980183516802
 20
991.2237041615438
 30
0.0
 40
29.99999999999545
100
AcDbArc
 50
16.95233961190584
 51
90.0
  0
ARC
  5
2DB
330
1F
100
AcDbEntity
  8
C4
 62
     0
100
AcDbCircle
 10
-2452.823428741374
 20
-224.6487162966648
 30
0.0
 40
4202.499999999362
100
AcDbArc
 50
16.40446352929869
 51
16.9523396119061
  0
ARC
  5
2DC
330
1F
100
AcDbEntity
  8
C4
 62
     0
100
AcDbCircle
 10
1535.980183516802
 20
991.2237041615438
 30
0.0
 40
32.49999999999507
100
AcDbArc
 50
16.95233961190585
 51
90.0
  0
ARC
  5
2DD
330
1F
100
AcDbEntity
  8
C4
 62
     0
100
AcDbCircle
 10
952.6367812657683
 20
262.9237041616914
 30
0.0
 40
3.999999999999394
100
AcDbArc
 50
90.00021045916418
 51
179.9998479604956
  0
ARC
  5
2DE
330
1F
100
AcDbEntity
  8
C4
 62
     0
100
AcDbCircle
 10
952.6367812657683
 20
262.9237041616914
 30
0.0
 40
1.499999999999773
100
AcDbArc
 50
90.00021045916418
 51
179.9998479604956
  0
ARC
  5
2DF
330
1F
100
AcDbEntity
  8
C4
 62
     0
100
AcDbCircle
 10
639.1367812658119
 20
69.9237041617223
 30
0.0
 40
2.499999999999621
100
AcDbArc
 50
270.0000584197119
 51
0.0
  0
ARC
  5
2E0
330
1F
100
AcDbEntity
  8
C4
 62
     0
100
AcDbCircle
 10
945.636781265761
 20
256.9237041616914
 30
0.0
 40
2.999999999999545
100
AcDbArc
 50
270.0
 51
0.0
  0
ARC
  5
2E1
330
1F
100
AcDbEntity
  8
C4
 62
     0
100
AcDbCircle
 10
945.636781265761
 20
254.9237041616932
 30
0.0
 40
2.999999999999545
100
AcDbArc
 50
270.0
 51
0.0
  0
ARC
  5
2E2
330
1F
100
AcDbEntity
  8
C4
 62
     0
100
AcDbCircle
 10
641.6367812658119
 20
74.66123525644139
 30
0.0
 40
2.499999999999621
100
AcDbArc
 50
95.71059313757411
 51
180.0
  0
ARC
  5
2E3
330
1F
100
AcDbEntity
  8
C4
 62
     0
100
AcDbCircle
 10
524.7783613006378
 20
4576.917458601393
 30
0.0
 40
4499.999999999318
100
AcDbArc
 50
271.7109588092172
 51
273.5256345366619
  0
ARC
  5
2E4
330
1F
100
AcDbEntity
  8
C4
 62
     0
100
AcDbCircle
 10
602.1223445335037
 20
4583.562506776653
 30
0.0
 40
4499.999999999318
100
AcDbArc
 50
272.5803458237713
 51
274.0604317695664
  0
ARC
  5
2E5
330
1F
100
AcDbEntity
  8
C4
 62
     0
100
AcDbCircle
 10
602.1223445335037
 20
4583.562506776653
 30
0.0
 40
4502.499999999318
100
AcDbArc
 50
272.5911202536822
 51
274.0604317695664
  0
ARC
  5
2E6
330
1F
100
AcDbEntity
  8
C4
 62
     0
100
AcDbCircle
 10
524.7783613006378
 20
4576.917458601393
 30
0.0
 40
4502.499999999318
100
AcDbArc
 50
271.7109588092172
 51
273.536117219215
  0
ARC
  5
2E7
330
1F
100
AcDbEntity
  8
C4
 62
     0
100
AcDbCircle
 10
918.6367812657755
 20
124.7825602740202
 30
0.0
 40
29.99999999999545
100
AcDbArc
 50
274.0604317695663
 51
0.0
  0
ARC
  5
2E8
330
1F
100
AcDbEntity
  8
C4
 62
     0
100
AcDbCircle
 10
918.6367812657755
 20
124.7825602740202
 30
0.0
 40
32.49999999999507
100
AcDbArc
 50
274.0604317695664
 51
0.0
  0
ARC
  5
2E9
330
1F
100
AcDbEntity
  8
C4
 62
     0
100
AcDbCircle
 10
144.6367812658992
 20
262.9237041616914
 30
0.0
 40
3.999999999999394
100
AcDbArc
 50
0.0001520395044135
 51
89.99978954083582
  0
ARC
  5
2EA
330
1F
100
AcDbEntity
  8
C4
 62
     0
100
AcDbCircle
 10
144.6367812658992
 20
262.9237041616914
 30
0.0
 40
1.499999999999773
100
AcDbArc
 50
0.0001520395044135
 51
89.99978954083582
  0
ARC
  5
2EB
330
1F
100
AcDbEntity
  8
C4
 62
     0
100
AcDbCircle
 10
458.1367812658337
 20
69.9237041617223
 30
0.0
 40
2.499999999999621
100
AcDbArc
 50
180.0
 51
269.9999415802881
  0
ARC
  5
2EC
330
1F
100
AcDbEntity
  8
C4
 62
     0
100
AcDbCircle
 10
151.6367812658847
 20
256.9237041616914
 30
0.0
 40
2.999999999999545
100
AcDbArc
 50
180.0
 51
270.0
  0
ARC
  5
2ED
330
1F
100
AcDbEntity
  8
C4
 62
     0
100
AcDbCircle
 10
151.6367812658847
 20
254.9237041616932
 30
0.0
 40
2.999999999999545
100
AcDbArc
 50
180.0
 51
270.0
  0
ARC
  5
2EE
330
1F
100
AcDbEntity
  8
C4
 62
     0
100
AcDbCircle
 10
455.6367812658337
 20
74.66123525644139
 30
0.0
 40
2.499999999999621
100
AcDbArc
 50
0.0
 51
84.28940686242589
  0
ARC
  5
2EF
330
1F
100
AcDbEntity
  8
C4
 62
     0
100
AcDbCircle
 10
572.4952012310297
 20
4576.917458601393
 30
0.0
 40
4499.999999999318
100
AcDbArc
 50
266.4743654633381
 51
268.2890411907828
  0
ARC
  5
2F0
330
1F
100
AcDbEntity
  8
C4
 62
     0
100
AcDbCircle
 10
495.1512179981638
 20
4583.562506776653
 30
0.0
 40
4499.999999999318
100
AcDbArc
 50
265.9395682304336
 51
267.4196541762287
  0
ARC
  5
2F1
330
1F
100
AcDbEntity
  8
C4
 62
     0
100
AcDbCircle
 10
495.1512179981638
 20
4583.562506776653
 30
0.0
 40
4502.499999999318
100
AcDbArc
 50
265.9395682304336
 51
267.4088797463178
  0
ARC
  5
2F2
330
1F
100
AcDbEntity
  8
C4
 62
     0
100
AcDbCircle
 10
572.4952012310297
 20
4576.917458601393
 30
0.0
 40
4502.499999999318
100
AcDbArc
 50
266.463882780785
 51
268.2890411907828
  0
ARC
  5
2F3
330
1F
100
AcDbEntity
  8
C4
 62
     0
100
AcDbCircle
 10
178.636781265892
 20
124.7825602740202
 30
0.0
 40
29.99999999999545
100
AcDbArc
 50
180.0
 51
265.9395682304336
  0
ARC
  5
2F4
330
1F
100
AcDbEntity
  8
C4
 62
     0
100
AcDbCircle
 10
178.636781265892
 20
124.7825602740202
 30
0.0
 40
32.49999999999507
100
AcDbArc
 50
180.0
 51
265.9395682304336
  0
DIMENSION
  5
2F5
330
1F
100
AcDbEntity
  8
C寸法
 62
     0
370
    13
100
AcDbDimension
  2
*D15
 10
948.6367812657755
 20
351.2237041616875
 30
0.0
 11
548.6367812658337
 21
368.7237041616875
 31
0.0
 70
    32
 71
     5
 42
799.9999999998836
  3
実寸
100
AcDbAlignedDimension
 13
148.6367812658919
 23
668.494359700095
 33
0.0
 14
948.6367812657755
 24
656.5849756124101
 34
0.0
100
AcDbRotatedDimension
1001
ACAD
1000
DSTYLE
1002
{
1070
   340
1005
F3
1070
   144
1040
1.0
1002
}
  0
DIMENSION
  5
2F6
330
1F
100
AcDbEntity
  8
C寸法
 62
     0
370
    13
100
AcDbDimension
  2
*D16
 10
1128.636781265775
 20
76.92370416171903
 30
0.0
 11
1111.136781265775
 21
171.9237041617043
 31
0.0
 70
    32
 71
     5
 42
189.9999999999705
  3
実寸
100
AcDbAlignedDimension
 13
978.6367812657755
 23
266.9237041616896
 33
0.0
 14
616.117001224835
 24
76.92370416171906
 34
0.0
 50
90.0
100
AcDbRotatedDimension
1001
ACAD
1000
DSTYLE
1002
{
1070
   340
1005
F3
1070
   144
1040
1.0
1002
}
  0
DIMENSION
  5
2F7
330
1F
100
AcDbEntity
  8
C寸法
 62
     0
370
    13
100
AcDbDimension
  2
*D17
 10
1228.636781265775
 20
501.2237041616529
 30
0.0
 11
1211.136781265775
 21
761.2237041616147
 31
0.0
 70
    32
 71
     5
 42
519.9999999999236
  3
実寸
100
AcDbAlignedDimension
 13
978.6367812657755
 23
1021.223704161577
 33
0.0
 14
978.6367812657755
 24
501.2237041616529
 34
0.0
 50
90.0
100
AcDbRotatedDimension
1001
ACAD
1000
DSTYLE
1002
{
1070
   340
1005
F3
1070
   144
1040
1.0
1002
}
  0
DIMENSION
  5
2F8
330
1F
100
AcDbEntity
  8
C寸法
 62
     0
370
    13
100
AcDbDimension
  2
*D18
 10
1178.636781265775
 20
516.2237041616529
 30
0.0
 11
1161.136781265775
 21
768.7237041616138
 31
0.0
 70
    32
 71
     5
 42
504.9999999999218
  3
実寸
100
AcDbAlignedDimension
 13
978.6367812657755
 23
1021.223704161575
 33
0.0
 14
978.6367812657755
 24
516.2237041616529
 34
0.0
 50
90.0
100
AcDbRotatedDimension
1001
ACAD
1000
DSTYLE
1002
{
1070
   340
1005
F3
1070
   144
1040
1.0
1002
}
  0
DIMENSION
  5
2F9
330
1F
100
AcDbEntity
  8
C寸法
 62
     0
370
    13
100
AcDbDimension
  2
*D19
 10
1128.636781265775
 20
851.2237041616002
 30
0.0
 11
1111.136781265775
 21
936.2237041615874
 31
0.0
 70
    32
 71
     5
 42
169.9999999999745
  3
実寸
100
AcDbAlignedDimension
 13
888.6367812657828
 23
1021.223704161575
 33
0.0
 14
979.9812844899726
 24
851.2237041616002
 34
0.0
 50
90.0
100
AcDbRotatedDimension
1001
ACAD
1000
DSTYLE
1002
{
1070
   340
1005
F3
1070
   144
1040
1.0
1002
}
  0
DIMENSION
  5
2FA
330
1F
100
AcDbEntity
  8
C寸法
 62
     0
370
    13
100
AcDbDimension
  2
*D20
 10
1178.636781265775
 20
501.2237041616529
 30
0.0
 11
1178.636781265775
 21
427.6783172568909
 31
0.0
 70
   160
 71
     5
 42
15.0
  3
実寸
100
AcDbAlignedDimension
 13
548.6367812658337
 23
516.2237041616529
 33
0.0
 14
548.6367812658337
 24
501.2237041616529
 34
0.0
 50
90.0
100
AcDbRotatedDimension
1001
ACAD
1000
DSTYLE
1002
{
1070
   340
1005
F3
1070
   172
1070
     1
1070
   144
1040
1.0
1002
}
  0
LINE
  5
2FB
102
{ACAD_REACTORS
330
301
102
}
330
1F
100
AcDbEntity
  8
C寸法
  6
CENTER
 62
     7
 48
20.0
370
    13
100
AcDbLine
 10
748.6367812658119
 20
953.7237041615929
 30
0.0
 11
748.6367812658083
 21
1048.223704161598
 31
0.0
  0
LINE
  5
2FC
330
1F
100
AcDbEntity
  8
C寸法
  6
CENTER
 62
     7
 48
20.0
370
    13
100
AcDbLine
 10
783.3376936876737
 20
986.7237041615979
 30
0.0
 11
712.9707697681425
 21
986.7237041615961
 31
0.0
  0
CIRCLE
  5
2FD
330
1F
100
AcDbEntity
  8
C寸法
 62
     7
370
    18
100
AcDbCircle
 10
748.6367812658119
 20
986.7237041615965
 30
0.0
 40
17.99999999999997
  0
CIRCLE
  5
2FE
330
1F
100
AcDbEntity
  8
C寸法
  6
DASHED
 62
     7
370
    13
100
AcDbCircle
 10
348.6367812658265
 20
986.7237041615965
 30
0.0
 40
17.99999999999997
  0
DIMENSION
  5
2FF
102
{ACAD_REACTORS
330
301
102
}
102
{ACAD_XDICTIONARY
360
300
102
}
330
1F
100
AcDbEntity
  8
C寸法
 62
     7
370
    13
100
AcDbDimension
  2
*D21
 10
948.6367812657755
 20
1117.411181113779
 30
0.0
 11
848.6367812657919
 21
1117.411181113779
 31
0.0
 70
   160
 71
     5
 42
199.9999999999673
  3
実寸
100
AcDbAlignedDimension
 13
748.6367812658083
 23
1048.223704161598
 33
0.0
 14
948.6367812657755
 24
938.6982873197331
 34
0.0
100
AcDbRotatedDimension
1001
ACAD
1000
DSTYLE
1002
{
1070
   340
1005
F3
1070
   144
1040
1.0
1070
   172
1070
     1
1002
}
  0
DIMENSION
  5
302
330
1F
100
AcDbEntity
  8
C寸法
 62
     7
370
    13
100
AcDbDimension
  2
*D22
 10
1078.636781265775
 20
986.7237041615979
 30
0.0
 11
1078.636781265775
 21
1114.318942256813
 31
0.0
 70
   160
 71
     5
 42
34.49999999997682
  3
実寸
100
AcDbAlignedDimension
 13
978.6367812657755
 23
1021.223704161575
 33
0.0
 14
785.3300223739722
 24
986.7237041615979
 34
0.0
 50
90.0
100
AcDbRotatedDimension
1001
ACAD
1000
DSTYLE
1002
{
1070
   340
1005
F3
1070
   144
1040
1.0
1070
   172
1070
     1
1002
}
  0
DIMENSION
  5
303
330
1F
100
AcDbEntity
  8
C寸法
 62
     0
370
    13
100
AcDbDimension
  2
*D23
 10
1078.636781265775
 20
251.9237041616931
 30
0.0
 11
1061.136781265775
 21
178.3783172569312
 31
0.0
 70
    32
 71
     5
 42
14.99999999999642
  3
実寸
100
AcDbAlignedDimension
 13
956.7310694952217
 23
266.9237041616896
 33
0.0
 14
937.5267506422898
 24
251.9237041616931
 34
0.0
 50
90.0
100
AcDbRotatedDimension
1001
ACAD
1000
DSTYLE
1002
{
1070
   340
1005
F3
1070
   172
1070
     1
1070
   144
1040
1.0
1002
}
  0
LINE
  5
304
330
1F
100
AcDbEntity
  8
C4
 62
     0
100
AcDbLine
 10
1578.136794439144
 20
759.287299222088
 30
0.0
 11
1578.136794439144
 21
943.1601091011155
 31
0.0
  0
DIMENSION
  5
305
330
1F
100
AcDbEntity
  8
C寸法
 62
     0
370
    13
100
AcDbDimension
  2
*D24
 10
458.3264494950255
 20
691.2523429384398
 30
0.0
 11
562.8130384903162
 21
691.2523429384398
 31
0.0
 70
   160
  1
Φ<>
 71
     5
 42
180.8103317708083
 52
-270.0
  3
実寸
100
AcDbAlignedDimension
 13
639.1367812658337
 23
851.2237041616002
 33
0.0
 14
458.3264494950255
 24
850.977876875731
 34
0.0
 50
180.0
100
AcDbRotatedDimension
1001
ACAD
1000
DSTYLE
1002
{
1070
   271
1070
     0
1070
   340
1005
F3
1070
   144
1040
1.0
1002
}
  0
LINE
  5
397
102
{ACAD_REACTORS
330
39B
102
}
330
1F
100
AcDbEntity
  8
C寸法
  6
CENTER
 62
     7
 48
20.0
370
    13
100
AcDbLine
 10
348.6492501675519
 20
953.7237041615929
 30
0.0
 11
348.6492501675556
 21
1048.223704161598
 31
0.0
  0
LINE
  5
398
330
1F
100
AcDbEntity
  8
C寸法
  6
CENTER
 62
     7
 48
20.0
370
    13
100
AcDbLine
 10
313.9483377456902
 20
986.7237041615979
 30
0.0
 11
384.3152616652213
 21
986.7237041615961
 31
0.0
  0
DIMENSION
  5
399
102
{ACAD_REACTORS
330
39B
102
}
102
{ACAD_XDICTIONARY
360
39A
102
}
330
1F
100
AcDbEntity
  8
C寸法
 62
     7
370
    13
100
AcDbDimension
  2
*D25
 10
148.6492501675883
 20
1113.500314998018
 30
0.0
 11
248.6492501675719
 21
1113.500314998018
 31
0.0
 70
   160
 71
     5
 42
199.9999999999673
 52
-89.99999999999999
  3
実寸
100
AcDbAlignedDimension
 13
348.6492501675556
 23
1048.223704161598
 33
0.0
 14
148.6492501675883
 24
938.6982873197331
 34
0.0
 50
180.0
100
AcDbRotatedDimension
1001
ACAD
1000
DSTYLE
1002
{
1070
   340
1005
F3
1070
   144
1040
1.0
1070
   172
1070
     1
1002
}
  0
DIMENSION
  5
3A8
330
1F
100
AcDbEntity
  8
0
370
    13
100
AcDbDimension
  2
*D26
 10
766.8291561067294
 20
1082.775895360406
 30
0.0
 11
598.7724265354539
 21
1082.775895360406
 31
0.0
 70
   160
  1
Φ<>水栓穴
 71
     5
 42
36.12220576175173
  3
JIS-1
100
AcDbAlignedDimension
 13
730.7069503449777
 23
986.7041931579038
 33
0.0
 14
766.8291561067294
 24
986.8195995660883
 34
0.0
100
AcDbRotatedDimension
1001
ACAD
1000
DSTYLE
1002
{
1070
   271
1070
     0
1070
   140
1040
25.0
1070
   147
1040
5.0
1070
   340
1005
F3
1070
    41
1040
25.0
1070
    42
1040
5.0
1002
}
  0
DIMENSION
  5
3B8
102
{ACAD_XDICTIONARY
360
3B9
102
}
330
1F
100
AcDbEntity
  8
C寸法
 62
     7
370
    13
100
AcDbDimension
  2
*D27
 10
272.351946373936
 20
623.6061065880832
 30
0.0
 11
284.6056851433939
 21
631.2624811434034
 31
0.0
 70
   164
  1
4-<>
 71
     5
 42
114.9999999999826
  3
JIS-1
100
AcDbRadialDimension
 15
369.8796636557664
 25
684.5433231457121
 35
0.0
 40
0.0
1001
ACAD_DSTYLE_DIMRADIAL_EXTENSION
1070
   387
1070
     0
1070
   388
1040
3.163277814529977
1070
   390
1040
4.683669658940051
1001
ACAD
1000
DSTYLE
1002
{
1070
   140
1040
25.0
1070
   340
1005
F3
1070
   147
1040
5.0
1070
    41
1040
25.0
1070
   344
1005
90
1070
   173
1070
     1
1002
}
  0
DIMENSION
  5
3C3
102
{ACAD_XDICTIONARY
360
3C4
102
}
330
1F
100
AcDbEntity
  8
C寸法
 62
     7
370
    13
100
AcDbDimension
  2
*D28
 10
293.3874094629517
 20
584.5814175242838
 30
0.0
 11
321.4527195063347
 21
602.1647975500042
 31
0.0
 70
   164
  1
2-<>
 71
     5
 42
114.9999999999825
  3
JIS-1
100
AcDbRadialDimension
 15
390.8407346355305
 25
645.6375344398198
 35
0.0
 40
0.0
1001
ACAD_DSTYLE_DIMRADIAL_EXTENSION
1070
   387
1070
     0
1070
   388
1040
3.141592653589793
1070
   390
1040
4.71238898038469
1001
ACAD
1000
DSTYLE
1002
{
1070
   140
1040
25.0
1070
   340
1005
F3
1070
   147
1040
5.0
1070
    41
1040
25.0
1070
   344
1005
90
1070
   173
1070
     1
1002
}
  0
DIMENSION
  5
3CE
102
{ACAD_XDICTIONARY
360
3CF
102
}
330
1F
100
AcDbEntity
  8
0
370
    13
100
AcDbDimension
  2
*D29
 10
201.7580233012433
 20
952.2813188075498
 30
0.0
 11
301.1378522090416
 21
882.7679464939654
 31
0.0
 70
   164
  1
2-<>
 71
     5
 42
59.99999999999093
  3
JIS-1
100
AcDbRadialDimension
 15
250.9241394984161
 25
917.8910146785513
 35
0.0
 40
0.0
1001
ACAD_DSTYLE_DIMRADIAL_EXTENSION
1070
   387
1070
     0
1070
   388
1040
1.570796326794897
1070
   390
1040
3.141592653589793
1001
ACAD
1000
DSTYLE
1002
{
1070
   140
1040
25.0
1070
   340
1005
F3
1070
   147
1040
5.0
1070
    41
1040
25.0
1070
   344
1005
90
1070
   173
1070
     1
1002
}
  0
ENDSEC
  0
SECTION
  2
OBJECTS
  0
DICTIONARY
  5
C
330
0
100
AcDbDictionary
281
     1
  3
ACAD_COLOR
350
F5
  3
ACAD_DETAILVIEWSTYLE
350
DA
  3
ACAD_GROUP
350
D
  3
ACAD_IMAGE_VARS
350
6A
  3
ACAD_LAYOUT
350
1A
  3
ACAD_MATERIAL
350
97
  3
ACAD_MLEADERSTYLE
350
3F
  3
ACAD_MLINESTYLE
350
17
  3
ACAD_PLOTSETTINGS
350
19
  3
ACAD_PLOTSTYLENAME
350
E
  3
ACAD_SCALELIST
350
40
  3
ACAD_SECTIONVIEWSTYLE
350
DB
  3
ACAD_TABLESTYLE
350
3B
  3
ACDB_RECOMPOSE_DATA
350
3E4
  3
AcDbVariableDictionary
350
3D
  3
APPDATA
350
96
  0
DICTIONARY
  5
24B
330
2
100
AcDbDictionary
280
     1
281
     1
  3
ACAD_LAYERSTATES
360
24C
  0
DICTIONARY
  5
300
330
2FF
100
AcDbDictionary
280
     1
281
     1
  3
ACAD_DIMASSOC
360
301
  0
DICTIONARY
  5
39A
330
399
100
AcDbDictionary
280
     1
281
     1
  3
ACAD_DIMASSOC
360
39B
  0
DICTIONARY
  5
3B9
330
3B8
100
AcDbDictionary
280
     1
281
     1
  0
DICTIONARY
  5
3C4
330
3C3
100
AcDbDictionary
280
     1
281
     1
  0
DICTIONARY
  5
3CF
330
3CE
100
AcDbDictionary
280
     1
281
     1
  0
DICTIONARY
  5
F5
102
{ACAD_REACTORS
330
C
102
}
330
C
100
AcDbDictionary
281
     1
  0
DICTIONARY
  5
DA
102
{ACAD_REACTORS
330
C
102
}
330
C
100
AcDbDictionary
281
     1
  0
DICTIONARY
  5
D
102
{ACAD_REACTORS
330
C
102
}
330
C
100
AcDbDictionary
281
     1
  0
RASTERVARIABLES
  5
6A
102
{ACAD_REACTORS
330
C
102
}
330
C
100
AcDbRasterVariables
 90
        0
 70
     1
 71
     1
 72
     1
  0
DICTIONARY
  5
1A
102
{ACAD_REACTORS
330
C
102
}
330
C
100
AcDbDictionary
281
     1
  3
Model
350
22
  3
Sheet1
350
1E
  3
Sheet2
350
26
  0
DICTIONARY
  5
97
102
{ACAD_REACTORS
330
C
102
}
330
C
100
AcDbDictionary
281
     1
  3
ByBlock
350
99
  3
ByLayer
350
98
  3
Global
350
9A
  0
DICTIONARY
  5
3F
102
{ACAD_REACTORS
330
C
102
}
330
C
100
AcDbDictionary
281
     1
  3
Standard
350
DC
  0
DICTIONARY
  5
17
102
{ACAD_REACTORS
330
C
102
}
330
C
100
AcDbDictionary
281
     1
  3
Standard
350
18
  0
DICTIONARY
  5
19
102
{ACAD_REACTORS
330
C
102
}
330
C
100
AcDbDictionary
281
     1
  0
ACDBDICTIONARYWDFLT
  5
E
102
{ACAD_REACTORS
330
C
102
}
330
C
100
AcDbDictionary
281
     1
  3
Normal
350
F
100
AcDbDictionaryWithDefault
340
F
  0
DICTIONARY
  5
40
102
{ACAD_REACTORS
330
C
102
}
330
C
100
AcDbDictionary
281
     1
  3
A0
350
41
  3
A1
350
42
  3
A2
350
43
  3
A3
350
44
  3
A4
350
45
  3
A5
350
46
  3
A6
350
47
  3
A7
350
48
  3
A8
350
49
  3
A9
350
4A
  3
B0
350
4B
  3
B1
350
4C
  3
B2
350
4D
  3
B3
350
4E
  3
B4
350
4F
  3
B5
350
50
  3
B6
350
51
  3
B7
350
52
  3
B8
350
53
  3
B9
350
54
  3
C0
350
55
  3
C1
350
56
  3
C2
350
57
  3
C3
350
58
  3
C4
350
59
  3
C5
350
5A
  3
C6
350
5B
  3
C7
350
5C
  3
C8
350
5D
  3
C9
350
5E
  3
D0
350
5F
  3
D1
350
60
  3
D2
350
61
  0
DICTIONARY
  5
DB
102
{ACAD_REACTORS
330
C
102
}
330
C
100
AcDbDictionary
281
     1
  0
DICTIONARY
  5
3B
102
{ACAD_REACTORS
330
C
102
}
330
C
100
AcDbDictionary
281
     1
  3
Standard
350
3C
  0
XRECORD
  5
3E4
102
{ACAD_REACTORS
330
C
102
}
330
C
100
AcDbXrecord
280
     1
 90
        1
330
3C
  0
DICTIONARY
  5
3D
102
{ACAD_REACTORS
330
C
102
}
330
C
100
AcDbDictionary
281
     1
  3
CANNOSCALE
350
62
  3
CMLEADERSTYLE
350
3D9
  3
CTABLESTYLE
350
3E
  3
LIGHTSINBLOCKS
350
6F
  3
XCLIPFRAME
350
70
  0
DICTIONARY
  5
96
102
{ACAD_REACTORS
330
C
102
}
330
C
100
AcDbDictionary
281
     1
  0
DICTIONARY
  5
24C
102
{ACAD_REACTORS
330
24B
102
}
330
24B
100
AcDbDictionary
281
     1
  0
DIMASSOC
  5
301
102
{ACAD_REACTORS
330
300
102
}
330
300
100
AcDbDimAssoc
330
2FF
 90
        1
 70
     0
 71
     0
  1
AcDbOsnapPointRef
 72
     1
331
2FB
 73
     2
 91
        0
 40
1.0
 10
0.0
 20
0.0
 30
2.000000000000000E+50
 75
     0
  0
DIMASSOC
  5
39B
102
{ACAD_REACTORS
330
39A
102
}
330
39A
100
AcDbDimAssoc
330
399
 90
        1
 70
     0
 71
     0
  1
AcDbOsnapPointRef
 72
     1
331
397
 73
     2
 91
        0
 40
1.0
 10
0.0
 20
0.0
 30
2.000000000000000E+50
 75
     0
  0
LAYOUT
  5
22
102
{ACAD_REACTORS
330
1A
102
}
330
1A
100
AcDbPlotSettings
  1

  2
none_device
  4
ISO_A3_(420.00_x_297.00_MM)
  6

 40
7.5
 41
20.0
 42
7.5
 43
20.0
 44
420.0
 45
297.0
 46
20.78282828282826
 47
0.0
 48
0.0
 49
0.0
140
0.0
141
0.0
142
1.0
143
1.155642023346303
 70
  1204
 72
     1
 73
     0
 74
     1
  7
monochrome.ctb
 75
     0
 76
     0
 77
     2
 78
   300
147
0.8653198653198654
148
-134.1869158878504
149
0.0
100
AcDbLayout
  1
Model
 70
     1
 71
     0
 10
0.0
 20
0.0
 11
420.0
 21
297.0
 12
0.0
 22
0.0
 32
0.0
 14
3.637261060755463
 24
4.596383379700228
 34
0.0
 15
1803.692920303302
 25
1206.144871287193
 35
0.0
146
0.0
 13
0.0
 23
0.0
 33
0.0
 16
1.0
 26
0.0
 36
0.0
 17
0.0
 27
1.0
 37
0.0
 76
     0
330
1F
331
29
  0
LAYOUT
  5
1E
102
{ACAD_REACTORS
330
1A
102
}
330
1A
100
AcDbPlotSettings
  1

  2
none_device
  4

  6

 40
0.0
 41
0.0
 42
0.0
 43
0.0
 44
0.0
 45
0.0
 46
0.0
 47
0.0
 48
0.0
 49
0.0
140
0.0
141
0.0
142
1.0
143
1.0
 70
   688
 72
     0
 73
     0
 74
     5
  7

 75
    16
 76
     0
 77
     2
 78
   300
147
1.0
148
0.0
149
0.0
100
AcDbLayout
  1
Sheet1
 70
     1
 71
     1
 10
0.0
 20
0.0
 11
420.0
 21
297.0
 12
0.0
 22
0.0
 32
0.0
 14
1.000000000000000E+20
 24
1.000000000000000E+20
 34
1.000000000000000E+20
 15
-1.000000000000000E+20
 25
-1.000000000000000E+20
 35
-1.000000000000000E+20
146
0.0
 13
0.0
 23
0.0
 33
0.0
 16
1.0
 26
0.0
 36
0.0
 17
0.0
 27
1.0
 37
0.0
 76
     0
330
1B
  0
LAYOUT
  5
26
102
{ACAD_REACTORS
330
1A
102
}
330
1A
100
AcDbPlotSettings
  1

  2
none_device
  4

  6

 40
0.0
 41
0.0
 42
0.0
 43
0.0
 44
0.0
 45
0.0
 46
0.0
 47
0.0
 48
0.0
 49
0.0
140
0.0
141
0.0
142
1.0
143
1.0
 70
   688
 72
     0
 73
     0
 74
     5
  7

 75
    16
 76
     0
 77
     2
 78
   300
147
1.0
148
0.0
149
0.0
100
AcDbLayout
  1
Sheet2
 70
     1
 71
     2
 10
0.0
 20
0.0
 11
0.0
 21
0.0
 12
0.0
 22
0.0
 32
0.0
 14
0.0
 24
0.0
 34
0.0
 15
0.0
 25
0.0
 35
0.0
146
0.0
 13
0.0
 23
0.0
 33
0.0
 16
1.0
 26
0.0
 36
0.0
 17
0.0
 27
1.0
 37
0.0
 76
     0
330
23
  0
MATERIAL
  5
99
102
{ACAD_REACTORS
330
97
102
}
330
97
100
AcDbMaterial
  1
ByBlock
  0
MATERIAL
  5
98
102
{ACAD_REACTORS
330
97
102
}
330
97
100
AcDbMaterial
  1
ByLayer
  0
MATERIAL
  5
9A
102
{ACAD_REACTORS
330
97
102
}
330
97
100
AcDbMaterial
  1
Global
  0
MLEADERSTYLE
  5
DC
102
{ACAD_REACTORS
330
3F
102
}
330
3F
100
AcDbMLeaderStyle
170
     2
171
     1
172
     0
 90
        2
 40
0.0
 41
0.0
173
     1
 91
-1056964608
340
14
 92
       -2
290
     1
 42
2.0
291
     1
 43
8.0
  3
Standard
341
0
 44
4.0
300

342
11
174
     1
178
     6
175
     1
176
     0
 93
-1056964608
 45
4.0
292
     0
297
     0
 46
4.0
343
0
 94
-1056964608
 47
1.0
 49
1.0
140
1.0
293
     1
141
0.0
294
     1
177
     0
142
1.0
295
     0
296
     0
143
3.75
1001
ACAD_MLEADERVER
1070
     2
  0
MLINESTYLE
  5
18
102
{ACAD_REACTORS
330
17
102
}
330
17
100
AcDbMlineStyle
  2
Standard
 70
     0
  3

 62
   256
 51
90.0
 52
90.0
 71
     2
 49
0.5
 62
   256
  6
BYLAYER
 49
-0.5
 62
   256
  6
BYLAYER
  0
ACDBPLACEHOLDER
  5
F
102
{ACAD_REACTORS
330
E
102
}
330
E
  0
SCALE
  5
41
102
{ACAD_REACTORS
330
40
102
}
330
40
100
AcDbScale
 70
     0
300
1:1
140
1.0
141
1.0
290
     1
  0
SCALE
  5
42
102
{ACAD_REACTORS
330
40
102
}
330
40
100
AcDbScale
 70
     0
300
1:2
140
1.0
141
2.0
290
     0
  0
SCALE
  5
43
102
{ACAD_REACTORS
330
40
102
}
330
40
100
AcDbScale
 70
     0
300
1:4
140
1.0
141
4.0
290
     0
  0
SCALE
  5
44
102
{ACAD_REACTORS
330
40
102
}
330
40
100
AcDbScale
 70
     0
300
1:5
140
1.0
141
5.0
290
     0
  0
SCALE
  5
45
102
{ACAD_REACTORS
330
40
102
}
330
40
100
AcDbScale
 70
     0
300
1:8
140
1.0
141
8.0
290
     0
  0
SCALE
  5
46
102
{ACAD_REACTORS
330
40
102
}
330
40
100
AcDbScale
 70
     0
300
1:10
140
1.0
141
10.0
290
     0
  0
SCALE
  5
47
102
{ACAD_REACTORS
330
40
102
}
330
40
100
AcDbScale
 70
     0
300
1:16
140
1.0
141
16.0
290
     0
  0
SCALE
  5
48
102
{ACAD_REACTORS
330
40
102
}
330
40
100
AcDbScale
 70
     0
300
1:20
140
1.0
141
20.0
290
     0
  0
SCALE
  5
49
102
{ACAD_REACTORS
330
40
102
}
330
40
100
AcDbScale
 70
     0
300
1:30
140
1.0
141
30.0
290
     0
  0
SCALE
  5
4A
102
{ACAD_REACTORS
330
40
102
}
330
40
100
AcDbScale
 70
     0
300
1:40
140
1.0
141
40.0
290
     0
  0
SCALE
  5
4B
102
{ACAD_REACTORS
330
40
102
}
330
40
100
AcDbScale
 70
     0
300
1:50
140
1.0
141
50.0
290
     0
  0
SCALE
  5
4C
102
{ACAD_REACTORS
330
40
102
}
330
40
100
AcDbScale
 70
     0
300
1:100
140
1.0
141
100.0
290
     0
  0
SCALE
  5
4D
102
{ACAD_REACTORS
330
40
102
}
330
40
100
AcDbScale
 70
     0
300
2:1
140
2.0
141
1.0
290
     0
  0
SCALE
  5
4E
102
{ACAD_REACTORS
330
40
102
}
330
40
100
AcDbScale
 70
     0
300
4:1
140
4.0
141
1.0
290
     0
  0
SCALE
  5
4F
102
{ACAD_REACTORS
330
40
102
}
330
40
100
AcDbScale
 70
     0
300
8:1
140
8.0
141
1.0
290
     0
  0
SCALE
  5
50
102
{ACAD_REACTORS
330
40
102
}
330
40
100
AcDbScale
 70
     0
300
10:1
140
10.0
141
1.0
290
     0
  0
SCALE
  5
51
102
{ACAD_REACTORS
330
40
102
}
330
40
100
AcDbScale
 70
     0
300
100:1
140
100.0
141
1.0
290
     0
  0
SCALE
  5
52
102
{ACAD_REACTORS
330
40
102
}
330
40
100
AcDbScale
 70
     0
300
1/128" = 1'-0"
140
0.0078125
141
12.0
290
     0
  0
SCALE
  5
53
102
{ACAD_REACTORS
330
40
102
}
330
40
100
AcDbScale
 70
     0
300
1/64" = 1'-0"
140
0.015625
141
12.0
290
     0
  0
SCALE
  5
54
102
{ACAD_REACTORS
330
40
102
}
330
40
100
AcDbScale
 70
     0
300
1/32" = 1'-0"
140
0.03125
141
12.0
290
     0
  0
SCALE
  5
55
102
{ACAD_REACTORS
330
40
102
}
330
40
100
AcDbScale
 70
     0
300
1/16" = 1'-0"
140
0.0625
141
12.0
290
     0
  0
SCALE
  5
56
102
{ACAD_REACTORS
330
40
102
}
330
40
100
AcDbScale
 70
     0
300
3/32" = 1'-0"
140
0.09375
141
12.0
290
     0
  0
SCALE
  5
57
102
{ACAD_REACTORS
330
40
102
}
330
40
100
AcDbScale
 70
     0
300
1/8" = 1'-0"
140
0.125
141
12.0
290
     0
  0
SCALE
  5
58
102
{ACAD_REACTORS
330
40
102
}
330
40
100
AcDbScale
 70
     0
300
3/16" = 1'-0"
140
0.1875
141
12.0
290
     0
  0
SCALE
  5
59
102
{ACAD_REACTORS
330
40
102
}
330
40
100
AcDbScale
 70
     0
300
1/4" = 1'-0"
140
0.25
141
12.0
290
     0
  0
SCALE
  5
5A
102
{ACAD_REACTORS
330
40
102
}
330
40
100
AcDbScale
 70
     0
300
3/8" = 1'-0"
140
0.375
141
12.0
290
     0
  0
SCALE
  5
5B
102
{ACAD_REACTORS
330
40
102
}
330
40
100
AcDbScale
 70
     0
300
1/2" = 1'-0"
140
0.5
141
12.0
290
     0
  0
SCALE
  5
5C
102
{ACAD_REACTORS
330
40
102
}
330
40
100
AcDbScale
 70
     0
300
3/4" = 1'-0"
140
0.75
141
12.0
290
     0
  0
SCALE
  5
5D
102
{ACAD_REACTORS
330
40
102
}
330
40
100
AcDbScale
 70
     0
300
1" = 1'-0"
140
1.0
141
12.0
290
     0
  0
SCALE
  5
5E
102
{ACAD_REACTORS
330
40
102
}
330
40
100
AcDbScale
 70
     0
300
1-1/2" = 1'-0"
140
1.5
141
12.0
290
     0
  0
SCALE
  5
5F
102
{ACAD_REACTORS
330
40
102
}
330
40
100
AcDbScale
 70
     0
300
3" = 1'-0"
140
3.0
141
12.0
290
     0
  0
SCALE
  5
60
102
{ACAD_REACTORS
330
40
102
}
330
40
100
AcDbScale
 70
     0
300
6" = 1'-0"
140
6.0
141
12.0
290
     0
  0
SCALE
  5
61
102
{ACAD_REACTORS
330
40
102
}
330
40
100
AcDbScale
 70
     0
300
1'-0" = 1'-0"
140
12.0
141
12.0
290
     0
  0
TABLESTYLE
  5
3C
102
{ACAD_REACTORS
330
3B
102
}
102
{ACAD_XDICTIONARY
360
3E0
102
}
330
3B
100
AcDbTableStyle
  3
Standard
 70
     0
 71
     0
 40
1.5
 41
1.5
280
     0
281
     0
  7
Standard
140
4.5
170
     2
 62
     0
 63
   257
283
     0
274
    -2
284
     1
 64
     0
275
    -2
285
     1
 65
     0
276
    -2
286
     1
 66
     0
277
    -2
287
     1
 67
     0
278
    -2
288
     1
 68
     0
279
    -2
289
     1
 69
     0
  7
Standard
140
6.0
170
     5
 62
     0
 63
   257
283
     0
274
    -2
284
     1
 64
     0
275
    -2
285
     1
 65
     0
276
    -2
286
     1
 66
     0
277
    -2
287
     1
 67
     0
278
    -2
288
     1
 68
     0
279
    -2
289
     1
 69
     0
  7
Standard
140
4.5
170
     5
 62
     0
 63
   257
283
     0
274
    -2
284
     1
 64
     0
275
    -2
285
     1
 65
     0
276
    -2
286
     1
 66
     0
277
    -2
287
     1
 67
     0
278
    -2
288
     1
 68
     0
279
    -2
289
     1
 69
     0
  0
DICTIONARYVAR
  5
62
102
{ACAD_REACTORS
330
3D
102
}
330
3D
100
DictionaryVariables
280
     0
  1
1:1
  0
DICTIONARYVAR
  5
3D9
102
{ACAD_REACTORS
330
3D
102
}
330
3D
100
DictionaryVariables
280
     0
  1
Standard
  0
DICTIONARYVAR
  5
3E
102
{ACAD_REACTORS
330
3D
102
}
330
3D
100
DictionaryVariables
280
     0
  1
Standard
  0
DICTIONARYVAR
  5
6F
102
{ACAD_REACTORS
330
3D
102
}
330
3D
100
DictionaryVariables
280
     0
  1
0
  0
DICTIONARYVAR
  5
70
102
{ACAD_REACTORS
330
3D
102
}
330
3D
100
DictionaryVariables
280
     0
  1
0
  0
DICTIONARY
  5
3E0
330
3C
100
AcDbDictionary
280
     1
281
     1
  3
ACAD_ROUNDTRIP_2008_TABLESTYLE_CELLSTYLEMAP
360
3E2
  3
ACAD_XREC_ROUNDTRIP
360
3E1
  0
CELLSTYLEMAP
  5
3E2
102
{ACAD_REACTORS
330
3E0
102
}
330
3E0
100
AcDbCellStyleMap
 90
        3
300
CELLSTYLE
  1
TABLEFORMAT_BEGIN
 90
        5
170
     1
 91
        0
 92
    32768
 62
   257
 93
        1
300
CONTENTFORMAT
  1
CONTENTFORMAT_BEGIN
 90
        0
 91
        0
 92
      512
 93
        0
300

 40
0.0
140
1.0
 94
        5
 62
     0
340
11
144
6.0
309
CONTENTFORMAT_END
171
     1
301
MARGIN
  1
CELLMARGIN_BEGIN
 40
1.5
 40
1.5
 40
1.5
 40
1.5
 40
0.18
 40
0.18
309
CELLMARGIN_END
 94
        6
 95
        1
302
GRIDFORMAT
  1
GRIDFORMAT_BEGIN
 90
        0
 91
        1
 62
     0
 92
       -2
340
0
 93
        0
 40
0.045
309
GRIDFORMAT_END
 95
        2
302
GRIDFORMAT
  1
GRIDFORMAT_BEGIN
 90
        0
 91
        1
 62
     0
 92
       -2
340
0
 93
        0
 40
0.045
309
GRIDFORMAT_END
 95
        4
302
GRIDFORMAT
  1
GRIDFORMAT_BEGIN
 90
        0
 91
        1
 62
     0
 92
       -2
340
0
 93
        0
 40
0.045
309
GRIDFORMAT_END
 95
        8
302
GRIDFORMAT
  1
GRIDFORMAT_BEGIN
 90
        0
 91
        1
 62
     0
 92
       -2
340
0
 93
        0
 40
0.045
309
GRIDFORMAT_END
 95
       16
302
GRIDFORMAT
  1
GRIDFORMAT_BEGIN
 90
        0
 91
        1
 62
     0
 92
       -2
340
0
 93
        0
 40
0.045
309
GRIDFORMAT_END
 95
       32
302
GRIDFORMAT
  1
GRIDFORMAT_BEGIN
 90
        0
 91
        1
 62
     0
 92
       -2
340
0
 93
        0
 40
0.045
309
GRIDFORMAT_END
309
TABLEFORMAT_END
  1
CELLSTYLE_BEGIN
 90
        1
 91
        1
300
_TITLE
309
CELLSTYLE_END
300
CELLSTYLE
  1
TABLEFORMAT_BEGIN
 90
        5
170
     1
 91
        0
 92
        0
 62
   257
 93
        1
300
CONTENTFORMAT
  1
CONTENTFORMAT_BEGIN
 90
        0
 91
        0
 92
      512
 93
        0
300

 40
0.0
140
1.0
 94
        5
 62
     0
340
11
144
4.5
309
CONTENTFORMAT_END
171
     1
301
MARGIN
  1
CELLMARGIN_BEGIN
 40
1.5
 40
1.5
 40
1.5
 40
1.5
 40
0.18
 40
0.18
309
CELLMARGIN_END
 94
        6
 95
        1
302
GRIDFORMAT
  1
GRIDFORMAT_BEGIN
 90
        0
 91
        1
 62
     0
 92
       -2
340
0
 93
        0
 40
0.045
309
GRIDFORMAT_END
 95
        2
302
GRIDFORMAT
  1
GRIDFORMAT_BEGIN
 90
        0
 91
        1
 62
     0
 92
       -2
340
0
 93
        0
 40
0.045
309
GRIDFORMAT_END
 95
        4
302
GRIDFORMAT
  1
GRIDFORMAT_BEGIN
 90
        0
 91
        1
 62
     0
 92
       -2
340
0
 93
        0
 40
0.045
309
GRIDFORMAT_END
 95
        8
302
GRIDFORMAT
  1
GRIDFORMAT_BEGIN
 90
        0
 91
        1
 62
     0
 92
       -2
340
0
 93
        0
 40
0.045
309
GRIDFORMAT_END
 95
       16
302
GRIDFORMAT
  1
GRIDFORMAT_BEGIN
 90
        0
 91
        1
 62
     0
 92
       -2
340
0
 93
        0
 40
0.045
309
GRIDFORMAT_END
 95
       32
302
GRIDFORMAT
  1
GRIDFORMAT_BEGIN
 90
        0
 91
        1
 62
     0
 92
       -2
340
0
 93
        0
 40
0.045
309
GRIDFORMAT_END
309
TABLEFORMAT_END
  1
CELLSTYLE_BEGIN
 90
        2
 91
        1
300
_HEADER
309
CELLSTYLE_END
300
CELLSTYLE
  1
TABLEFORMAT_BEGIN
 90
        5
170
     1
 91
        0
 92
        0
 62
   257
 93
        1
300
CONTENTFORMAT
  1
CONTENTFORMAT_BEGIN
 90
        0
 91
        0
 92
      512
 93
        0
300

 40
0.0
140
1.0
 94
        2
 62
     0
340
11
144
4.5
309
CONTENTFORMAT_END
171
     1
301
MARGIN
  1
CELLMARGIN_BEGIN
 40
1.5
 40
1.5
 40
1.5
 40
1.5
 40
0.18
 40
0.18
309
CELLMARGIN_END
 94
        6
 95
        1
302
GRIDFORMAT
  1
GRIDFORMAT_BEGIN
 90
        0
 91
        1
 62
     0
 92
       -2
340
0
 93
        0
 40
0.045
309
GRIDFORMAT_END
 95
        2
302
GRIDFORMAT
  1
GRIDFORMAT_BEGIN
 90
        0
 91
        1
 62
     0
 92
       -2
340
0
 93
        0
 40
0.045
309
GRIDFORMAT_END
 95
        4
302
GRIDFORMAT
  1
GRIDFORMAT_BEGIN
 90
        0
 91
        1
 62
     0
 92
       -2
340
0
 93
        0
 40
0.045
309
GRIDFORMAT_END
 95
        8
302
GRIDFORMAT
  1
GRIDFORMAT_BEGIN
 90
        0
 91
        1
 62
     0
 92
       -2
340
0
 93
        0
 40
0.045
309
GRIDFORMAT_END
 95
       16
302
GRIDFORMAT
  1
GRIDFORMAT_BEGIN
 90
        0
 91
        1
 62
     0
 92
       -2
340
0
 93
        0
 40
0.045
309
GRIDFORMAT_END
 95
       32
302
GRIDFORMAT
  1
GRIDFORMAT_BEGIN
 90
        0
 91
        1
 62
     0
 92
       -2
340
0
 93
        0
 40
0.045
309
GRIDFORMAT_END
309
TABLEFORMAT_END
  1
CELLSTYLE_BEGIN
 90
        3
 91
        2
300
_DATA
309
CELLSTYLE_END
  0
XRECORD
  5
3E1
102
{ACAD_REACTORS
330
3E0
102
}
330
3E0
100
AcDbXrecord
280
     1
102
ACAD_ROUNDTRIP_PRE2007_TABLESTYLE
 90
      512
 91
        0
  1

 92
      512
 93
        0
  2

 94
      512
 95
        0
  3

  0
ENDSEC
  0
EOF
