  0
SECTION
  2
HEADER
  9
$ACADVER
  1
AC1032
  9
$ACADMAINTVER
 90
      197
  9
$DWGCODEPAGE
  3
ANSI_932
  9
$LASTSAVEDBY
  1
OA-245
  9
$REQUIREDVERSIONS
160
                 0
  9
$INSBASE
 10
0.0
 20
0.0
 30
0.0
  9
$EXTMIN
 10
85.39088918905418
 20
67.44943299493115
 30
-0.0000000000000058
  9
$EXTMAX
 10
1885.561932100113
 20
1269.06790237106
 30
0.0000000000000104
  9
$LIMMIN
 10
0.0
 20
0.0
  9
$LIMMAX
 10
420.0
 20
297.0
  9
$ORTHOMODE
 70
     0
  9
$REGENMODE
 70
     1
  9
$FILLMODE
 70
     1
  9
$QTEXTMODE
 70
     0
  9
$MIRRTEXT
 70
     0
  9
$LTSCALE
 40
1.0
  9
$ATTMODE
 70
     1
  9
$TEXTSIZE
 40
2.5
  9
$TRACEWID
 40
1.0
  9
$TEXTSTYLE
  7
Standard
  9
$CLAYER
  8
画層1
  9
$CELTYPE
  6
ByLayer
  9
$CECOLOR
 62
   256
  9
$CELTSCALE
 40
1.0
  9
$DISPSILH
 70
     0
  9
$DIMSCALE
 40
1.0
  9
$DIMASZ
 40
2.5
  9
$DIMEXO
 40
0.625
  9
$DIMDLI
 40
3.75
  9
$DIMRND
 40
0.0
  9
$DIMDLE
 40
0.0
  9
$DIMEXE
 40
1.25
  9
$DIMTP
 40
0.0
  9
$DIMTM
 40
0.0
  9
$DIMTXT
 40
2.5
  9
$DIMCEN
 40
2.5
  9
$DIMTSZ
 40
0.0
  9
$DIMTOL
 70
     0
  9
$DIMLIM
 70
     0
  9
$DIMTIH
 70
     0
  9
$DIMTOH
 70
     0
  9
$DIMSE1
 70
     0
  9
$DIMSE2
 70
     0
  9
$DIMTAD
 70
     1
  9
$DIMZIN
 70
     8
  9
$DIMBLK
  1
OPEN
  9
$DIMASO
 70
     1
  9
$DIMSHO
 70
     1
  9
$DIMPOST
  1

  9
$DIMAPOST
  1

  9
$DIMALT
 70
     0
  9
$DIMALTD
 70
     3
  9
$DIMALTF
 40
0.03937007874016
  9
$DIMLFAC
 40
1.0
  9
$DIMTOFL
 70
     1
  9
$DIMTVP
 40
0.0
  9
$DIMTIX
 70
     0
  9
$DIMSOXD
 70
     0
  9
$DIMSAH
 70
     0
  9
$DIMBLK1
  1

  9
$DIMBLK2
  1

  9
$DIMSTYLE
  2
JIS-1
  9
$DIMCLRD
 70
     0
  9
$DIMCLRE
 70
     0
  9
$DIMCLRT
 70
     0
  9
$DIMTFAC
 40
1.0
  9
$DIMGAP
 40
0.625
  9
$DIMJUST
 70
     0
  9
$DIMSD1
 70
     0
  9
$DIMSD2
 70
     0
  9
$DIMTOLJ
 70
     0
  9
$DIMTZIN
 70
     8
  9
$DIMALTZ
 70
     0
  9
$DIMALTTZ
 70
     0
  9
$DIMUPT
 70
     0
  9
$DIMDEC
 70
     2
  9
$DIMTDEC
 70
     2
  9
$DIMALTU
 70
     2
  9
$DIMALTTD
 70
     3
  9
$DIMTXSTY
  7
Standard
  9
$DIMAUNIT
 70
     0
  9
$DIMADEC
 70
     0
  9
$DIMALTRND
 40
0.0
  9
$DIMAZIN
 70
     0
  9
$DIMDSEP
 70
    44
  9
$DIMATFIT
 70
     3
  9
$DIMFRAC
 70
     0
  9
$DIMLDRBLK
  1
OPEN
  9
$DIMLUNIT
 70
     2
  9
$DIMLWD
 70
    -2
  9
$DIMLWE
 70
    -2
  9
$DIMTMOVE
 70
     0
  9
$DIMFXL
 40
1.0
  9
$DIMFXLON
 70
     0
  9
$DIMJOGANG
 40
0.7853981633974483
  9
$DIMTFILL
 70
     0
  9
$DIMTFILLCLR
 70
     0
  9
$DIMARCSYM
 70
     0
  9
$DIMLTYPE
  6

  9
$DIMLTEX1
  6

  9
$DIMLTEX2
  6

  9
$DIMTXTDIRECTION
 70
     0
  9
$LUNITS
 70
     2
  9
$LUPREC
 70
     3
  9
$SKETCHINC
 40
1.0
  9
$FILLETRAD
 40
10.0
  9
$AUNITS
 70
     0
  9
$AUPREC
 70
     0
  9
$MENU
  1
.
  9
$ELEVATION
 40
0.0
  9
$PELEVATION
 40
0.0
  9
$THICKNESS
 40
0.0
  9
$LIMCHECK
 70
     0
  9
$CHAMFERA
 40
10.0
  9
$CHAMFERB
 40
10.0
  9
$CHAMFERC
 40
20.0
  9
$CHAMFERD
 40
0.0
  9
$SKPOLY
 70
     0
  9
$TDCREATE
 40
2455023.012349538
  9
$TDUCREATE
 40
2455022.637359514
  9
$TDUPDATE
 40
2459411.475335648
  9
$TDUUPDATE
 40
2459411.100335648
  9
$TDINDWG
 40
0.0409953241
  9
$TDUSRTIMER
 40
2457240.348485856
  9
$USRTIMER
 70
     1
  9
$ANGBASE
 50
0.0
  9
$ANGDIR
 70
     0
  9
$PDMODE
 70
     0
  9
$PDSIZE
 40
0.0
  9
$PLINEWID
 40
0.0
  9
$SPLFRAME
 70
     0
  9
$SPLINETYPE
 70
     6
  9
$SPLINESEGS
 70
     8
  9
$HANDSEED
  5
1346
  9
$SURFTAB1
 70
     6
  9
$SURFTAB2
 70
     6
  9
$SURFTYPE
 70
     6
  9
$SURFU
 70
     6
  9
$SURFV
 70
     6
  9
$UCSBASE
  2

  9
$UCSNAME
  2

  9
$UCSORG
 10
0.0
 20
0.0
 30
0.0
  9
$UCSXDIR
 10
1.0
 20
0.0
 30
0.0
  9
$UCSYDIR
 10
0.0
 20
1.0
 30
0.0
  9
$UCSORTHOREF
  2

  9
$UCSORTHOVIEW
 70
     0
  9
$UCSORGTOP
 10
0.0
 20
0.0
 30
0.0
  9
$UCSORGBOTTOM
 10
0.0
 20
0.0
 30
0.0
  9
$UCSORGLEFT
 10
0.0
 20
0.0
 30
0.0
  9
$UCSORGRIGHT
 10
0.0
 20
0.0
 30
0.0
  9
$UCSORGFRONT
 10
0.0
 20
0.0
 30
0.0
  9
$UCSORGBACK
 10
0.0
 20
0.0
 30
0.0
  9
$PUCSBASE
  2

  9
$PUCSNAME
  2

  9
$PUCSORG
 10
0.0
 20
0.0
 30
0.0
  9
$PUCSXDIR
 10
1.0
 20
0.0
 30
0.0
  9
$PUCSYDIR
 10
0.0
 20
1.0
 30
0.0
  9
$PUCSORTHOREF
  2

  9
$PUCSORTHOVIEW
 70
     0
  9
$PUCSORGTOP
 10
0.0
 20
0.0
 30
0.0
  9
$PUCSORGBOTTOM
 10
0.0
 20
0.0
 30
0.0
  9
$PUCSORGLEFT
 10
0.0
 20
0.0
 30
0.0
  9
$PUCSORGRIGHT
 10
0.0
 20
0.0
 30
0.0
  9
$PUCSORGFRONT
 10
0.0
 20
0.0
 30
0.0
  9
$PUCSORGBACK
 10
0.0
 20
0.0
 30
0.0
  9
$USERI1
 70
     0
  9
$USERI2
 70
     0
  9
$USERI3
 70
     0
  9
$USERI4
 70
     0
  9
$USERI5
 70
     0
  9
$USERR1
 40
0.0
  9
$USERR2
 40
0.0
  9
$USERR3
 40
0.0
  9
$USERR4
 40
0.0
  9
$USERR5
 40
0.0
  9
$WORLDVIEW
 70
     1
  9
$SHADEDGE
 70
     3
  9
$SHADEDIF
 70
    70
  9
$TILEMODE
 70
     1
  9
$MAXACTVP
 70
    64
  9
$PINSBASE
 10
0.0
 20
0.0
 30
0.0
  9
$PLIMCHECK
 70
     0
  9
$PEXTMIN
 10
1.000000000000000E+20
 20
1.000000000000000E+20
 30
1.000000000000000E+20
  9
$PEXTMAX
 10
-1.000000000000000E+20
 20
-1.000000000000000E+20
 30
-1.000000000000000E+20
  9
$PLIMMIN
 10
0.0
 20
0.0
  9
$PLIMMAX
 10
0.0
 20
0.0
  9
$UNITMODE
 70
     0
  9
$VISRETAIN
 70
     1
  9
$PLINEGEN
 70
     0
  9
$PSLTSCALE
 70
     1
  9
$TREEDEPTH
 70
  3020
  9
$CMLSTYLE
  2
Standard
  9
$CMLJUST
 70
     0
  9
$CMLSCALE
 40
20.0
  9
$PROXYGRAPHICS
 70
     1
  9
$MEASUREMENT
 70
     1
  9
$CELWEIGHT
370
    -1
  9
$ENDCAPS
280
     0
  9
$JOINSTYLE
280
     0
  9
$LWDISPLAY
290
     0
  9
$INSUNITS
 70
     4
  9
$HYPERLINKBASE
  1

  9
$STYLESHEET
  1

  9
$XEDIT
290
     1
  9
$CEPSNTYPE
380
     0
  9
$PSTYLEMODE
290
     0
  9
$FINGERPRINTGUID
  2
{EC6BB858-51AA-46EC-B484-6C9CC7AB3E2E}
  9
$VERSIONGUID
  2
{203869CD-2C7D-7946-8CBE-C47099BB8B59}
  9
$EXTNAMES
290
     1
  9
$PSVPSCALE
 40
0.0
  9
$OLESTARTUP
290
     0
  9
$SORTENTS
280
   127
  9
$INDEXCTL
280
     0
  9
$HIDETEXT
280
     1
  9
$XCLIPFRAME
280
     0
  9
$HALOGAP
280
     0
  9
$OBSCOLOR
 70
   257
  9
$OBSLTYPE
280
     0
  9
$INTERSECTIONDISPLAY
280
     0
  9
$INTERSECTIONCOLOR
 70
   257
  9
$DIMASSOC
280
     2
  9
$PROJECTNAME
  1

  9
$CAMERADISPLAY
290
     0
  9
$LENSLENGTH
 40
50.0
  9
$CAMERAHEIGHT
 40
0.0
  9
$STEPSPERSEC
 40
2.0
  9
$STEPSIZE
 40
6.0
  9
$3DDWFPREC
 40
2.0
  9
$PSOLWIDTH
 40
0.25
  9
$PSOLHEIGHT
 40
4.0
  9
$LOFTANG1
 40
1.570796326794896
  9
$LOFTANG2
 40
1.570796326794896
  9
$LOFTMAG1
 40
0.0
  9
$LOFTMAG2
 40
0.0
  9
$LOFTPARAM
 70
     7
  9
$LOFTNORMALS
280
     1
  9
$LATITUDE
 40
37.795
  9
$LONGITUDE
 40
-122.394
  9
$NORTHDIRECTION
 40
0.0
  9
$TIMEZONE
 70
 -8000
  9
$LIGHTGLYPHDISPLAY
280
     1
  9
$TILEMODELIGHTSYNCH
280
     1
  9
$CMATERIAL
347
98
  9
$SOLIDHIST
280
     0
  9
$SHOWHIST
280
     1
  9
$DWFFRAME
280
     2
  9
$DGNFRAME
280
     0
  9
$REALWORLDSCALE
290
     1
  9
$INTERFERECOLOR
 62
     1
  9
$INTERFEREOBJVS
345
43B
  9
$INTERFEREVPVS
346
438
  9
$CSHADOW
280
     0
  9
$SHADOWPLANELOCATION
 40
0.0
  0
ENDSEC
  0
SECTION
  2
CLASSES
  0
CLASS
  1
ACDBDICTIONARYWDFLT
  2
AcDbDictionaryWithDefault
  3
ObjectDBX Classes
 90
        0
 91
        1
280
     0
281
     0
  0
CLASS
  1
VISUALSTYLE
  2
AcDbVisualStyle
  3
ObjectDBX Classes
 90
     4095
 91
       24
280
     0
281
     0
  0
CLASS
  1
TABLESTYLE
  2
AcDbTableStyle
  3
ObjectDBX Classes
 90
     4095
 91
        1
280
     0
281
     0
  0
CLASS
  1
DICTIONARYVAR
  2
AcDbDictionaryVar
  3
ObjectDBX Classes
 90
        0
 91
       11
280
     0
281
     0
  0
CLASS
  1
SCALE
  2
AcDbScale
  3
ObjectDBX Classes
 90
     1153
 91
       33
280
     0
281
     0
  0
CLASS
  1
CELLSTYLEMAP
  2
AcDbCellStyleMap
  3
ObjectDBX Classes
 90
     1152
 91
        2
280
     0
281
     0
  0
CLASS
  1
RASTERVARIABLES
  2
AcDbRasterVariables
  3
ISM
 90
        0
 91
        1
280
     0
281
     0
  0
CLASS
  1
DIMASSOC
  2
AcDbDimAssoc
  3
"AcDbDimAssoc|Product Desc:     AcDim ARX App For Dimension|Company:          Autodesk, Inc.|WEB Address:      www.autodesk.com"
 90
        0
 91
        1
280
     0
281
     0
  0
CLASS
  1
MATERIAL
  2
AcDbMaterial
  3
ObjectDBX Classes
 90
     1153
 91
        3
280
     0
281
     0
  0
CLASS
  1
SUN
  2
AcDbSun
  3
SCENEOE
 90
     1153
 91
        0
280
     0
281
     0
  0
CLASS
  1
MLEADERSTYLE
  2
AcDbMLeaderStyle
  3
ACDB_MLEADERSTYLE_CLASS
 90
     4095
 91
        1
280
     0
281
     0
  0
CLASS
  1
SORTENTSTABLE
  2
AcDbSortentsTable
  3
ObjectDBX Classes
 90
        0
 91
        3
280
     0
281
     0
  0
CLASS
  1
ACDBSECTIONVIEWSTYLE
  2
AcDbSectionViewStyle
  3
ObjectDBX Classes
 90
     1025
 91
        1
280
     0
281
     0
  0
CLASS
  1
ACDBDETAILVIEWSTYLE
  2
AcDbDetailViewStyle
  3
ObjectDBX Classes
 90
     1025
 91
        1
280
     0
281
     0
  0
CLASS
  1
ACAD_EVALUATION_GRAPH
  2
AcDbEvalGraph
  3
ObjectDBX Classes
 90
     1153
 91
        0
280
     0
281
     0
  0
CLASS
  1
ACAECUSTOBJ
  2
AcAeEditorObj
  3
AcAeEditorObj
 90
     1024
 91
        0
280
     0
281
     0
  0
CLASS
  1
ACDB_DYNAMICBLOCKPURGEPREVENTER_VERSION
  2
AcDbDynamicBlockPurgePreventer
  3
ObjectDBX Classes
 90
     1153
 91
        0
280
     0
281
     0
  0
CLASS
  1
PLOTSETTINGS
  2
AcDbPlotSettings
  3
ObjectDBX Classes
 90
        0
 91
        1
280
     0
281
     0
  0
ENDSEC
  0
SECTION
  2
TABLES
  0
TABLE
  2
VPORT
  5
8
330
0
100
AcDbSymbolTable
 70
     1
  0
VPORT
  5
29
330
8
100
AcDbSymbolTableRecord
100
AcDbViewportTableRecord
  2
*Active
 70
     0
 10
0.0
 20
0.0
 11
1.0
 21
1.0
 12
1119.663326532434
 22
668.2586676829957
 13
0.0
 23
0.0
 14
10.0
 24
10.0
 15
10.0
 25
10.0
 16
0.0
 26
0.0
 36
1.0
 17
-134.1869158878505
 27
0.0
 37
0.0
 40
1210.263206565885
 41
1.979591836734694
 42
50.0
 43
0.0
 44
0.0
 50
0.0
 51
0.0
 71
     0
 72
  1000
 73
     1
 74
     3
 75
     0
 76
     0
 77
     0
 78
     0
281
     0
 65
     1
110
0.0
120
0.0
130
0.0
111
1.0
121
0.0
131
0.0
112
0.0
122
1.0
132
0.0
 79
     0
146
0.0
348
437
 60
     3
 61
     5
292
     1
282
     1
141
0.0
142
0.0
 63
   250
421
  3355443
1001
ACAD_NAV_VCDISPLAY
1070
     3
  0
ENDTAB
  0
TABLE
  2
LTYPE
  5
5
330
0
100
AcDbSymbolTable
 70
     4
  0
LTYPE
  5
14
330
5
100
AcDbSymbolTableRecord
100
AcDbLinetypeTableRecord
  2
ByBlock
 70
     0
  3

 72
    65
 73
     0
 40
0.0
  0
LTYPE
  5
15
330
5
100
AcDbSymbolTableRecord
100
AcDbLinetypeTableRecord
  2
ByLayer
 70
     0
  3

 72
    65
 73
     0
 40
0.0
  0
LTYPE
  5
16
330
5
100
AcDbSymbolTableRecord
100
AcDbLinetypeTableRecord
  2
Continuous
 70
     0
  3
Solid line
 72
    65
 73
     0
 40
0.0
  0
LTYPE
  5
E2
330
5
100
AcDbSymbolTableRecord
100
AcDbLinetypeTableRecord
  2
CENTER
 70
     0
  3
 Center ____ _ ____ _ ____ _ ____ _ ____ _ ____
 72
    65
 73
     4
 40
2.0
 49
1.25
 74
     0
 49
-0.25
 74
     0
 49
0.25
 74
     0
 49
-0.25
 74
     0
  0
LTYPE
  5
5A4
330
5
100
AcDbSymbolTableRecord
100
AcDbLinetypeTableRecord
  2
HIDDENX2
 70
     0
  3
Hidden (2x) ____ ____ ____ ____ ____ ____ ____
 72
    65
 73
     2
 40
19.05
 49
12.7
 74
     0
 49
-6.349999999999997
 74
     0
  0
LTYPE
  5
5A5
330
5
100
AcDbSymbolTableRecord
100
AcDbLinetypeTableRecord
  2
HIDDEN
 70
     0
  3
_ _ _ _ _ _ _ _ _ _ _ _ _ _ _ _ _ _ _ _ _ _ _
 72
    65
 73
     2
 40
0.375
 49
0.25
 74
     0
 49
-0.125
 74
     0
  0
ENDTAB
  0
TABLE
  2
LAYER
  5
2
102
{ACAD_XDICTIONARY
360
260
102
}
330
0
100
AcDbSymbolTable
 70
     7
  0
LAYER
  5
10
102
{ACAD_XDICTIONARY
360
11A0
102
}
330
2
100
AcDbSymbolTableRecord
100
AcDbLayerTableRecord
  2
0
 70
     0
 62
     7
  6
Continuous
370
    -3
390
F
347
9A
348
0
  0
LAYER
  5
7E
330
2
100
AcDbSymbolTableRecord
100
AcDbLayerTableRecord
  2
Defpoints
 70
     0
 62
     7
  6
Continuous
290
     0
370
    -3
390
F
347
9A
348
0
  0
LAYER
  5
DE
102
{ACAD_XDICTIONARY
360
11A2
102
}
330
2
100
AcDbSymbolTableRecord
100
AcDbLayerTableRecord
  2
C2
 70
     0
 62
     1
  6
CENTER
370
    -3
390
F
347
9A
348
0
  0
LAYER
  5
E3
102
{ACAD_XDICTIONARY
360
11A4
102
}
330
2
100
AcDbSymbolTableRecord
100
AcDbLayerTableRecord
  2
C4
 70
     0
 62
     3
  6
Continuous
370
    -3
390
F
347
9A
348
0
  0
LAYER
  5
E4
102
{ACAD_XDICTIONARY
360
11A6
102
}
330
2
100
AcDbSymbolTableRecord
100
AcDbLayerTableRecord
  2
C寸法
 70
     0
 62
     4
  6
Continuous
370
    -3
390
F
347
9A
348
0
  0
LAYER
  5
3E0
102
{ACAD_XDICTIONARY
360
11A8
102
}
330
2
100
AcDbSymbolTableRecord
100
AcDbLayerTableRecord
  2
画層1
 70
     0
 62
     7
  6
Continuous
370
    -3
390
F
347
9A
348
0
1001
AcAecLayerStandard
1000

1000

  0
LAYER
  5
5A6
102
{ACAD_XDICTIONARY
360
11AA
102
}
330
2
100
AcDbSymbolTableRecord
100
AcDbLayerTableRecord
  2
C5
 70
     0
 62
     2
  6
HIDDENX2
370
    -3
390
F
347
9A
348
0
1001
AcAecLayerStandard
1000

1000

  0
ENDTAB
  0
TABLE
  2
STYLE
  5
3
330
0
100
AcDbSymbolTable
 70
     3
  0
STYLE
  5
11
330
3
100
AcDbSymbolTableRecord
100
AcDbTextStyleTableRecord
  2
Standard
 70
     0
 40
0.138
 41
1.0
 50
0.0
 71
     0
 42
2.5
  3
arial.ttf
  4

1001
ACAD
1000
Arial
1071
        0
  0
STYLE
  5
F3
330
3
100
AcDbSymbolTableRecord
100
AcDbTextStyleTableRecord
  2
KANJI
 70
     0
 40
0.0
 41
1.0
 50
0.0
 71
     0
 42
2.5
  3
romans
  4
bigfont
  0
STYLE
  5
5A7
330
3
100
AcDbSymbolTableRecord
100
AcDbTextStyleTableRecord
  2
Standard(txt.shx)
 70
     0
 40
0.0
 41
1.0
 50
0.0
 71
     0
 42
35.0
  3
txt.shx
  4

  0
ENDTAB
  0
TABLE
  2
VIEW
  5
6
330
0
100
AcDbSymbolTable
 70
     0
  0
ENDTAB
  0
TABLE
  2
UCS
  5
7
330
0
100
AcDbSymbolTable
 70
     0
  0
ENDTAB
  0
TABLE
  2
APPID
  5
9
330
0
100
AcDbSymbolTable
 70
    18
  0
APPID
  5
12
330
9
100
AcDbSymbolTableRecord
100
AcDbRegAppTableRecord
  2
ACAD
 70
     0
  0
APPID
  5
EE
330
9
100
AcDbSymbolTableRecord
100
AcDbRegAppTableRecord
  2
ACAD_DSTYLE_DIMBREAK
 70
     0
  0
APPID
  5
EF
330
9
100
AcDbSymbolTableRecord
100
AcDbRegAppTableRecord
  2
ACAD_DSTYLE_DIMJAG
 70
     0
  0
APPID
  5
F0
330
9
100
AcDbSymbolTableRecord
100
AcDbRegAppTableRecord
  2
ACAD_DSTYLE_DIMTALN
 70
     0
  0
APPID
  5
F1
330
9
100
AcDbSymbolTableRecord
100
AcDbRegAppTableRecord
  2
ACAD_NAV_VCDISPLAY
 70
     0
  0
APPID
  5
F2
330
9
100
AcDbSymbolTableRecord
100
AcDbRegAppTableRecord
  2
PLOTTRANSPARENCY
 70
     0
  0
APPID
  5
3B0
330
9
100
AcDbSymbolTableRecord
100
AcDbRegAppTableRecord
  2
ACAD_DSTYLE_DIMRADIAL_EXTENSION
 70
     0
  0
APPID
  5
3E1
330
9
100
AcDbSymbolTableRecord
100
AcDbRegAppTableRecord
  2
AcAecLayerStandard
 70
     0
  0
APPID
  5
42B
330
9
100
AcDbSymbolTableRecord
100
AcDbRegAppTableRecord
  2
ACAD_MLEADERVER
 70
     0
  0
APPID
  5
458
330
9
100
AcDbSymbolTableRecord
100
AcDbRegAppTableRecord
  2
Acad_TC
 70
     0
  0
APPID
  5
5A9
330
9
100
AcDbSymbolTableRecord
100
AcDbRegAppTableRecord
  2
ACAD_PSEXT
 70
     0
  0
APPID
  5
5AA
330
9
100
AcDbSymbolTableRecord
100
AcDbRegAppTableRecord
  2
AcDbBlockRepETag
 70
     0
  0
APPID
  5
5AB
330
9
100
AcDbSymbolTableRecord
100
AcDbRegAppTableRecord
  2
AcDbDynamicBlockGUID
 70
     0
  0
APPID
  5
5AC
330
9
100
AcDbSymbolTableRecord
100
AcDbRegAppTableRecord
  2
ACAD_DSTYLE_DIMTEXT_FILL
 70
     0
  0
APPID
  5
CCE
330
9
100
AcDbSymbolTableRecord
100
AcDbRegAppTableRecord
  2
ACAD_EXEMPT_FROM_CAD_STANDARDS
 70
     0
  0
APPID
  5
CFE
330
9
100
AcDbSymbolTableRecord
100
AcDbRegAppTableRecord
  2
ACAUTHENVIRON
 70
     0
  0
APPID
  5
D01
330
9
100
AcDbSymbolTableRecord
100
AcDbRegAppTableRecord
  2
AcDbDynamicBlockTrueName
 70
     0
  0
APPID
  5
12A5
330
9
100
AcDbSymbolTableRecord
100
AcDbRegAppTableRecord
  2
AcadAnnoMonitorAlertIconDisabled
 70
     0
  0
ENDTAB
  0
TABLE
  2
DIMSTYLE
  5
A
330
0
100
AcDbSymbolTable
 70
     6
100
AcDbDimStyleTable
 71
     1
340
8E
  0
DIMSTYLE
105
27
330
A
100
AcDbSymbolTableRecord
100
AcDbDimStyleTableRecord
  2
ISO-25
 70
     0
 41
2.5
 42
0.625
 43
3.75
 44
1.25
 73
     0
 74
     0
 77
     1
 78
     8
140
2.5
141
2.5
143
0.03937007874016
147
0.625
171
     3
172
     1
271
     2
272
     2
274
     3
278
    44
283
     0
284
     8
340
11
  0
DIMSTYLE
105
72
330
A
100
AcDbSymbolTableRecord
100
AcDbDimStyleTableRecord
  2
GB-1
 70
     0
 41
2.5
 42
0.625
 43
3.75
 44
1.25
 73
     0
 74
     0
 77
     1
 78
     8
140
2.5
141
2.5
143
0.03937007874016
147
0.625
171
     3
172
     1
271
     2
272
     2
274
     3
278
    44
283
     0
284
     8
340
11
341
76
342
76
  0
DIMSTYLE
105
8E
102
{ACAD_REACTORS
330
124A
102
}
330
A
100
AcDbSymbolTableRecord
100
AcDbDimStyleTableRecord
  2
JIS-1
 70
     0
 41
2.5
 42
0.625
 43
3.75
 44
1.25
 73
     0
 74
     0
 77
     1
 78
     8
140
2.5
141
2.5
143
0.03937007874016
147
0.625
171
     3
172
     1
271
     2
272
     2
274
     3
278
    44
283
     0
284
     8
340
11
341
90
342
90
  0
DIMSTYLE
105
E5
102
{ACAD_REACTORS
330
45E
330
6FA
330
6FD
330
6FE
330
70E
330
71E
330
722
330
6A7
330
6A8
330
6A9
330
6AA
330
6AB
330
6AC
330
6AD
330
6AE
330
6B2
330
6B3
330
6B5
102
}
330
A
100
AcDbSymbolTableRecord
100
AcDbDimStyleTableRecord
  2
Standard
 70
     0
340
11
  0
DIMSTYLE
105
E7
330
A
100
AcDbSymbolTableRecord
100
AcDbDimStyleTableRecord
  2
実寸
 70
     0
 41
25.0
 42
10.0
 43
6.0
 44
0.0
 47
5.0
 73
     0
 74
     0
 77
     1
 78
     8
140
25.0
141
0.0
144
5.0
147
5.0
271
     1
272
     1
284
     8
340
11
341
90
342
90
1001
ACAD_DSTYLE_DIMBREAK
1070
   391
1040
0.125
1001
ACAD_DSTYLE_DIMJAG
1070
   388
1040
1.5
1001
ACAD_DSTYLE_DIMTALN
1070
   392
1070
     0
  0
DIMSTYLE
105
5A8
330
A
100
AcDbSymbolTableRecord
100
AcDbDimStyleTableRecord
  2
1-1
 70
     0
 40
10.0
 41
3.0
 42
2.0
 43
1.0
 44
1.0
 48
0.000000001
 69
     1
 73
     0
 74
     0
 77
     1
 78
     8
 79
     2
 90
        2
140
3.0
141
0.0
147
1.0
172
     1
179
     8
271
     8
272
     8
340
5A7
341
90
342
90
1001
ACAD_DSTYLE_DIMJAG
1070
   388
1040
1.5
1001
ACAD_DSTYLE_DIMTALN
1070
   392
1070
     0
1001
ACAD_DSTYLE_DIMTEXT_FILL
1070
   376
1070
     1
1070
   377
1004
1800000001000000000000C1000000000000000000000000
  0
ENDTAB
  0
TABLE
  2
BLOCK_RECORD
  5
1
330
0
100
AcDbSymbolTable
 70
    66
  0
BLOCK_RECORD
  5
1F
330
1
100
AcDbSymbolTableRecord
100
AcDbBlockTableRecord
  2
*Model_Space
340
22
 70
     0
280
     1
281
     0
  0
BLOCK_RECORD
  5
1B
330
1
100
AcDbSymbolTableRecord
100
AcDbBlockTableRecord
  2
*Paper_Space
340
1E
 70
     0
280
     1
281
     0
  0
BLOCK_RECORD
  5
23
330
1
100
AcDbSymbolTableRecord
100
AcDbBlockTableRecord
  2
*Paper_Space0
340
26
 70
     0
280
     1
281
     0
  0
BLOCK_RECORD
  5
76
330
1
100
AcDbSymbolTableRecord
100
AcDbBlockTableRecord
  2
_CLOSED
340
0
 70
     0
280
     1
281
     0
  0
BLOCK_RECORD
  5
90
330
1
100
AcDbSymbolTableRecord
100
AcDbBlockTableRecord
  2
_OPEN
340
0
102
{BLKREFS
331
328
331
329
331
334
331
335
331
340
331
341
331
34C
331
34D
331
4E1
331
4E2
331
4ED
331
4EE
331
4F9
331
4FA
331
50A
331
50B
331
10FC
331
1103
331
1104
331
110D
331
110E
331
1117
331
1118
331
519
331
51A
331
526
331
527
331
532
331
533
331
53E
331
53F
331
54C
331
54D
331
557
331
55F
331
567
331
11E5
331
11E6
331
11F0
331
11F1
331
11F9
331
11FA
331
1206
331
1207
331
1232
331
1233
331
1245
331
4D4
331
4D5
331
358
331
359
331
367
331
368
331
373
331
374
331
382
331
383
331
390
331
391
331
39E
331
39F
331
3AA
331
3AB
331
3CD
331
3CE
331
40F
331
41A
331
91D
331
922
331
591
331
592
331
59D
331
59E
331
12FB
331
12FC
331
130D
331
130E
331
131B
331
131C
331
1323
331
1324
331
12BD
331
1121
331
1122
331
112C
331
112D
331
1135
331
1136
331
108D
331
11CA
331
11CB
331
454
331
404
331
310
331
311
331
31C
331
31D
331
570
331
571
331
57C
331
57D
331
587
331
4BA
331
4BB
331
4C7
331
4C8
102
}
 70
     0
280
     1
281
     0
  0
BLOCK_RECORD
  5
30A
330
1
100
AcDbSymbolTableRecord
100
AcDbBlockTableRecord
  2
*D3
340
0
 70
     0
280
     1
281
     0
  0
BLOCK_RECORD
  5
316
330
1
100
AcDbSymbolTableRecord
100
AcDbBlockTableRecord
  2
*D4
340
0
 70
     0
280
     1
281
     0
  0
BLOCK_RECORD
  5
322
330
1
100
AcDbSymbolTableRecord
100
AcDbBlockTableRecord
  2
*D5
340
0
 70
     0
280
     1
281
     0
  0
BLOCK_RECORD
  5
32E
330
1
100
AcDbSymbolTableRecord
100
AcDbBlockTableRecord
  2
*D6
340
0
 70
     0
280
     1
281
     0
  0
BLOCK_RECORD
  5
33A
330
1
100
AcDbSymbolTableRecord
100
AcDbBlockTableRecord
  2
*D7
340
0
 70
     0
280
     1
281
     0
  0
BLOCK_RECORD
  5
346
330
1
100
AcDbSymbolTableRecord
100
AcDbBlockTableRecord
  2
*D8
340
0
 70
     0
280
     1
281
     0
  0
BLOCK_RECORD
  5
352
330
1
100
AcDbSymbolTableRecord
100
AcDbBlockTableRecord
  2
*D9
340
0
 70
     0
280
     1
281
     0
  0
BLOCK_RECORD
  5
35E
330
1
100
AcDbSymbolTableRecord
100
AcDbBlockTableRecord
  2
*D10
340
0
 70
     0
280
     1
281
     0
  0
BLOCK_RECORD
  5
36D
330
1
100
AcDbSymbolTableRecord
100
AcDbBlockTableRecord
  2
*D11
340
0
 70
     0
280
     1
281
     0
  0
BLOCK_RECORD
  5
379
330
1
100
AcDbSymbolTableRecord
100
AcDbBlockTableRecord
  2
*D12
340
0
 70
     0
280
     1
281
     0
  0
BLOCK_RECORD
  5
388
330
1
100
AcDbSymbolTableRecord
100
AcDbBlockTableRecord
  2
*D13
340
0
 70
     0
280
     1
281
     0
  0
BLOCK_RECORD
  5
396
330
1
100
AcDbSymbolTableRecord
100
AcDbBlockTableRecord
  2
*D14
340
0
 70
     0
280
     1
281
     0
  0
BLOCK_RECORD
  5
3A4
330
1
100
AcDbSymbolTableRecord
100
AcDbBlockTableRecord
  2
*D15
340
0
 70
     0
280
     1
281
     0
  0
BLOCK_RECORD
  5
3C5
330
1
100
AcDbSymbolTableRecord
100
AcDbBlockTableRecord
  2
*D16
340
0
 70
     0
280
     1
281
     0
  0
BLOCK_RECORD
  5
3FF
330
1
100
AcDbSymbolTableRecord
100
AcDbBlockTableRecord
  2
*D17
340
0
 70
     0
280
     1
281
     0
  0
BLOCK_RECORD
  5
40A
330
1
100
AcDbSymbolTableRecord
100
AcDbBlockTableRecord
  2
*D18
340
0
 70
     0
280
     1
281
     0
  0
BLOCK_RECORD
  5
415
330
1
100
AcDbSymbolTableRecord
100
AcDbBlockTableRecord
  2
*D19
340
0
 70
     0
280
     1
281
     0
  0
BLOCK_RECORD
  5
44F
330
1
100
AcDbSymbolTableRecord
100
AcDbBlockTableRecord
  2
*D20
340
0
 70
     0
280
     1
281
     0
  0
BLOCK_RECORD
  5
45F
330
1
100
AcDbSymbolTableRecord
100
AcDbBlockTableRecord
  2
*D21
340
0
 70
     0
280
     1
281
     0
  0
BLOCK_RECORD
  5
46E
102
{ACAD_XDICTIONARY
360
CFC
102
}
330
1
100
AcDbSymbolTableRecord
100
AcDbBlockTableRecord
  2
A$C4E673540
340
0
102
{BLKREFS
331
6B6
102
}
 70
     0
280
     1
281
     0
1001
AcDbBlockRepETag
1070
     1
1071
       19
1001
AcDbDynamicBlockGUID
1000
{083FBC25-18EB-E741-B682-923EBE1BE7DA}
  0
BLOCK_RECORD
  5
486
102
{ACAD_XDICTIONARY
360
D1C
102
}
330
1
100
AcDbSymbolTableRecord
100
AcDbBlockTableRecord
  2
A$C1E474562
340
0
102
{BLKREFS
331
6C7
102
}
 70
     0
280
     1
281
     0
1001
AcDbBlockRepETag
1070
     1
1071
       22
1001
AcDbDynamicBlockGUID
1000
{44C9C096-1591-8446-B50A-9B719B2024EE}
  0
BLOCK_RECORD
  5
4A1
102
{ACAD_XDICTIONARY
360
D32
102
}
330
1
100
AcDbSymbolTableRecord
100
AcDbBlockTableRecord
  2
A$C04E33B21
340
0
102
{BLKREFS
331
70D
102
}
 70
     0
280
     1
281
     0
1001
AcDbBlockRepETag
1070
     1
1071
       14
1001
AcDbDynamicBlockGUID
1000
{7FFDF999-814C-E54D-802F-37F05BC559E4}
  0
BLOCK_RECORD
  5
4B4
330
1
100
AcDbSymbolTableRecord
100
AcDbBlockTableRecord
  2
*D25
340
0
 70
     0
280
     1
281
     0
  0
BLOCK_RECORD
  5
4C1
330
1
100
AcDbSymbolTableRecord
100
AcDbBlockTableRecord
  2
*D26
340
0
 70
     0
280
     1
281
     0
  0
BLOCK_RECORD
  5
4CE
330
1
100
AcDbSymbolTableRecord
100
AcDbBlockTableRecord
  2
*D27
340
0
 70
     0
280
     1
281
     0
  0
BLOCK_RECORD
  5
4DB
330
1
100
AcDbSymbolTableRecord
100
AcDbBlockTableRecord
  2
*D28
340
0
 70
     0
280
     1
281
     0
  0
BLOCK_RECORD
  5
4E8
330
1
100
AcDbSymbolTableRecord
100
AcDbBlockTableRecord
  2
*D29
340
0
 70
     0
280
     1
281
     0
  0
BLOCK_RECORD
  5
4F4
330
1
100
AcDbSymbolTableRecord
100
AcDbBlockTableRecord
  2
*D30
340
0
 70
     0
280
     1
281
     0
  0
BLOCK_RECORD
  5
500
330
1
100
AcDbSymbolTableRecord
100
AcDbBlockTableRecord
  2
*D31
340
0
 70
     0
280
     1
281
     0
  0
BLOCK_RECORD
  5
510
330
1
100
AcDbSymbolTableRecord
100
AcDbBlockTableRecord
  2
*D32
340
0
 70
     0
280
     1
281
     0
  0
BLOCK_RECORD
  5
51F
330
1
100
AcDbSymbolTableRecord
100
AcDbBlockTableRecord
  2
*D33
340
0
 70
     0
280
     1
281
     0
  0
BLOCK_RECORD
  5
52D
330
1
100
AcDbSymbolTableRecord
100
AcDbBlockTableRecord
  2
*D34
340
0
 70
     0
280
     1
281
     0
  0
BLOCK_RECORD
  5
539
330
1
100
AcDbSymbolTableRecord
100
AcDbBlockTableRecord
  2
*D35
340
0
 70
     0
280
     1
281
     0
  0
BLOCK_RECORD
  5
545
330
1
100
AcDbSymbolTableRecord
100
AcDbBlockTableRecord
  2
*D36
340
0
 70
     0
280
     1
281
     0
  0
BLOCK_RECORD
  5
553
330
1
100
AcDbSymbolTableRecord
100
AcDbBlockTableRecord
  2
*D37
340
0
 70
     0
280
     1
281
     0
  0
BLOCK_RECORD
  5
55B
330
1
100
AcDbSymbolTableRecord
100
AcDbBlockTableRecord
  2
*D38
340
0
 70
     0
280
     1
281
     0
  0
BLOCK_RECORD
  5
563
330
1
100
AcDbSymbolTableRecord
100
AcDbBlockTableRecord
  2
*D39
340
0
 70
     0
280
     1
281
     0
  0
BLOCK_RECORD
  5
56B
330
1
100
AcDbSymbolTableRecord
100
AcDbBlockTableRecord
  2
*D40
340
0
 70
     0
280
     1
281
     0
  0
BLOCK_RECORD
  5
577
330
1
100
AcDbSymbolTableRecord
100
AcDbBlockTableRecord
  2
*D41
340
0
 70
     0
280
     1
281
     0
  0
BLOCK_RECORD
  5
583
330
1
100
AcDbSymbolTableRecord
100
AcDbBlockTableRecord
  2
*D42
340
0
 70
     0
280
     1
281
     0
  0
BLOCK_RECORD
  5
58B
330
1
100
AcDbSymbolTableRecord
100
AcDbBlockTableRecord
  2
*D43
340
0
 70
     0
280
     1
281
     0
  0
BLOCK_RECORD
  5
598
330
1
100
AcDbSymbolTableRecord
100
AcDbBlockTableRecord
  2
*D44
340
0
 70
     0
280
     1
281
     0
  0
BLOCK_RECORD
  5
725
330
1
100
AcDbSymbolTableRecord
100
AcDbBlockTableRecord
  2
*D45
340
0
 70
     0
280
     1
281
     0
  0
BLOCK_RECORD
  5
732
330
1
100
AcDbSymbolTableRecord
100
AcDbBlockTableRecord
  2
*D46
340
0
 70
     0
280
     1
281
     0
  0
BLOCK_RECORD
  5
73F
330
1
100
AcDbSymbolTableRecord
100
AcDbBlockTableRecord
  2
*D47
340
0
 70
     0
280
     1
281
     0
  0
BLOCK_RECORD
  5
74C
330
1
100
AcDbSymbolTableRecord
100
AcDbBlockTableRecord
  2
*D48
340
0
 70
     0
280
     1
281
     0
  0
BLOCK_RECORD
  5
759
330
1
100
AcDbSymbolTableRecord
100
AcDbBlockTableRecord
  2
*D49
340
0
 70
     0
280
     1
281
     0
  0
BLOCK_RECORD
  5
766
330
1
100
AcDbSymbolTableRecord
100
AcDbBlockTableRecord
  2
*D50
340
0
 70
     0
280
     1
281
     0
  0
BLOCK_RECORD
  5
772
330
1
100
AcDbSymbolTableRecord
100
AcDbBlockTableRecord
  2
*D51
340
0
 70
     0
280
     1
281
     0
  0
BLOCK_RECORD
  5
77E
330
1
100
AcDbSymbolTableRecord
100
AcDbBlockTableRecord
  2
*D52
340
0
 70
     0
280
     1
281
     0
  0
BLOCK_RECORD
  5
78A
330
1
100
AcDbSymbolTableRecord
100
AcDbBlockTableRecord
  2
*D53
340
0
 70
     0
280
     1
281
     0
  0
BLOCK_RECORD
  5
79A
330
1
100
AcDbSymbolTableRecord
100
AcDbBlockTableRecord
  2
*D54
340
0
 70
     0
280
     1
281
     0
  0
BLOCK_RECORD
  5
7A9
330
1
100
AcDbSymbolTableRecord
100
AcDbBlockTableRecord
  2
*D55
340
0
 70
     0
280
     1
281
     0
  0
BLOCK_RECORD
  5
7B7
330
1
100
AcDbSymbolTableRecord
100
AcDbBlockTableRecord
  2
*D56
340
0
 70
     0
280
     1
281
     0
  0
BLOCK_RECORD
  5
7C3
330
1
100
AcDbSymbolTableRecord
100
AcDbBlockTableRecord
  2
*D57
340
0
 70
     0
280
     1
281
     0
  0
BLOCK_RECORD
  5
7CF
330
1
100
AcDbSymbolTableRecord
100
AcDbBlockTableRecord
  2
*D58
340
0
 70
     0
280
     1
281
     0
  0
BLOCK_RECORD
  5
7DD
330
1
100
AcDbSymbolTableRecord
100
AcDbBlockTableRecord
  2
*D59
340
0
 70
     0
280
     1
281
     0
  0
BLOCK_RECORD
  5
7E5
330
1
100
AcDbSymbolTableRecord
100
AcDbBlockTableRecord
  2
*D60
340
0
 70
     0
280
     1
281
     0
  0
BLOCK_RECORD
  5
7ED
330
1
100
AcDbSymbolTableRecord
100
AcDbBlockTableRecord
  2
*D61
340
0
 70
     0
280
     1
281
     0
  0
BLOCK_RECORD
  5
7F5
330
1
100
AcDbSymbolTableRecord
100
AcDbBlockTableRecord
  2
*D62
340
0
 70
     0
280
     1
281
     0
  0
BLOCK_RECORD
  5
801
330
1
100
AcDbSymbolTableRecord
100
AcDbBlockTableRecord
  2
*D63
340
0
 70
     0
280
     1
281
     0
  0
BLOCK_RECORD
  5
80D
330
1
100
AcDbSymbolTableRecord
100
AcDbBlockTableRecord
  2
*D64
340
0
 70
     0
280
     1
281
     0
  0
BLOCK_RECORD
  5
124B
330
1
100
AcDbSymbolTableRecord
100
AcDbBlockTableRecord
  2
*D65
340
0
 70
     0
280
     1
281
     0
  0
ENDTAB
  0
ENDSEC
  0
SECTION
  2
BLOCKS
  0
BLOCK
  5
20
330
1F
100
AcDbEntity
  8
0
100
AcDbBlockBegin
  2
*Model_Space
 70
     0
 10
0.0
 20
0.0
 30
0.0
  3
*Model_Space
  1
*Model_Space
  0
ENDBLK
  5
21
330
1F
100
AcDbEntity
  8
0
100
AcDbBlockEnd
  0
BLOCK
  5
1C
330
1B
100
AcDbEntity
 67
     1
  8
0
100
AcDbBlockBegin
  2
*Paper_Space
 70
     0
 10
0.0
 20
0.0
 30
0.0
  3
*Paper_Space
  1
*Paper_Space
  0
ENDBLK
  5
1D
330
1B
100
AcDbEntity
 67
     1
  8
0
100
AcDbBlockEnd
  0
BLOCK
  5
24
330
23
100
AcDbEntity
 67
     1
  8
0
100
AcDbBlockBegin
  2
*Paper_Space0
 70
     0
 10
0.0
 20
0.0
 30
0.0
  3
*Paper_Space0
  1
*Paper_Space0
  0
ENDBLK
  5
25
330
23
100
AcDbEntity
 67
     1
  8
0
100
AcDbBlockEnd
  0
BLOCK
  5
77
330
76
100
AcDbEntity
  8
0
100
AcDbBlockBegin
  2
_CLOSED
 70
     0
 10
0.0
 20
0.0
 30
0.0
  3
_CLOSED
  1
_CLOSED
  0
LINE
  5
78
330
76
100
AcDbEntity
  8
0
  6
ByBlock
 62
     0
370
    -2
100
AcDbLine
 10
-1.0
 20
0.166667
 30
0.0
 11
0.0
 21
0.0
 31
0.0
  0
LINE
  5
79
330
76
100
AcDbEntity
  8
0
  6
ByBlock
 62
     0
370
    -2
100
AcDbLine
 10
0.0
 20
0.0
 30
0.0
 11
-1.0
 21
-0.166667
 31
0.0
  0
LINE
  5
7A
330
76
100
AcDbEntity
  8
0
  6
ByBlock
 62
     0
370
    -2
100
AcDbLine
 10
-1.0
 20
0.166667
 30
0.0
 11
-1.0
 21
-0.166667
 31
0.0
  0
LINE
  5
7B
330
76
100
AcDbEntity
  8
0
  6
ByBlock
 62
     0
370
    -2
100
AcDbLine
 10
0.0
 20
0.0
 30
0.0
 11
-1.0
 21
0.0
 31
0.0
  0
ENDBLK
  5
7C
330
76
100
AcDbEntity
  8
0
100
AcDbBlockEnd
  0
BLOCK
  5
91
330
90
100
AcDbEntity
  8
0
100
AcDbBlockBegin
  2
_OPEN
 70
     0
 10
0.0
 20
0.0
 30
0.0
  3
_OPEN
  1
_OPEN
  0
LINE
  5
92
330
90
100
AcDbEntity
  8
0
  6
ByBlock
 62
     0
370
    -2
100
AcDbLine
 10
-1.0
 20
0.166667
 30
0.0
 11
0.0
 21
0.0
 31
0.0
  0
LINE
  5
93
330
90
100
AcDbEntity
  8
0
  6
ByBlock
 62
     0
370
    -2
100
AcDbLine
 10
-1.0
 20
-0.166667
 30
0.0
 11
0.0
 21
0.0
 31
0.0
  0
LINE
  5
94
330
90
100
AcDbEntity
  8
0
  6
ByBlock
 62
     0
370
    -2
100
AcDbLine
 10
0.0
 20
0.0
 30
0.0
 11
-1.0
 21
0.0
 31
0.0
  0
ENDBLK
  5
95
330
90
100
AcDbEntity
  8
0
100
AcDbBlockEnd
  0
BLOCK
  5
30B
330
30A
100
AcDbEntity
  8
0
100
AcDbBlockBegin
  2
*D3
 70
     1
 10
0.0
 20
0.0
 30
0.0
  3
*D3
  1
*D18
  0
LINE
  5
30D
330
30A
100
AcDbEntity
  8
C寸法
 62
     0
440
 16777216
370
    -2
100
AcDbLine
 10
1017.908754992227
 20
1018.539196567183
 30
0.0
 11
1107.908754992227
 21
1018.539196567183
 31
0.0
  0
LINE
  5
30E
330
30A
100
AcDbEntity
  8
C寸法
 62
     0
440
 16777216
370
    -2
100
AcDbLine
 10
1015.01206799487
 20
888.539196567325
 30
0.0
 11
1107.908754992227
 21
888.539196567325
 31
0.0
  0
LINE
  5
30F
330
30A
100
AcDbEntity
  8
C寸法
 62
     0
440
 16777216
370
    -2
100
AcDbLine
 10
1107.908754992227
 20
993.5391965671833
 30
0.0
 11
1107.908754992227
 21
913.539196567325
 31
0.0
  0
INSERT
  5
310
330
30A
100
AcDbEntity
  8
C寸法
 62
     0
440
 16777216
370
    -2
100
AcDbBlockReference
  2
_OPEN
 10
1107.908754992227
 20
1018.539196567183
 30
0.0
 41
25.0
 42
25.0
 43
25.0
 50
90.0
  0
INSERT
  5
311
330
30A
100
AcDbEntity
  8
C寸法
 62
     0
440
 16777216
370
    -2
100
AcDbBlockReference
  2
_OPEN
 10
1107.908754992227
 20
888.539196567325
 30
0.0
 41
25.0
 42
25.0
 43
25.0
 50
270.0
  0
MTEXT
  5
312
330
30A
100
AcDbEntity
  8
C寸法
 62
     0
440
 16777216
370
    13
100
AcDbMText
 10
1090.408754992227
 20
953.5391965672541
 30
0.0
 40
25.0
 41
0.0
 46
0.0
 71
     5
 72
     1
  1
\A1;130
  7
KANJI
 11
0.0
 21
1.0
 31
0.0
 73
     1
 44
1.0
  0
POINT
  5
313
330
30A
100
AcDbEntity
  8
Defpoints
 62
     0
440
 16777216
100
AcDbPoint
 10
1007.908754992227
 20
1018.539196567183
 30
0.0
  0
POINT
  5
314
330
30A
100
AcDbEntity
  8
Defpoints
 62
     0
440
 16777216
100
AcDbPoint
 10
1005.01206799487
 20
888.539196567325
 30
0.0
  0
POINT
  5
315
330
30A
100
AcDbEntity
  8
Defpoints
 62
     0
440
 16777216
100
AcDbPoint
 10
1107.908754992227
 20
888.539196567325
 30
0.0
  0
ENDBLK
  5
30C
330
30A
100
AcDbEntity
  8
0
100
AcDbBlockEnd
  0
BLOCK
  5
317
330
316
100
AcDbEntity
  8
0
100
AcDbBlockBegin
  2
*D4
 70
     1
 10
0.0
 20
0.0
 30
0.0
  3
*D4
  1
*D19
  0
LINE
  5
319
330
316
100
AcDbEntity
  8
C寸法
 62
     0
440
 16777216
370
    -2
100
AcDbLine
 10
1017.908754992227
 20
1033.539196567325
 30
0.0
 11
1207.908754992227
 21
1033.539196567325
 31
0.0
  0
LINE
  5
31A
330
316
100
AcDbEntity
  8
C寸法
 62
     0
440
 16777216
370
    -2
100
AcDbLine
 10
1017.908754992227
 20
1113.539196567325
 30
0.0
 11
1207.908754992227
 21
1113.539196567325
 31
0.0
  0
LINE
  5
31B
330
316
100
AcDbEntity
  8
C寸法
 62
     0
440
 16777216
370
    -2
100
AcDbLine
 10
1207.908754992227
 20
1058.539196567325
 30
0.0
 11
1207.908754992227
 21
1088.539196567325
 31
0.0
  0
INSERT
  5
31C
330
316
100
AcDbEntity
  8
C寸法
 62
     0
440
 16777216
370
    -2
100
AcDbBlockReference
  2
_OPEN
 10
1207.908754992227
 20
1033.539196567325
 30
0.0
 41
25.0
 42
25.0
 43
25.0
 50
270.0
  0
INSERT
  5
31D
330
316
100
AcDbEntity
  8
C寸法
 62
     0
440
 16777216
370
    -2
100
AcDbBlockReference
  2
_OPEN
 10
1207.908754992227
 20
1113.539196567325
 30
0.0
 41
25.0
 42
25.0
 43
25.0
 50
90.0
  0
MTEXT
  5
31E
330
316
100
AcDbEntity
  8
C寸法
 62
     0
440
 16777216
370
    13
100
AcDbMText
 10
1190.408754992227
 20
1073.539196567325
 30
0.0
 40
25.0
 41
0.0
 46
0.0
 71
     5
 72
     1
  1
\A1;80
  7
KANJI
 11
0.0
 21
1.0
 31
0.0
 73
     1
 44
1.0
  0
POINT
  5
31F
330
316
100
AcDbEntity
  8
Defpoints
 62
     0
440
 16777216
100
AcDbPoint
 10
1007.908754992227
 20
1033.539196567325
 30
0.0
  0
POINT
  5
320
330
316
100
AcDbEntity
  8
Defpoints
 62
     0
440
 16777216
100
AcDbPoint
 10
1007.908754992227
 20
1113.539196567325
 30
0.0
  0
POINT
  5
321
330
316
100
AcDbEntity
  8
Defpoints
 62
     0
440
 16777216
100
AcDbPoint
 10
1207.908754992227
 20
1113.539196567325
 30
0.0
  0
ENDBLK
  5
318
330
316
100
AcDbEntity
  8
0
100
AcDbBlockEnd
  0
BLOCK
  5
323
330
322
100
AcDbEntity
  8
0
100
AcDbBlockBegin
  2
*D5
 70
     1
 10
0.0
 20
0.0
 30
0.0
  3
*D5
  1
*D20
  0
LINE
  5
325
330
322
100
AcDbEntity
  8
C寸法
 62
     0
440
 16777216
370
    -2
100
AcDbLine
 10
327.9087549922253
 20
629.3789443810402
 30
0.0
 11
327.9087549922253
 21
443.5391965673251
 31
0.0
  0
LINE
  5
326
330
322
100
AcDbEntity
  8
C寸法
 62
     0
440
 16777216
370
    -2
100
AcDbLine
 10
977.9087549922252
 20
629.1454477473242
 30
0.0
 11
977.9087549922252
 21
443.5391965673251
 31
0.0
  0
LINE
  5
327
330
322
100
AcDbEntity
  8
C寸法
 62
     0
440
 16777216
370
    -2
100
AcDbLine
 10
352.9087549922254
 20
443.5391965673251
 30
0.0
 11
952.9087549922252
 21
443.5391965673251
 31
0.0
  0
INSERT
  5
328
330
322
100
AcDbEntity
  8
C寸法
 62
     0
440
 16777216
370
    -2
100
AcDbBlockReference
  2
_OPEN
 10
327.9087549922253
 20
443.5391965673251
 30
0.0
 41
25.0
 42
25.0
 43
25.0
 50
180.0
  0
INSERT
  5
329
330
322
100
AcDbEntity
  8
C寸法
 62
     0
440
 16777216
370
    -2
100
AcDbBlockReference
  2
_OPEN
 10
977.9087549922252
 20
443.5391965673251
 30
0.0
 41
25.0
 42
25.0
 43
25.0
  0
MTEXT
  5
32A
330
322
100
AcDbEntity
  8
C寸法
 62
     0
440
 16777216
370
    13
100
AcDbMText
 10
652.9087549922252
 20
461.0391965673251
 30
0.0
 40
25.0
 41
0.0
 46
0.0
 71
     5
 72
     1
  1
\A1;650
  7
KANJI
 73
     1
 44
1.0
  0
POINT
  5
32B
330
322
100
AcDbEntity
  8
Defpoints
 62
     0
440
 16777216
100
AcDbPoint
 10
327.9087549922253
 20
639.3789443810405
 30
0.0
  0
POINT
  5
32C
330
322
100
AcDbEntity
  8
Defpoints
 62
     0
440
 16777216
100
AcDbPoint
 10
977.9087549922252
 20
639.1454477473241
 30
0.0
  0
POINT
  5
32D
330
322
100
AcDbEntity
  8
Defpoints
 62
     0
440
 16777216
100
AcDbPoint
 10
977.9087549922252
 20
443.5391965673251
 30
0.0
  0
ENDBLK
  5
324
330
322
100
AcDbEntity
  8
0
100
AcDbBlockEnd
  0
BLOCK
  5
32F
330
32E
100
AcDbEntity
  8
0
100
AcDbBlockBegin
  2
*D6
 70
     1
 10
0.0
 20
0.0
 30
0.0
  3
*D6
  1
*D21
  0
LINE
  5
331
330
32E
100
AcDbEntity
  8
C寸法
 62
     0
440
 16777216
370
    -2
100
AcDbLine
 10
327.9087549922253
 20
583.5391965673251
 30
0.0
 11
327.9087549922253
 21
493.5391965673251
 31
0.0
  0
LINE
  5
332
330
32E
100
AcDbEntity
  8
C寸法
 62
     0
440
 16777216
370
    -2
100
AcDbLine
 10
477.9107549922327
 20
583.5391965673251
 30
0.0
 11
477.9107549922327
 21
493.5391965673251
 31
0.0
  0
LINE
  5
333
330
32E
100
AcDbEntity
  8
C寸法
 62
     0
440
 16777216
370
    -2
100
AcDbLine
 10
352.9087549922254
 20
493.5391965673251
 30
0.0
 11
452.9107549922327
 21
493.5391965673251
 31
0.0
  0
INSERT
  5
334
330
32E
100
AcDbEntity
  8
C寸法
 62
     0
440
 16777216
370
    -2
100
AcDbBlockReference
  2
_OPEN
 10
327.9087549922253
 20
493.5391965673251
 30
0.0
 41
25.0
 42
25.0
 43
25.0
 50
180.0
  0
INSERT
  5
335
330
32E
100
AcDbEntity
  8
C寸法
 62
     0
440
 16777216
370
    -2
100
AcDbBlockReference
  2
_OPEN
 10
477.9107549922327
 20
493.5391965673251
 30
0.0
 41
25.0
 42
25.0
 43
25.0
  0
MTEXT
  5
336
330
32E
100
AcDbEntity
  8
C寸法
 62
     0
440
 16777216
370
    13
100
AcDbMText
 10
402.9097549922291
 20
511.0391965673251
 30
0.0
 40
25.0
 41
0.0
 46
0.0
 71
     5
 72
     1
  1
\A1;150
  7
KANJI
 73
     1
 44
1.0
  0
POINT
  5
337
330
32E
100
AcDbEntity
  8
Defpoints
 62
     0
440
 16777216
100
AcDbPoint
 10
327.9087549922253
 20
593.5391965673251
 30
0.0
  0
POINT
  5
338
330
32E
100
AcDbEntity
  8
Defpoints
 62
     0
440
 16777216
100
AcDbPoint
 10
477.9107549922327
 20
593.5391965673251
 30
0.0
  0
POINT
  5
339
330
32E
100
AcDbEntity
  8
Defpoints
 62
     0
440
 16777216
100
AcDbPoint
 10
477.9107549922327
 20
493.5391965673251
 30
0.0
  0
ENDBLK
  5
330
330
32E
100
AcDbEntity
  8
0
100
AcDbBlockEnd
  0
BLOCK
  5
33B
330
33A
100
AcDbEntity
  8
0
100
AcDbBlockBegin
  2
*D7
 70
     1
 10
0.0
 20
0.0
 30
0.0
  3
*D7
  1
*D22
  0
LINE
  5
33D
330
33A
100
AcDbEntity
  8
C寸法
 62
     0
440
 16777216
370
    -2
100
AcDbLine
 10
932.4849165074548
 20
1113.539196567325
 30
0.0
 11
1257.908754992227
 21
1113.539196567325
 31
0.0
  0
LINE
  5
33E
330
33A
100
AcDbEntity
  8
C寸法
 62
     0
440
 16777216
370
    -2
100
AcDbLine
 10
1017.908754992225
 20
593.5391965673251
 30
0.0
 11
1257.908754992227
 21
593.5391965673251
 31
0.0
  0
LINE
  5
33F
330
33A
100
AcDbEntity
  8
C寸法
 62
     0
440
 16777216
370
    -2
100
AcDbLine
 10
1257.908754992227
 20
1088.539196567325
 30
0.0
 11
1257.908754992227
 21
618.5391965673251
 31
0.0
  0
INSERT
  5
340
330
33A
100
AcDbEntity
  8
C寸法
 62
     0
440
 16777216
370
    -2
100
AcDbBlockReference
  2
_OPEN
 10
1257.908754992227
 20
1113.539196567325
 30
0.0
 41
25.0
 42
25.0
 43
25.0
 50
90.0
  0
INSERT
  5
341
330
33A
100
AcDbEntity
  8
C寸法
 62
     0
440
 16777216
370
    -2
100
AcDbBlockReference
  2
_OPEN
 10
1257.908754992227
 20
593.5391965673251
 30
0.0
 41
25.0
 42
25.0
 43
25.0
 50
270.0
  0
MTEXT
  5
342
330
33A
100
AcDbEntity
  8
C寸法
 62
     0
440
 16777216
370
    13
100
AcDbMText
 10
1240.408754992227
 20
853.5391965673252
 30
0.0
 40
25.0
 41
0.0
 46
0.0
 71
     5
 72
     1
  1
\A1;520
  7
KANJI
 11
0.0
 21
1.0
 31
0.0
 73
     1
 44
1.0
  0
POINT
  5
343
330
33A
100
AcDbEntity
  8
Defpoints
 62
     0
440
 16777216
100
AcDbPoint
 10
922.4849165074546
 20
1113.539196567325
 30
0.0
  0
POINT
  5
344
330
33A
100
AcDbEntity
  8
Defpoints
 62
     0
440
 16777216
100
AcDbPoint
 10
1007.908754992225
 20
593.5391965673251
 30
0.0
  0
POINT
  5
345
330
33A
100
AcDbEntity
  8
Defpoints
 62
     0
440
 16777216
100
AcDbPoint
 10
1257.908754992227
 20
593.5391965673251
 30
0.0
  0
ENDBLK
  5
33C
330
33A
100
AcDbEntity
  8
0
100
AcDbBlockEnd
  0
BLOCK
  5
347
330
346
100
AcDbEntity
  8
0
100
AcDbBlockBegin
  2
*D8
 70
     1
 10
0.0
 20
0.0
 30
0.0
  3
*D8
  1
*D23
  0
LINE
  5
349
330
346
100
AcDbEntity
  8
C寸法
 62
     0
440
 16777216
370
    -2
100
AcDbLine
 10
1017.908754992225
 20
359.2391965673251
 30
0.0
 11
1157.908754992227
 21
359.2391965673251
 31
0.0
  0
LINE
  5
34A
330
346
100
AcDbEntity
  8
C寸法
 62
     0
440
 16777216
370
    -2
100
AcDbLine
 10
578.4107549922182
 20
169.2391965673251
 30
0.0
 11
1157.908754992227
 21
169.239196567325
 31
0.0
  0
LINE
  5
34B
330
346
100
AcDbEntity
  8
C寸法
 62
     0
440
 16777216
370
    -2
100
AcDbLine
 10
1157.908754992227
 20
334.2391965673251
 30
0.0
 11
1157.908754992227
 21
194.239196567325
 31
0.0
  0
INSERT
  5
34C
330
346
100
AcDbEntity
  8
C寸法
 62
     0
440
 16777216
370
    -2
100
AcDbBlockReference
  2
_OPEN
 10
1157.908754992227
 20
359.2391965673251
 30
0.0
 41
25.0
 42
25.0
 43
25.0
 50
90.0
  0
INSERT
  5
34D
330
346
100
AcDbEntity
  8
C寸法
 62
     0
440
 16777216
370
    -2
100
AcDbBlockReference
  2
_OPEN
 10
1157.908754992227
 20
169.239196567325
 30
0.0
 41
25.0
 42
25.0
 43
25.0
 50
270.0
  0
MTEXT
  5
34E
330
346
100
AcDbEntity
  8
C寸法
 62
     0
440
 16777216
370
    13
100
AcDbMText
 10
1140.408754992227
 20
264.2391965673251
 30
0.0
 40
25.0
 41
0.0
 46
0.0
 71
     5
 72
     1
  1
\A1;190
  7
KANJI
 11
0.0
 21
1.0
 31
0.0
 73
     1
 44
1.0
  0
POINT
  5
34F
330
346
100
AcDbEntity
  8
Defpoints
 62
     0
440
 16777216
100
AcDbPoint
 10
1007.908754992225
 20
359.2391965673251
 30
0.0
  0
POINT
  5
350
330
346
100
AcDbEntity
  8
Defpoints
 62
     0
440
 16777216
100
AcDbPoint
 10
568.4107549922185
 20
169.2391965673251
 30
0.0
  0
POINT
  5
351
330
346
100
AcDbEntity
  8
Defpoints
 62
     0
440
 16777216
100
AcDbPoint
 10
1157.908754992227
 20
169.239196567325
 30
0.0
  0
ENDBLK
  5
348
330
346
100
AcDbEntity
  8
0
100
AcDbBlockEnd
  0
BLOCK
  5
353
330
352
100
AcDbEntity
  8
0
100
AcDbBlockBegin
  2
*D9
 70
     1
 10
0.0
 20
0.0
 30
0.0
  3
*D9
  1
*D24
  0
LINE
  5
355
330
352
100
AcDbEntity
  8
C寸法
 62
     0
440
 16777216
370
    -2
100
AcDbLine
 10
1017.908754992225
 20
593.5391965673251
 30
0.0
 11
1207.908754992227
 21
593.5391965673251
 31
0.0
  0
LINE
  5
356
330
352
100
AcDbEntity
  8
C寸法
 62
     0
440
 16777216
370
    -2
100
AcDbLine
 10
1017.908754992225
 20
1033.539196567325
 30
0.0
 11
1207.908754992227
 21
1033.539196567325
 31
0.0
  0
LINE
  5
357
330
352
100
AcDbEntity
  8
C寸法
 62
     0
440
 16777216
370
    -2
100
AcDbLine
 10
1207.908754992227
 20
618.5391965673251
 30
0.0
 11
1207.908754992227
 21
1008.539196567325
 31
0.0
  0
INSERT
  5
358
330
352
100
AcDbEntity
  8
C寸法
 62
     0
440
 16777216
370
    -2
100
AcDbBlockReference
  2
_OPEN
 10
1207.908754992227
 20
593.5391965673251
 30
0.0
 41
25.0
 42
25.0
 43
25.0
 50
270.0
  0
INSERT
  5
359
330
352
100
AcDbEntity
  8
C寸法
 62
     0
440
 16777216
370
    -2
100
AcDbBlockReference
  2
_OPEN
 10
1207.908754992227
 20
1033.539196567325
 30
0.0
 41
25.0
 42
25.0
 43
25.0
 50
90.0
  0
MTEXT
  5
35A
330
352
100
AcDbEntity
  8
C寸法
 62
     0
440
 16777216
370
    13
100
AcDbMText
 10
1190.408754992227
 20
813.5391965673251
 30
0.0
 40
25.0
 41
0.0
 46
0.0
 71
     5
 72
     1
  1
\A1;440
  7
KANJI
 11
0.0
 21
1.0
 31
0.0
 73
     1
 44
1.0
  0
POINT
  5
35B
330
352
100
AcDbEntity
  8
Defpoints
 62
     0
440
 16777216
100
AcDbPoint
 10
1007.908754992225
 20
593.5391965673251
 30
0.0
  0
POINT
  5
35C
330
352
100
AcDbEntity
  8
Defpoints
 62
     0
440
 16777216
100
AcDbPoint
 10
1007.908754992225
 20
1033.539196567325
 30
0.0
  0
POINT
  5
35D
330
352
100
AcDbEntity
  8
Defpoints
 62
     0
440
 16777216
100
AcDbPoint
 10
1207.908754992227
 20
1033.539196567325
 30
0.0
  0
ENDBLK
  5
354
330
352
100
AcDbEntity
  8
0
100
AcDbBlockEnd
  0
BLOCK
  5
35F
330
35E
100
AcDbEntity
  8
0
100
AcDbBlockBegin
  2
*D10
 70
     1
 10
0.0
 20
0.0
 30
0.0
  3
*D10
  1
*D25
  0
LINE
  5
361
330
35E
100
AcDbEntity
  8
C寸法
 62
     0
440
 16777216
370
    -2
100
AcDbLine
 10
662.910754992233
 20
593.5391965673251
 30
0.0
 11
1157.908754992227
 21
593.5391965673251
 31
0.0
  0
LINE
  5
362
330
35E
100
AcDbEntity
  8
C寸法
 62
     0
440
 16777216
370
    -2
100
AcDbLine
 10
1017.908754992224
 20
608.5391965673227
 30
0.0
 11
1157.908754992227
 21
608.5391965673227
 31
0.0
  0
LINE
  5
363
330
35E
100
AcDbEntity
  8
C寸法
 62
     0
440
 16777216
370
    -2
100
AcDbLine
 10
1157.908754992227
 20
593.5391965673251
 30
0.0
 11
1157.908754992227
 21
496.4484227578012
 31
0.0
  0
LINE
  5
364
330
35E
100
AcDbEntity
  8
C寸法
 62
     0
440
 16777216
370
    -2
100
AcDbLine
 10
1157.908754992227
 20
593.5391965673251
 30
0.0
 11
1157.908754992227
 21
608.5391965673227
 31
0.0
  0
LINE
  5
365
330
35E
100
AcDbEntity
  8
C寸法
 62
     0
440
 16777216
370
    -2
100
AcDbLine
 10
1157.908754992227
 20
568.5391965673251
 30
0.0
 11
1157.908754992227
 21
543.5391965673251
 31
0.0
  0
LINE
  5
366
330
35E
100
AcDbEntity
  8
C寸法
 62
     0
440
 16777216
370
    -2
100
AcDbLine
 10
1157.908754992227
 20
633.5391965673227
 30
0.0
 11
1157.908754992227
 21
658.5391965673227
 31
0.0
  0
INSERT
  5
367
330
35E
100
AcDbEntity
  8
C寸法
 62
     0
440
 16777216
370
    -2
100
AcDbBlockReference
  2
_OPEN
 10
1157.908754992227
 20
593.5391965673251
 30
0.0
 41
25.0
 42
25.0
 43
25.0
 50
90.0
  0
INSERT
  5
368
330
35E
100
AcDbEntity
  8
C寸法
 62
     0
440
 16777216
370
    -2
100
AcDbBlockReference
  2
_OPEN
 10
1157.908754992227
 20
608.5391965673227
 30
0.0
 41
25.0
 42
25.0
 43
25.0
 50
270.0
  0
MTEXT
  5
369
330
35E
100
AcDbEntity
  8
C寸法
 62
     0
440
 16777216
370
    13
100
AcDbMText
 10
1140.408754992227
 20
519.9938096625632
 30
0.0
 40
25.0
 41
0.0
 46
0.0
 71
     5
 72
     1
  1
\A1;15
  7
KANJI
 11
0.0
 21
1.0
 31
0.0
 73
     1
 44
1.0
  0
POINT
  5
36A
330
35E
100
AcDbEntity
  8
Defpoints
 62
     0
440
 16777216
100
AcDbPoint
 10
652.910754992233
 20
593.5391965673251
 30
0.0
  0
POINT
  5
36B
330
35E
100
AcDbEntity
  8
Defpoints
 62
     0
440
 16777216
100
AcDbPoint
 10
1007.908754992224
 20
608.5391965673227
 30
0.0
  0
POINT
  5
36C
330
35E
100
AcDbEntity
  8
Defpoints
 62
     0
440
 16777216
100
AcDbPoint
 10
1157.908754992227
 20
608.5391965673227
 30
0.0
  0
ENDBLK
  5
360
330
35E
100
AcDbEntity
  8
0
100
AcDbBlockEnd
  0
BLOCK
  5
36E
330
36D
100
AcDbEntity
  8
0
100
AcDbBlockBegin
  2
*D11
 70
     1
 10
0.0
 20
0.0
 30
0.0
  3
*D11
  1
*D26
  0
LINE
  5
370
330
36D
100
AcDbEntity
  8
C寸法
 62
     0
440
 16777216
370
    -2
100
AcDbLine
 10
662.9097224150152
 20
608.539196567467
 30
0.0
 11
1157.908754992227
 21
608.5391965674667
 31
0.0
  0
LINE
  5
371
330
36D
100
AcDbEntity
  8
C寸法
 62
     0
440
 16777216
370
    -2
100
AcDbLine
 10
1017.908754992227
 20
1018.539196567325
 30
0.0
 11
1157.908754992227
 21
1018.539196567325
 31
0.0
  0
LINE
  5
372
330
36D
100
AcDbEntity
  8
C寸法
 62
     0
440
 16777216
370
    -2
100
AcDbLine
 10
1157.908754992227
 20
633.5391965674667
 30
0.0
 11
1157.908754992227
 21
993.5391965673252
 31
0.0
  0
INSERT
  5
373
330
36D
100
AcDbEntity
  8
C寸法
 62
     0
440
 16777216
370
    -2
100
AcDbBlockReference
  2
_OPEN
 10
1157.908754992227
 20
608.5391965674667
 30
0.0
 41
25.0
 42
25.0
 43
25.0
 50
270.0
  0
INSERT
  5
374
330
36D
100
AcDbEntity
  8
C寸法
 62
     0
440
 16777216
370
    -2
100
AcDbBlockReference
  2
_OPEN
 10
1157.908754992227
 20
1018.539196567325
 30
0.0
 41
25.0
 42
25.0
 43
25.0
 50
90.0
  0
MTEXT
  5
375
330
36D
100
AcDbEntity
  8
C寸法
 62
     0
440
 16777216
370
    13
100
AcDbMText
 10
1140.408754992227
 20
813.5391965673958
 30
0.0
 40
25.0
 41
0.0
 46
0.0
 71
     5
 72
     1
  1
\A1;410
  7
KANJI
 11
0.0
 21
1.0
 31
0.0
 73
     1
 44
1.0
  0
POINT
  5
376
330
36D
100
AcDbEntity
  8
Defpoints
 62
     0
440
 16777216
100
AcDbPoint
 10
652.9097224150152
 20
608.539196567467
 30
0.0
  0
POINT
  5
377
330
36D
100
AcDbEntity
  8
Defpoints
 62
     0
440
 16777216
100
AcDbPoint
 10
1007.908754992227
 20
1018.539196567325
 30
0.0
  0
POINT
  5
378
330
36D
100
AcDbEntity
  8
Defpoints
 62
     0
440
 16777216
100
AcDbPoint
 10
1157.908754992227
 20
1018.539196567325
 30
0.0
  0
ENDBLK
  5
36F
330
36D
100
AcDbEntity
  8
0
100
AcDbBlockEnd
  0
BLOCK
  5
37A
330
379
100
AcDbEntity
  8
0
100
AcDbBlockBegin
  2
*D12
 70
     1
 10
0.0
 20
0.0
 30
0.0
  3
*D12
  1
*D27
  0
LINE
  5
37C
330
379
100
AcDbEntity
  8
C寸法
 62
     0
440
 16777216
370
    -2
100
AcDbLine
 10
662.9107549922332
 20
1018.539196567325
 30
0.0
 11
1157.908754992227
 21
1018.539196567325
 31
0.0
  0
LINE
  5
37D
330
379
100
AcDbEntity
  8
C寸法
 62
     0
440
 16777216
370
    -2
100
AcDbLine
 10
927.9087549922252
 20
1033.539196567325
 30
0.0
 11
1157.908754992227
 21
1033.539196567325
 31
0.0
  0
LINE
  5
37E
330
379
100
AcDbEntity
  8
C寸法
 62
     0
440
 16777216
370
    -2
100
AcDbLine
 10
1157.908754992227
 20
1018.539196567325
 30
0.0
 11
1157.908754992227
 21
921.4484227578012
 31
0.0
  0
LINE
  5
37F
330
379
100
AcDbEntity
  8
C寸法
 62
     0
440
 16777216
370
    -2
100
AcDbLine
 10
1157.908754992227
 20
1018.539196567325
 30
0.0
 11
1157.908754992227
 21
1033.539196567325
 31
0.0
  0
LINE
  5
380
330
379
100
AcDbEntity
  8
C寸法
 62
     0
440
 16777216
370
    -2
100
AcDbLine
 10
1157.908754992227
 20
993.5391965673252
 30
0.0
 11
1157.908754992227
 21
968.5391965673252
 31
0.0
  0
LINE
  5
381
330
379
100
AcDbEntity
  8
C寸法
 62
     0
440
 16777216
370
    -2
100
AcDbLine
 10
1157.908754992227
 20
1058.539196567325
 30
0.0
 11
1157.908754992227
 21
1083.539196567325
 31
0.0
  0
INSERT
  5
382
330
379
100
AcDbEntity
  8
C寸法
 62
     0
440
 16777216
370
    -2
100
AcDbBlockReference
  2
_OPEN
 10
1157.908754992227
 20
1018.539196567325
 30
0.0
 41
25.0
 42
25.0
 43
25.0
 50
90.0
  0
INSERT
  5
383
330
379
100
AcDbEntity
  8
C寸法
 62
     0
440
 16777216
370
    -2
100
AcDbBlockReference
  2
_OPEN
 10
1157.908754992227
 20
1033.539196567325
 30
0.0
 41
25.0
 42
25.0
 43
25.0
 50
270.0
  0
MTEXT
  5
384
330
379
100
AcDbEntity
  8
C寸法
 62
     0
440
 16777216
370
    13
100
AcDbMText
 10
1140.408754992227
 20
944.9938096625633
 30
0.0
 40
25.0
 41
0.0
 46
0.0
 71
     5
 72
     1
  1
\A1;15
  7
KANJI
 11
0.0
 21
1.0
 31
0.0
 73
     1
 44
1.0
  0
POINT
  5
385
330
379
100
AcDbEntity
  8
Defpoints
 62
     0
440
 16777216
100
AcDbPoint
 10
652.9107549922332
 20
1018.539196567325
 30
0.0
  0
POINT
  5
386
330
379
100
AcDbEntity
  8
Defpoints
 62
     0
440
 16777216
100
AcDbPoint
 10
917.9087549922252
 20
1033.539196567325
 30
0.0
  0
POINT
  5
387
330
379
100
AcDbEntity
  8
Defpoints
 62
     0
440
 16777216
100
AcDbPoint
 10
1157.908754992227
 20
1033.539196567325
 30
0.0
  0
ENDBLK
  5
37B
330
379
100
AcDbEntity
  8
0
100
AcDbBlockEnd
  0
BLOCK
  5
389
330
388
100
AcDbEntity
  8
0
100
AcDbBlockBegin
  2
*D13
 70
     1
 10
0.0
 20
0.0
 30
0.0
  3
*D13
  1
*D28
  0
LINE
  5
38B
330
388
100
AcDbEntity
  8
画層1
 62
     0
440
 16777216
370
    -2
100
AcDbLine
 10
701.9739446051901
 20
1073.539417831801
 30
0.0
 11
1107.908754992227
 21
1073.539417831801
 31
0.0
  0
LINE
  5
38C
330
388
100
AcDbEntity
  8
画層1
 62
     0
440
 16777216
370
    -2
100
AcDbLine
 10
927.9085346000131
 20
1113.539196566921
 30
0.0
 11
1107.908754992227
 21
1113.539196566921
 31
0.0
  0
LINE
  5
38D
330
388
100
AcDbEntity
  8
画層1
 62
     0
440
 16777216
370
    -2
100
AcDbLine
 10
1107.908754992227
 20
1138.539196566921
 30
0.0
 11
1107.908754992227
 21
1214.015387043111
 31
0.0
  0
LINE
  5
38E
330
388
100
AcDbEntity
  8
画層1
 62
     0
440
 16777216
370
    -2
100
AcDbLine
 10
1107.908754992227
 20
1073.539417831801
 30
0.0
 11
1107.908754992227
 21
1113.539196566921
 31
0.0
  0
LINE
  5
38F
330
388
100
AcDbEntity
  8
画層1
 62
     0
440
 16777216
370
    -2
100
AcDbLine
 10
1107.908754992227
 20
1048.539417831801
 30
0.0
 11
1107.908754992227
 21
1023.539417831801
 31
0.0
  0
INSERT
  5
390
330
388
100
AcDbEntity
  8
画層1
 62
     0
440
 16777216
370
    -2
100
AcDbBlockReference
  2
_OPEN
 10
1107.908754992227
 20
1073.539417831801
 30
0.0
 41
25.0
 42
25.0
 43
25.0
 50
90.0
  0
INSERT
  5
391
330
388
100
AcDbEntity
  8
画層1
 62
     0
440
 16777216
370
    -2
100
AcDbBlockReference
  2
_OPEN
 10
1107.908754992227
 20
1113.539196566921
 30
0.0
 41
25.0
 42
25.0
 43
25.0
 50
270.0
  0
MTEXT
  5
392
330
388
100
AcDbEntity
  8
画層1
 62
     0
440
 16777216
370
    13
100
AcDbMText
 10
1090.408754992227
 20
1188.777291805016
 30
0.0
 40
25.0
 41
0.0
 46
0.0
 71
     5
 72
     1
  1
\A1;40
  7
KANJI
 11
0.0
 21
1.0
 31
0.0
 73
     1
 44
1.0
  0
POINT
  5
393
330
388
100
AcDbEntity
  8
Defpoints
 62
     0
440
 16777216
100
AcDbPoint
 10
691.9739446051901
 20
1073.539417831801
 30
0.0
  0
POINT
  5
394
330
388
100
AcDbEntity
  8
Defpoints
 62
     0
440
 16777216
100
AcDbPoint
 10
917.9085346000132
 20
1113.539196566921
 30
0.0
  0
POINT
  5
395
330
388
100
AcDbEntity
  8
Defpoints
 62
     0
440
 16777216
100
AcDbPoint
 10
1107.908754992227
 20
1113.539196566921
 30
0.0
  0
ENDBLK
  5
38A
330
388
100
AcDbEntity
  8
0
100
AcDbBlockEnd
  0
BLOCK
  5
397
330
396
100
AcDbEntity
  8
0
100
AcDbBlockBegin
  2
*D14
 70
     1
 10
0.0
 20
0.0
 30
0.0
  3
*D14
  1
*D29
  0
LINE
  5
399
330
396
100
AcDbEntity
  8
C寸法
 62
     0
440
 16777216
370
    -2
100
AcDbLine
 10
992.2029268759288
 20
359.2391965673251
 30
0.0
 11
1107.908754992227
 21
359.2391965673251
 31
0.0
  0
LINE
  5
39A
330
396
100
AcDbEntity
  8
C寸法
 62
     0
440
 16777216
370
    -2
100
AcDbLine
 10
974.8658179460107
 20
344.2391965673284
 30
0.0
 11
1107.908754992227
 21
344.2391965673284
 31
0.0
  0
LINE
  5
39B
330
396
100
AcDbEntity
  8
C寸法
 62
     0
440
 16777216
370
    -2
100
AcDbLine
 10
1107.908754992227
 20
319.2391965673284
 30
0.0
 11
1107.908754992227
 21
247.1484227578046
 31
0.0
  0
LINE
  5
39C
330
396
100
AcDbEntity
  8
C寸法
 62
     0
440
 16777216
370
    -2
100
AcDbLine
 10
1107.908754992227
 20
359.2391965673251
 30
0.0
 11
1107.908754992227
 21
344.2391965673284
 31
0.0
  0
LINE
  5
39D
330
396
100
AcDbEntity
  8
C寸法
 62
     0
440
 16777216
370
    -2
100
AcDbLine
 10
1107.908754992227
 20
384.2391965673251
 30
0.0
 11
1107.908754992227
 21
409.2391965673249
 31
0.0
  0
INSERT
  5
39E
330
396
100
AcDbEntity
  8
C寸法
 62
     0
440
 16777216
370
    -2
100
AcDbBlockReference
  2
_OPEN
 10
1107.908754992227
 20
359.2391965673251
 30
0.0
 41
25.0
 42
25.0
 43
25.0
 50
270.0
  0
INSERT
  5
39F
330
396
100
AcDbEntity
  8
C寸法
 62
     0
440
 16777216
370
    -2
100
AcDbBlockReference
  2
_OPEN
 10
1107.908754992227
 20
344.2391965673284
 30
0.0
 41
25.0
 42
25.0
 43
25.0
 50
90.0
  0
MTEXT
  5
3A0
330
396
100
AcDbEntity
  8
C寸法
 62
     0
440
 16777216
370
    13
100
AcDbMText
 10
1090.408754992227
 20
270.6938096625665
 30
0.0
 40
25.0
 41
0.0
 46
0.0
 71
     5
 72
     1
  1
\A1;15
  7
KANJI
 11
0.0
 21
1.0
 31
0.0
 73
     1
 44
1.0
  0
POINT
  5
3A1
330
396
100
AcDbEntity
  8
Defpoints
 62
     0
440
 16777216
100
AcDbPoint
 10
982.2029268759289
 20
359.2391965673251
 30
0.0
  0
POINT
  5
3A2
330
396
100
AcDbEntity
  8
Defpoints
 62
     0
440
 16777216
100
AcDbPoint
 10
964.8658179460108
 20
344.2391965673284
 30
0.0
  0
POINT
  5
3A3
330
396
100
AcDbEntity
  8
Defpoints
 62
     0
440
 16777216
100
AcDbPoint
 10
1107.908754992227
 20
344.2391965673284
 30
0.0
  0
ENDBLK
  5
398
330
396
100
AcDbEntity
  8
0
100
AcDbBlockEnd
  0
BLOCK
  5
3A5
330
3A4
100
AcDbEntity
  8
0
100
AcDbBlockBegin
  2
*D15
 70
     1
 10
0.0
 20
0.0
 30
0.0
  3
*D15
  1
*D30
  0
LINE
  5
3A7
330
3A4
100
AcDbEntity
  8
C寸法
 62
     0
440
 16777216
 48
20.0
370
    -2
100
AcDbLine
 10
568.3998241412452
 20
879.8514855430548
 30
0.0
 11
568.3998241412452
 21
752.612118570861
 31
0.0
  0
LINE
  5
3A8
330
3A4
100
AcDbEntity
  8
C寸法
 62
     0
440
 16777216
 48
20.0
370
    -2
100
AcDbLine
 10
387.589492370437
 20
879.6056582571859
 30
0.0
 11
387.589492370437
 21
752.612118570861
 31
0.0
  0
LINE
  5
3A9
330
3A4
100
AcDbEntity
  8
C寸法
 62
     0
440
 16777216
 48
20.0
370
    -2
100
AcDbLine
 10
543.3998241412449
 20
752.612118570861
 30
0.0
 11
412.589492370437
 21
752.612118570861
 31
0.0
  0
INSERT
  5
3AA
330
3A4
100
AcDbEntity
  8
C寸法
 62
     0
440
 16777216
370
    -2
100
AcDbBlockReference
  2
_OPEN
 10
568.3998241412452
 20
752.612118570861
 30
0.0
 41
25.0
 42
25.0
 43
25.0
  0
INSERT
  5
3AB
330
3A4
100
AcDbEntity
  8
C寸法
 62
     0
440
 16777216
370
    -2
100
AcDbBlockReference
  2
_OPEN
 10
387.589492370437
 20
752.612118570861
 30
0.0
 41
25.0
 42
25.0
 43
25.0
 50
180.0
  0
MTEXT
  5
3AC
330
3A4
100
AcDbEntity
  8
C寸法
 62
     0
440
 16777216
370
    13
100
AcDbMText
 10
492.0760813657278
 20
770.112118570861
 30
0.0
 40
25.0
 41
0.0
 46
0.0
 71
     5
 72
     1
  1
\A1;Φ181
  7
KANJI
 73
     1
 44
1.0
  0
POINT
  5
3AD
330
3A4
100
AcDbEntity
  8
Defpoints
 62
     0
440
 16777216
100
AcDbPoint
 10
568.3998241412452
 20
889.8514855430548
 30
0.0
  0
POINT
  5
3AE
330
3A4
100
AcDbEntity
  8
Defpoints
 62
     0
440
 16777216
100
AcDbPoint
 10
387.589492370437
 20
889.6056582571858
 30
0.0
  0
POINT
  5
3AF
330
3A4
100
AcDbEntity
  8
Defpoints
 62
     0
440
 16777216
100
AcDbPoint
 10
387.589492370437
 20
752.612118570861
 30
0.0
  0
ENDBLK
  5
3A6
330
3A4
100
AcDbEntity
  8
0
100
AcDbBlockEnd
  0
BLOCK
  5
3C6
330
3C5
100
AcDbEntity
  8
0
100
AcDbBlockBegin
  2
*D16
 70
     1
 10
0.0
 20
0.0
 30
0.0
  3
*D16
  1
*D32
  0
LINE
  5
3C8
330
3C5
100
AcDbEntity
  8
0
  6
Continuous
 62
     0
440
 16777216
370
    -2
100
AcDbLine
 10
634.9416141586835
 20
1073.722011657719
 30
0.0
 11
634.9416141586835
 21
1150.287265388132
 31
0.0
  0
LINE
  5
3C9
330
3C5
100
AcDbEntity
  8
0
  6
Continuous
 62
     0
440
 16777216
370
    -2
100
AcDbLine
 10
671.0061167163432
 20
1074.003765583951
 30
0.0
 11
671.0061167163432
 21
1150.287265388132
 31
0.0
  0
LINE
  5
3CA
330
3C5
100
AcDbEntity
  8
0
  6
Continuous
 62
     0
440
 16777216
370
    -2
100
AcDbLine
 10
696.0061167163431
 20
1149.037265388132
 30
0.0
 11
882.8751643353907
 21
1149.037265388132
 31
0.0
  0
LINE
  5
3CB
330
3C5
100
AcDbEntity
  8
0
  6
Continuous
 62
     0
440
 16777216
370
    -2
100
AcDbLine
 10
634.9416141586835
 20
1149.037265388132
 30
0.0
 11
671.0061167163432
 21
1149.037265388132
 31
0.0
  0
LINE
  5
3CC
330
3C5
100
AcDbEntity
  8
0
  6
Continuous
 62
     0
440
 16777216
370
    -2
100
AcDbLine
 10
609.9416141586835
 20
1149.037265388132
 30
0.0
 11
584.9416141586835
 21
1149.037265388132
 31
0.0
  0
INSERT
  5
3CD
330
3C5
100
AcDbEntity
  8
0
 62
     0
440
 16777216
370
    -2
100
AcDbBlockReference
  2
_OPEN
 10
634.9416141586835
 20
1149.037265388132
 30
0.0
 41
25.0
 42
25.0
 43
25.0
  0
INSERT
  5
3CE
330
3C5
100
AcDbEntity
  8
0
 62
     0
440
 16777216
370
    -2
100
AcDbBlockReference
  2
_OPEN
 10
671.0061167163432
 20
1149.037265388132
 30
0.0
 41
25.0
 42
25.0
 43
25.0
 50
180.0
  0
MTEXT
  5
3CF
330
3C5
100
AcDbEntity
  8
0
 62
     0
440
 16777216
370
    13
100
AcDbMText
 10
801.9406405258667
 20
1165.537265388132
 30
0.0
 40
25.0
 41
0.0
 46
0.0
 71
     5
 72
     1
  1
Φ36水栓穴
  7
KANJI
 73
     1
 44
1.0
  0
POINT
  5
3D0
330
3C5
100
AcDbEntity
  8
Defpoints
 62
     0
440
 16777216
100
AcDbPoint
 10
634.9416141586835
 20
1073.097011657719
 30
0.0
  0
POINT
  5
3D1
330
3C5
100
AcDbEntity
  8
Defpoints
 62
     0
440
 16777216
100
AcDbPoint
 10
671.0061167163432
 20
1073.378765583951
 30
0.0
  0
POINT
  5
3D2
330
3C5
100
AcDbEntity
  8
Defpoints
 62
     0
440
 16777216
100
AcDbPoint
 10
671.0061167163432
 20
1149.037265388132
 30
0.0
  0
ENDBLK
  5
3C7
330
3C5
100
AcDbEntity
  8
0
100
AcDbBlockEnd
  0
BLOCK
  5
400
330
3FF
100
AcDbEntity
  8
0
100
AcDbBlockBegin
  2
*D17
 70
     1
 10
0.0
 20
0.0
 30
0.0
  3
*D17
  1
*D35
  0
LINE
  5
402
330
3FF
100
AcDbEntity
  8
画層1
 62
     0
440
 16777216
370
    -2
100
AcDbLine
 10
961.3919997995932
 20
664.3313894272677
 30
0.0
 11
772.7087460862496
 21
772.5215680130117
 31
0.0
  0
MTEXT
  5
403
330
3FF
100
AcDbEntity
  8
画層1
 62
     0
440
 16777216
370
    13
100
AcDbMText
 10
848.2323797597842
 20
749.3893828523779
 30
0.0
 40
25.0
 41
0.0
 46
0.0
 71
     5
 72
     1
  1
4-R100
  7
KANJI
 11
0.8675070579862142
 21
-0.497424873065374
 31
0.0
 73
     1
 44
1.0
  0
INSERT
  5
404
330
3FF
100
AcDbEntity
  8
画層1
 62
     0
440
 16777216
370
    -2
100
AcDbBlockReference
  2
_OPEN
 10
961.3919997995932
 20
664.3313894272677
 30
0.0
 41
25.0
 42
25.0
 43
25.0
 50
330.1702232866042
  0
POINT
  5
405
330
3FF
100
AcDbEntity
  8
Defpoints
 62
     0
440
 16777216
100
AcDbPoint
 10
961.3919997995932
 20
664.3313894272677
 30
0.0
  0
POINT
  5
406
330
3FF
100
AcDbEntity
  8
Defpoints
 62
     0
440
 16777216
100
AcDbPoint
 10
907.6840709480407
 20
695.1272883720025
 30
0.0
  0
ENDBLK
  5
401
330
3FF
100
AcDbEntity
  8
0
100
AcDbBlockEnd
  0
BLOCK
  5
40B
330
40A
100
AcDbEntity
  8
0
100
AcDbBlockBegin
  2
*D18
 70
     1
 10
0.0
 20
0.0
 30
0.0
  3
*D18
  1
*D36
  0
LINE
  5
40D
330
40A
100
AcDbEntity
  8
画層1
 62
     0
440
 16777216
370
    -2
100
AcDbLine
 10
970.2829128823751
 20
624.2655294704667
 30
0.0
 11
771.1168327945031
 21
690.8453503055476
 31
0.0
  0
MTEXT
  5
40E
330
40A
100
AcDbEntity
  8
画層1
 62
     0
440
 16777216
370
    13
100
AcDbMText
 10
838.4247009752415
 20
686.7967402013118
 30
0.0
 40
25.0
 41
0.0
 46
0.0
 71
     5
 72
     1
  1
4-R60
  7
KANJI
 11
0.9484099051803418
 21
-0.3170467658813365
 31
0.0
 73
     1
 44
1.0
  0
INSERT
  5
40F
330
40A
100
AcDbEntity
  8
画層1
 62
     0
440
 16777216
370
    -2
100
AcDbBlockReference
  2
_OPEN
 10
970.2829128823751
 20
624.2655294704667
 30
0.0
 41
25.0
 42
25.0
 43
25.0
 50
341.5155805104156
  0
POINT
  5
410
330
40A
100
AcDbEntity
  8
Defpoints
 62
     0
440
 16777216
100
AcDbPoint
 10
970.2829128823751
 20
624.2655294704667
 30
0.0
  0
POINT
  5
411
330
40A
100
AcDbEntity
  8
Defpoints
 62
     0
440
 16777216
100
AcDbPoint
 10
896.7141716839288
 20
648.8590426123328
 30
0.0
  0
ENDBLK
  5
40C
330
40A
100
AcDbEntity
  8
0
100
AcDbBlockEnd
  0
BLOCK
  5
416
330
415
100
AcDbEntity
  8
0
100
AcDbBlockBegin
  2
*D19
 70
     1
 10
0.0
 20
0.0
 30
0.0
  3
*D19
  1
*D37
  0
LINE
  5
418
330
415
100
AcDbEntity
  8
画層1
 62
     0
440
 16777216
370
    -2
100
AcDbLine
 10
339.8556514761455
 20
1089.465607827819
 30
0.0
 11
502.2699014769158
 21
1024.668127375764
 31
0.0
  0
MTEXT
  5
419
330
415
100
AcDbEntity
  8
画層1
 62
     0
440
 16777216
370
    13
100
AcDbMText
 10
448.8298740678816
 20
1063.753492131582
 30
0.0
 40
25.0
 41
0.0
 46
0.0
 71
     5
 72
     1
  1
4-R60
  7
KANJI
 11
0.928808047116092
 21
-0.370561211694359
 31
0.0
 73
     1
 44
1.0
  0
INSERT
  5
41A
330
415
100
AcDbEntity
  8
画層1
 62
     0
440
 16777216
370
    -2
100
AcDbBlockReference
  2
_OPEN
 10
339.8556514761455
 20
1089.465607827819
 30
0.0
 41
25.0
 42
25.0
 43
25.0
 50
158.2497671804528
  0
POINT
  5
41B
330
415
100
AcDbEntity
  8
Defpoints
 62
     0
440
 16777216
100
AcDbPoint
 10
339.8556514761455
 20
1089.465607827819
 30
0.0
  0
POINT
  5
41C
330
415
100
AcDbEntity
  8
Defpoints
 62
     0
440
 16777216
100
AcDbPoint
 10
404.626083466743
 20
1063.624520603256
 30
0.0
  0
ENDBLK
  5
417
330
415
100
AcDbEntity
  8
0
100
AcDbBlockEnd
  0
BLOCK
  5
450
330
44F
100
AcDbEntity
  8
0
100
AcDbBlockBegin
  2
*D20
 70
     1
 10
0.0
 20
0.0
 30
0.0
  3
*D20
  1

  0
LINE
  5
451
330
44F
100
AcDbEntity
  8
C寸法
 62
     0
440
 16777216
370
    -2
100
AcDbLine
 10
544.0451875439255
 20
743.5355598609848
 30
0.0
 11
621.2951875439317
 21
743.5355598609848
 31
0.0
  0
LINE
  5
452
330
44F
100
AcDbEntity
  8
C寸法
 62
     0
440
 16777216
370
    -2
100
AcDbLine
 10
621.2951875439317
 20
743.5355598609848
 30
0.0
 11
653.5189670330846
 21
807.3039554485747
 31
0.0
  0
MTEXT
  5
453
330
44F
100
AcDbEntity
  8
C寸法
 62
     0
440
 16777216
100
AcDbMText
 10
577.5451875439255
 20
761.0355598609848
 30
0.0
 40
21.0
 41
0.0
 46
0.0
 71
     5
 72
     1
  1
\A1;∅181
  7
KANJI
 73
     1
 44
1.0
  0
INSERT
  5
454
330
44F
100
AcDbEntity
  8
C寸法
 62
     0
440
 16777216
370
    -2
100
AcDbBlockReference
  2
_OPEN
 10
662.9902158589607
 20
826.0468326470821
 30
0.0
 41
21.0
 42
21.0
 43
21.0
 50
63.19137832668661
  0
POINT
  5
455
330
44F
100
AcDbEntity
  8
Defpoints
 62
     0
440
 16777216
100
AcDbPoint
 10
662.9902158589607
 20
826.0468326470821
 30
0.0
  0
POINT
  5
456
330
44F
100
AcDbEntity
  8
Defpoints
 62
     0
440
 16777216
100
AcDbPoint
 10
744.6233605010425
 20
987.5925837389909
 30
0.0
  0
ENDBLK
  5
457
330
44F
100
AcDbEntity
  8
0
100
AcDbBlockEnd
  0
BLOCK
  5
460
330
45F
100
AcDbEntity
  8
0
100
AcDbBlockBegin
  2
*D21
 70
     1
 10
0.0
 20
0.0
 30
0.0
  3
*D21
  1

  0
LINE
  5
108A
330
45F
100
AcDbEntity
  8
C寸法
 62
     0
440
 16777216
370
    -2
100
AcDbLine
 10
709.5172495478742
 20
800.8771137889649
 30
0.0
 11
786.7672495478805
 21
800.8771137889645
 31
0.0
  0
LINE
  5
108B
330
45F
100
AcDbEntity
  8
C寸法
 62
     0
440
 16777216
370
    -2
100
AcDbLine
 10
786.7672495478805
 20
800.8771137889645
 30
0.0
 11
818.9910290370333
 21
864.6455093765545
 31
0.0
  0
MTEXT
  5
108C
330
45F
100
AcDbEntity
  8
C寸法
 62
     0
440
 16777216
370
    18
100
AcDbMText
 10
743.0172495478741
 20
818.3771137889646
 30
0.0
 40
21.0
 41
0.0
 46
0.0
 71
     5
 72
     1
  1
\A1;∅181
  7
KANJI
 73
     1
 44
1.0
  0
INSERT
  5
108D
330
45F
100
AcDbEntity
  8
C寸法
 62
     0
440
 16777216
370
    -2
100
AcDbBlockReference
  2
_OPEN
 10
828.4622778629096
 20
883.3883865750621
 30
0.0
 41
21.0
 42
21.0
 43
21.0
 50
63.19137832668653
  0
POINT
  5
108E
330
45F
100
AcDbEntity
  8
Defpoints
 62
     0
440
 16777216
100
AcDbPoint
 10
828.4622778629096
 20
883.3883865750621
 30
0.0
  0
POINT
  5
108F
330
45F
100
AcDbEntity
  8
Defpoints
 62
     0
440
 16777216
100
AcDbPoint
 10
910.0954225049914
 20
1044.93413766697
 30
0.0
  0
ENDBLK
  5
461
330
45F
100
AcDbEntity
  8
0
100
AcDbBlockEnd
  0
BLOCK
  5
471
330
46E
100
AcDbEntity
  8
0
100
AcDbBlockBegin
  2
A$C4E673540
 70
     0
 10
0.0
 20
0.0
 30
0.0
  3
A$C4E673540
  1

  0
LINE
  5
CE9
330
46E
100
AcDbEntity
  8
C4
  6
HIDDEN
 62
     0
 48
20.0
100
AcDbLine
 10
4.000011268075468
 20
9.999993748500854
 30
0.0
 11
232.0000112680755
 21
9.999993748500854
 31
0.0
1001
AcDbBlockRepETag
1070
     1
1071
        0
1005
CE9
  0
LINE
  5
CEA
330
46E
100
AcDbEntity
  8
C4
  6
HIDDEN
 62
     0
 48
20.0
100
AcDbLine
 10
4.000011268075468
 20
7.999993748500854
 30
0.0
 11
232.0000112680755
 21
7.999993748500854
 31
0.0
1001
AcDbBlockRepETag
1070
     1
1071
        1
1005
CEA
  0
ARC
  5
CEB
330
46E
100
AcDbEntity
  8
C4
  6
HIDDEN
 62
     0
 48
20.0
100
AcDbCircle
 10
4.000011268075468
 20
5.999993748500854
 30
0.0
 40
2.0
100
AcDbArc
 50
90.0
 51
180.0
1001
AcDbBlockRepETag
1070
     1
1071
        2
1005
CEB
  0
ARC
  5
CEC
330
46E
100
AcDbEntity
  8
C4
  6
HIDDEN
 62
     0
 48
20.0
100
AcDbCircle
 10
4.000011268075468
 20
5.999993748500854
 30
0.0
 40
4.0
100
AcDbArc
 50
90.0
 51
180.0
1001
AcDbBlockRepETag
1070
     1
1071
        3
1005
CEC
  0
LINE
  5
CED
330
46E
100
AcDbEntity
  8
C4
  6
HIDDEN
 62
     0
 48
20.0
100
AcDbLine
 10
0.0000112680754683
 20
-0.0000062514991441
 30
0.0
 11
0.0000112680754683
 21
5.999993748500854
 31
0.0
1001
AcDbBlockRepETag
1070
     1
1071
        4
1005
CED
  0
LINE
  5
CEE
330
46E
100
AcDbEntity
  8
C4
  6
HIDDEN
 62
     0
 48
20.0
100
AcDbLine
 10
2.000011268075466
 20
-0.0000062514991441
 30
0.0
 11
2.000011268075466
 21
5.999993748500854
 31
0.0
1001
AcDbBlockRepETag
1070
     1
1071
        5
1005
CEE
  0
LINE
  5
CEF
330
46E
100
AcDbEntity
  8
C4
  6
HIDDEN
 62
     0
 48
20.0
100
AcDbLine
 10
236.0000112680755
 20
5.999993748500854
 30
0.0
 11
236.0000112680755
 21
-0.0000062514991441
 31
0.0
1001
AcDbBlockRepETag
1070
     1
1071
        6
1005
CEF
  0
LINE
  5
CF0
330
46E
100
AcDbEntity
  8
C4
  6
HIDDEN
 62
     0
 48
20.0
100
AcDbLine
 10
234.0000112680755
 20
5.999993748500854
 30
0.0
 11
234.0000112680755
 21
-0.0000062514991441
 31
0.0
1001
AcDbBlockRepETag
1070
     1
1071
        7
1005
CF0
  0
ARC
  5
CF1
330
46E
100
AcDbEntity
  8
C4
  6
HIDDEN
 62
     0
 48
20.0
100
AcDbCircle
 10
232.0000112680755
 20
5.999993748500854
 30
0.0
 40
2.0
100
AcDbArc
 50
0.0
 51
90.0
1001
AcDbBlockRepETag
1070
     1
1071
        8
1005
CF1
  0
ARC
  5
CF2
330
46E
100
AcDbEntity
  8
C4
  6
HIDDEN
 62
     0
 48
20.0
100
AcDbCircle
 10
232.0000112680755
 20
5.999993748500854
 30
0.0
 40
4.0
100
AcDbArc
 50
0.0
 51
90.0
1001
AcDbBlockRepETag
1070
     1
1071
        9
1005
CF2
  0
LINE
  5
CF3
330
46E
100
AcDbEntity
  8
C4
  6
HIDDEN
 62
     0
 48
20.0
100
AcDbLine
 10
0.0000112680754683
 20
-0.0000062514991441
 30
0.0
 11
2.000011268075466
 21
-0.0000062514991441
 31
0.0
1001
AcDbBlockRepETag
1070
     1
1071
       10
1005
CF3
  0
LINE
  5
CF4
330
46E
100
AcDbEntity
  8
C4
  6
HIDDEN
 62
     0
 48
20.0
100
AcDbLine
 10
236.0000112680755
 20
-0.0000062514991441
 30
0.0
 11
234.0000112680755
 21
-0.0000062514991441
 31
0.0
1001
AcDbBlockRepETag
1070
     1
1071
       11
1005
CF4
  0
LINE
  5
CF5
330
46E
100
AcDbEntity
  8
C4
  6
HIDDEN
 62
     0
 48
20.0
100
AcDbLine
 10
216.0000112680755
 20
-0.0000062515027821
 30
0.0
 11
124.5000112680754
 21
-0.0000062515027821
 31
0.0
1001
AcDbBlockRepETag
1070
     1
1071
       12
1005
CF5
  0
LINE
  5
CF6
330
46E
100
AcDbEntity
  8
C4
  6
HIDDEN
 62
     0
 48
20.0
100
AcDbLine
 10
111.5000112680754
 20
-0.0000062515027821
 30
0.0
 11
20.00001126807547
 21
-0.0000062515027821
 31
0.0
1001
AcDbBlockRepETag
1070
     1
1071
       13
1005
CF6
  0
ARC
  5
CF7
330
46E
100
AcDbEntity
  8
C4
  6
HIDDEN
 62
     0
 48
20.0
100
AcDbCircle
 10
20.00001126807547
 20
4.999993748497217
 30
0.0
 40
5.0
100
AcDbArc
 50
180.0
 51
270.0
1001
AcDbBlockRepETag
1070
     1
1071
       14
1005
CF7
  0
LINE
  5
CF8
330
46E
100
AcDbEntity
  8
C4
  6
HIDDEN
 62
     0
 48
20.0
100
AcDbLine
 10
15.00001126807547
 20
4.999993748497217
 30
0.0
 11
15.00001126807547
 21
7.999993748500854
 31
0.0
1001
AcDbBlockRepETag
1070
     1
1071
       15
1005
CF8
  0
ARC
  5
CF9
330
46E
100
AcDbEntity
  8
C4
  6
HIDDEN
 62
     0
 48
20.0
100
AcDbCircle
 10
216.0000112680755
 20
4.999993748497217
 30
0.0
 40
5.0
100
AcDbArc
 50
270.0
 51
0.0
1001
AcDbBlockRepETag
1070
     1
1071
       16
1005
CF9
  0
LINE
  5
CFA
330
46E
100
AcDbEntity
  8
C4
  6
HIDDEN
 62
     0
 48
20.0
100
AcDbLine
 10
221.0000112680755
 20
4.999993748497217
 30
0.0
 11
221.0000112680755
 21
7.999993748500854
 31
0.0
1001
AcDbBlockRepETag
1070
     1
1071
       17
1005
CFA
  0
ARC
  5
CFB
330
46E
100
AcDbEntity
  8
C4
  6
HIDDEN
 62
     0
 48
20.0
100
AcDbCircle
 10
118.0000112680754
 20
-0.0000062515027821
 30
0.0
 40
6.5
100
AcDbArc
 50
0.0
 51
180.0
1001
AcDbBlockRepETag
1070
     1
1071
       18
1005
CFB
  0
ENDBLK
  5
485
330
46E
100
AcDbEntity
  8
0
100
AcDbBlockEnd
  0
BLOCK
  5
489
330
486
100
AcDbEntity
  8
0
100
AcDbBlockBegin
  2
A$C1E474562
 70
     0
 10
0.0
 20
0.0
 30
0.0
  3
A$C1E474562
  1

  0
LINE
  5
D06
330
486
100
AcDbEntity
  8
C4
  6
HIDDEN
 62
     0
 48
20.0
100
AcDbLine
 10
12.00001126807547
 20
87.99999917199604
 30
0.0
 11
224.0000112680755
 21
87.99999917199604
 31
0.0
1001
AcDbBlockRepETag
1070
     1
1071
        0
1005
D06
  0
LINE
  5
D07
330
486
100
AcDbEntity
  8
C4
  6
HIDDEN
 62
     0
 48
20.0
100
AcDbLine
 10
12.50001126807547
 20
77.99999917199603
 30
0.0
 11
223.5000112680755
 21
77.99999917199603
 31
0.0
1001
AcDbBlockRepETag
1070
     1
1071
        1
1005
D07
  0
LINE
  5
D08
330
486
100
AcDbEntity
  8
C4
  6
HIDDEN
 62
     0
 48
20.0
100
AcDbLine
 10
12.50001126807547
 20
72.99999917199603
 30
0.0
 11
223.5000112680755
 21
72.99999917199603
 31
0.0
1001
AcDbBlockRepETag
1070
     1
1071
        2
1005
D08
  0
ARC
  5
D09
330
486
100
AcDbEntity
  8
C4
  6
HIDDEN
 62
     0
 48
20.0
100
AcDbCircle
 10
12.00001126807547
 20
75.99999917199601
 30
0.0
 40
10.0
100
AcDbArc
 50
90.0
 51
180.0
1001
AcDbBlockRepETag
1070
     1
1071
        3
1005
D09
  0
LINE
  5
D0A
330
486
100
AcDbEntity
  8
C4
  6
HIDDEN
 62
     0
 48
20.0
100
AcDbLine
 10
236.0000112680755
 20
75.99999917199601
 30
0.0
 11
236.0000112680755
 21
-0.0000008280039765
 31
0.0
1001
AcDbBlockRepETag
1070
     1
1071
        4
1005
D0A
  0
ARC
  5
D0B
330
486
100
AcDbEntity
  8
C4
  6
HIDDEN
 62
     0
 48
20.0
100
AcDbCircle
 10
224.0000112680755
 20
75.99999917199601
 30
0.0
 40
10.0
100
AcDbArc
 50
0.0
 51
90.0
1001
AcDbBlockRepETag
1070
     1
1071
        5
1005
D0B
  0
LINE
  5
D0C
330
486
100
AcDbEntity
  8
C4
  6
HIDDEN
 62
     0
 48
20.0
100
AcDbLine
 10
236.0000112680755
 20
-0.0000008280039765
 30
0.0
 11
0.0000112680754683
 21
-0.0000008280039765
 31
0.0
1001
AcDbBlockRepETag
1070
     1
1071
        6
1005
D0C
  0
LINE
  5
D0D
330
486
100
AcDbEntity
  8
C4
  6
HIDDEN
 62
     0
 48
20.0
100
AcDbLine
 10
223.5000112680755
 20
9.999999171996023
 30
0.0
 11
12.50001126807547
 21
9.999999171996023
 31
0.0
1001
AcDbBlockRepETag
1070
     1
1071
        7
1005
D0D
  0
LINE
  5
D0E
330
486
100
AcDbEntity
  8
C4
  6
HIDDEN
 62
     0
 48
20.0
100
AcDbLine
 10
223.5000112680755
 20
14.99999917199602
 30
0.0
 11
12.50001126807547
 21
14.99999917199602
 31
0.0
1001
AcDbBlockRepETag
1070
     1
1071
        8
1005
D0E
  0
LINE
  5
D0F
330
486
100
AcDbEntity
  8
C4
  6
HIDDEN
 62
     0
 48
20.0
100
AcDbLine
 10
0.0000112680754683
 20
-0.0000008280039765
 30
0.0
 11
0.0000112680754683
 21
75.99999917199601
 31
0.0
1001
AcDbBlockRepETag
1070
     1
1071
        9
1005
D0F
  0
ARC
  5
D10
330
486
100
AcDbEntity
  8
C4
  6
HIDDEN
 62
     0
 48
20.0
100
AcDbCircle
 10
12.50001126807547
 20
75.49999917199603
 30
0.0
 40
2.5
100
AcDbArc
 50
90.0
 51
270.0
1001
AcDbBlockRepETag
1070
     1
1071
       10
1005
D10
  0
ARC
  5
D11
330
486
100
AcDbEntity
  8
C4
  6
HIDDEN
 62
     0
 48
20.0
100
AcDbCircle
 10
12.50001126807547
 20
12.49999917199602
 30
0.0
 40
2.5
100
AcDbArc
 50
90.0
 51
270.0
1001
AcDbBlockRepETag
1070
     1
1071
       11
1005
D11
  0
ARC
  5
D12
330
486
100
AcDbEntity
  8
C4
  6
HIDDEN
 62
     0
 48
20.0
100
AcDbCircle
 10
223.5000112680755
 20
75.49999917199603
 30
0.0
 40
2.5
100
AcDbArc
 50
270.0
 51
90.0
1001
AcDbBlockRepETag
1070
     1
1071
       12
1005
D12
  0
ARC
  5
D13
330
486
100
AcDbEntity
  8
C4
  6
HIDDEN
 62
     0
 48
20.0
100
AcDbCircle
 10
223.5000112680755
 20
12.49999917199602
 30
0.0
 40
2.5
100
AcDbArc
 50
270.0
 51
90.0
1001
AcDbBlockRepETag
1070
     1
1071
       13
1005
D13
  0
LINE
  5
D14
330
486
100
AcDbEntity
  8
C4
  6
HIDDEN
 62
     0
 48
20.0
100
AcDbLine
 10
223.5000112680755
 20
62.99999917199603
 30
0.0
 11
12.50001126807547
 21
62.99999917199603
 31
0.0
1001
AcDbBlockRepETag
1070
     1
1071
       14
1005
D14
  0
LINE
  5
D15
330
486
100
AcDbEntity
  8
C4
  6
HIDDEN
 62
     0
 48
20.0
100
AcDbLine
 10
223.5000112680755
 20
67.99999917199603
 30
0.0
 11
12.50001126807547
 21
67.99999917199603
 31
0.0
1001
AcDbBlockRepETag
1070
     1
1071
       15
1005
D15
  0
ARC
  5
D16
330
486
100
AcDbEntity
  8
C4
  6
HIDDEN
 62
     0
 48
20.0
100
AcDbCircle
 10
12.50001126807547
 20
65.49999917199603
 30
0.0
 40
2.5
100
AcDbArc
 50
90.0
 51
270.0
1001
AcDbBlockRepETag
1070
     1
1071
       16
1005
D16
  0
ARC
  5
D17
330
486
100
AcDbEntity
  8
C4
  6
HIDDEN
 62
     0
 48
20.0
100
AcDbCircle
 10
223.5000112680755
 20
65.49999917199603
 30
0.0
 40
2.5
100
AcDbArc
 50
270.0
 51
90.0
1001
AcDbBlockRepETag
1070
     1
1071
       17
1005
D17
  0
LINE
  5
D18
330
486
100
AcDbEntity
  8
C寸法
  6
HIDDEN
 62
     0
 48
20.0
100
AcDbLine
 10
2.000011268075466
 20
75.99999917199601
 30
0.0
 11
0.0000112680754683
 21
75.99999917199601
 31
0.0
1001
AcDbBlockRepETag
1070
     1
1071
       18
1005
D18
  0
LINE
  5
D19
330
486
100
AcDbEntity
  8
C寸法
  6
HIDDEN
 62
     0
 48
20.0
100
AcDbLine
 10
12.00001126807547
 20
85.99999917199601
 30
0.0
 11
12.00001126807547
 21
87.99999917199604
 31
0.0
1001
AcDbBlockRepETag
1070
     1
1071
       19
1005
D19
  0
LINE
  5
D1A
330
486
100
AcDbEntity
  8
C寸法
  6
HIDDEN
 62
     0
 48
20.0
100
AcDbLine
 10
224.0000112680755
 20
85.99999917199601
 30
0.0
 11
224.0000112680755
 21
87.99999917199604
 31
0.0
1001
AcDbBlockRepETag
1070
     1
1071
       20
1005
D1A
  0
LINE
  5
D1B
330
486
100
AcDbEntity
  8
C寸法
  6
HIDDEN
 62
     0
 48
20.0
100
AcDbLine
 10
234.0000112680755
 20
75.99999917199601
 30
0.0
 11
236.0000112680755
 21
75.99999917199601
 31
0.0
1001
AcDbBlockRepETag
1070
     1
1071
       21
1005
D1B
  0
ENDBLK
  5
4A0
330
486
100
AcDbEntity
  8
0
100
AcDbBlockEnd
  0
BLOCK
  5
4A4
330
4A1
100
AcDbEntity
  8
0
100
AcDbBlockBegin
  2
A$C04E33B21
 70
     0
 10
0.0
 20
0.0
 30
0.0
  3
A$C04E33B21
  1

  0
LINE
  5
D24
330
4A1
100
AcDbEntity
  8
C4
  6
HIDDEN
 62
     0
 48
20.0
100
AcDbLine
 10
-0.0000127284765767
 20
0.0000020203970053
 30
0.0
 11
-0.0000127284765767
 21
84.00000202039699
 31
0.0
1001
AcDbBlockRepETag
1070
     1
1071
        0
1005
D24
  0
LINE
  5
D25
330
4A1
100
AcDbEntity
  8
C4
  6
HIDDEN
 62
     0
 48
20.0
100
AcDbLine
 10
1.999987271523423
 20
78.00000202040064
 30
0.0
 11
1.999987271523423
 21
84.00000202039699
 31
0.0
1001
AcDbBlockRepETag
1070
     1
1071
        1
1005
D25
  0
LINE
  5
D26
330
4A1
100
AcDbEntity
  8
C4
  6
HIDDEN
 62
     0
 48
20.0
100
AcDbLine
 10
4.999987271532518
 20
0.0000020204079192
 30
0.0
 11
-0.0000127284765767
 21
0.0000020203970053
 31
0.0
1001
AcDbBlockRepETag
1070
     1
1071
        2
1005
D26
  0
LINE
  5
D27
330
4A1
100
AcDbEntity
  8
C4
  6
HIDDEN
 62
     0
 48
20.0
100
AcDbLine
 10
3.999987271523423
 20
88.00000202039703
 30
0.0
 11
9.999987271523425
 21
88.00000202039703
 31
0.0
1001
AcDbBlockRepETag
1070
     1
1071
        3
1005
D27
  0
LINE
  5
D28
330
4A1
100
AcDbEntity
  8
C4
  6
HIDDEN
 62
     0
 48
20.0
100
AcDbLine
 10
3.999987271523423
 20
86.000002020397
 30
0.0
 11
9.999987271523425
 21
86.000002020397
 31
0.0
1001
AcDbBlockRepETag
1070
     1
1071
        4
1005
D28
  0
ARC
  5
D29
330
4A1
100
AcDbEntity
  8
C4
  6
HIDDEN
 62
     0
 48
20.0
100
AcDbCircle
 10
3.999987271523423
 20
84.00000202039699
 30
0.0
 40
2.0
100
AcDbArc
 50
90.0
 51
180.0
1001
AcDbBlockRepETag
1070
     1
1071
        5
1005
D29
  0
ARC
  5
D2A
330
4A1
100
AcDbEntity
  8
C4
  6
HIDDEN
 62
     0
 48
20.0
100
AcDbCircle
 10
3.999987271523423
 20
84.00000202039699
 30
0.0
 40
4.0
100
AcDbArc
 50
90.0
 51
180.0
1001
AcDbBlockRepETag
1070
     1
1071
        6
1005
D2A
  0
LINE
  5
D2B
330
4A1
100
AcDbEntity
  8
C4
  6
HIDDEN
 62
     0
 48
20.0
100
AcDbLine
 10
9.999987271523425
 20
88.00000202039703
 30
0.0
 11
9.999987271523425
 21
86.000002020397
 31
0.0
1001
AcDbBlockRepETag
1070
     1
1071
        7
1005
D2B
  0
LINE
  5
D2C
330
4A1
100
AcDbEntity
  8
C4
  6
HIDDEN
 62
     0
 48
20.0
100
AcDbLine
 10
9.999987271523425
 20
73.00000202039702
 30
0.0
 11
9.999987271523425
 21
36.50000202039701
 31
0.0
1001
AcDbBlockRepETag
1070
     1
1071
        8
1005
D2C
  0
LINE
  5
D2D
330
4A1
100
AcDbEntity
  8
C4
  6
HIDDEN
 62
     0
 48
20.0
100
AcDbLine
 10
9.999987271523425
 20
23.50000202039701
 30
0.0
 11
9.999987271523425
 21
5.000002020404281
 31
0.0
1001
AcDbBlockRepETag
1070
     1
1071
        9
1005
D2D
  0
ARC
  5
D2E
330
4A1
100
AcDbEntity
  8
C4
  6
HIDDEN
 62
     0
 48
20.0
100
AcDbCircle
 10
4.999987271523422
 20
73.00000202039702
 30
0.0
 40
5.0
100
AcDbArc
 50
0.0
 51
90.0
1001
AcDbBlockRepETag
1070
     1
1071
       10
1005
D2E
  0
ARC
  5
D2F
330
4A1
100
AcDbEntity
  8
C4
  6
HIDDEN
 62
     0
 48
20.0
100
AcDbCircle
 10
4.999987271523422
 20
5.000002020404281
 30
0.0
 40
5.0
100
AcDbArc
 50
270.0000000001042
 51
0.0
1001
AcDbBlockRepETag
1070
     1
1071
       11
1005
D2F
  0
LINE
  5
D30
330
4A1
100
AcDbEntity
  8
C4
  6
HIDDEN
 62
     0
 48
20.0
100
AcDbLine
 10
4.999987271523422
 20
78.00000202039702
 30
0.0
 11
-0.0000127284765767
 21
78.00000202039702
 31
0.0
1001
AcDbBlockRepETag
1070
     1
1071
       12
1005
D30
  0
ARC
  5
D31
330
4A1
100
AcDbEntity
  8
C4
  6
HIDDEN
 62
     0
 48
20.0
100
AcDbCircle
 10
9.999987271523425
 20
30.000002020397
 30
0.0
 40
6.5
100
AcDbArc
 50
90.0
 51
270.0
1001
AcDbBlockRepETag
1070
     1
1071
       13
1005
D31
  0
ENDBLK
  5
4B3
330
4A1
100
AcDbEntity
  8
0
100
AcDbBlockEnd
  0
BLOCK
  5
4B5
330
4B4
100
AcDbEntity
  8
0
100
AcDbBlockBegin
  2
*D25
 70
     1
 10
0.0
 20
0.0
 30
0.0
  3
*D25
  1

  0
LINE
  5
4B6
330
4B4
100
AcDbEntity
  8
C寸法
 62
     0
440
 16777216
370
    -2
100
AcDbLine
 10
4691.31575119567
 20
-2281.385103055686
 30
0.0
 11
4671.655345378812
 21
-2281.385103055686
 31
0.0
  0
LINE
  5
4B7
330
4B4
100
AcDbEntity
  8
C寸法
 62
     0
440
 16777216
370
    -2
100
AcDbLine
 10
4691.31575119567
 20
-2271.385103055687
 30
0.0
 11
4671.655345378812
 21
-2271.385103055687
 31
0.0
  0
LINE
  5
4B8
330
4B4
100
AcDbEntity
  8
C寸法
 62
     0
440
 16777216
370
    -2
100
AcDbLine
 10
4678.655345378813
 20
-2302.385103055686
 30
0.0
 11
4678.655345378813
 21
-2323.385103055686
 31
0.0
  0
LINE
  5
4B9
330
4B4
100
AcDbEntity
  8
C寸法
 62
     0
440
 16777216
370
    -2
100
AcDbLine
 10
4678.655345378813
 20
-2250.385103055686
 30
0.0
 11
4678.655345378813
 21
-2190.885103055686
 31
0.0
  0
INSERT
  5
4BA
330
4B4
100
AcDbEntity
  8
C寸法
 62
     0
440
 16777216
370
    -2
100
AcDbBlockReference
  2
_OPEN
 10
4678.655345378813
 20
-2281.385103055686
 30
0.0
 41
21.0
 42
21.0
 43
21.0
 50
90.0
  0
INSERT
  5
4BB
330
4B4
100
AcDbEntity
  8
C寸法
 62
     0
440
 16777216
370
    -2
100
AcDbBlockReference
  2
_OPEN
 10
4678.655345378813
 20
-2271.385103055687
 30
0.0
 41
21.0
 42
21.0
 43
21.0
 50
270.0
  0
MTEXT
  5
4BC
330
4B4
100
AcDbEntity
  8
C寸法
 62
     0
440
 16777216
100
AcDbMText
 10
4661.155345378811
 20
-2210.135103055687
 30
0.0
 40
21.0
 41
0.0
 46
0.0
 71
     5
 72
     1
  1
\A1;10
 11
0.0000000000000001
 21
1.0
 31
0.0
 73
     1
 44
1.0
  0
POINT
  5
4BD
330
4B4
100
AcDbEntity
  8
Defpoints
 62
     0
440
 16777216
100
AcDbPoint
 10
4705.31575119567
 20
-2281.385103055686
 30
0.0
  0
POINT
  5
4BE
330
4B4
100
AcDbEntity
  8
Defpoints
 62
     0
440
 16777216
100
AcDbPoint
 10
4705.31575119567
 20
-2271.385103055687
 30
0.0
  0
POINT
  5
4BF
330
4B4
100
AcDbEntity
  8
Defpoints
 62
     0
440
 16777216
100
AcDbPoint
 10
4678.655345378813
 20
-2271.385103055687
 30
0.0
  0
ENDBLK
  5
4C0
330
4B4
100
AcDbEntity
  8
0
100
AcDbBlockEnd
  0
BLOCK
  5
4C2
330
4C1
100
AcDbEntity
  8
0
100
AcDbBlockBegin
  2
*D26
 70
     1
 10
0.0
 20
0.0
 30
0.0
  3
*D26
  1

  0
LINE
  5
4C3
330
4C1
100
AcDbEntity
  8
C寸法
 62
     0
440
 16777216
370
    -2
100
AcDbLine
 10
4471.315751195655
 20
-2286.385103055686
 30
0.0
 11
4456.113478679593
 21
-2286.385103055686
 31
0.0
  0
LINE
  5
4C4
330
4C1
100
AcDbEntity
  8
C寸法
 62
     0
440
 16777216
370
    -2
100
AcDbLine
 10
4471.315751195655
 20
-2271.385103055687
 30
0.0
 11
4456.113478679593
 21
-2271.385103055687
 31
0.0
  0
LINE
  5
4C5
330
4C1
100
AcDbEntity
  8
C寸法
 62
     0
440
 16777216
370
    -2
100
AcDbLine
 10
4463.113478679594
 20
-2307.385103055686
 30
0.0
 11
4463.113478679594
 21
-2328.385103055686
 31
0.0
  0
LINE
  5
4C6
330
4C1
100
AcDbEntity
  8
C寸法
 62
     0
440
 16777216
370
    -2
100
AcDbLine
 10
4463.113478679594
 20
-2250.385103055686
 30
0.0
 11
4463.113478679594
 21
-2187.385103055686
 31
0.0
  0
INSERT
  5
4C7
330
4C1
100
AcDbEntity
  8
C寸法
 62
     0
440
 16777216
370
    -2
100
AcDbBlockReference
  2
_OPEN
 10
4463.113478679594
 20
-2286.385103055686
 30
0.0
 41
21.0
 42
21.0
 43
21.0
 50
90.0
  0
INSERT
  5
4C8
330
4C1
100
AcDbEntity
  8
C寸法
 62
     0
440
 16777216
370
    -2
100
AcDbBlockReference
  2
_OPEN
 10
4463.113478679594
 20
-2271.385103055687
 30
0.0
 41
21.0
 42
21.0
 43
21.0
 50
270.0
  0
MTEXT
  5
4C9
330
4C1
100
AcDbEntity
  8
C寸法
 62
     0
440
 16777216
100
AcDbMText
 10
4445.613478679592
 20
-2208.385103055687
 30
0.0
 40
21.0
 41
0.0
 46
0.0
 71
     5
 72
     1
  1
\A1;15
 11
0.0000000000000001
 21
1.0
 31
0.0
 73
     1
 44
1.0
  0
POINT
  5
4CA
330
4C1
100
AcDbEntity
  8
Defpoints
 62
     0
440
 16777216
100
AcDbPoint
 10
4485.315751195655
 20
-2286.385103055686
 30
0.0
  0
POINT
  5
4CB
330
4C1
100
AcDbEntity
  8
Defpoints
 62
     0
440
 16777216
100
AcDbPoint
 10
4485.315751195655
 20
-2271.385103055687
 30
0.0
  0
POINT
  5
4CC
330
4C1
100
AcDbEntity
  8
Defpoints
 62
     0
440
 16777216
100
AcDbPoint
 10
4463.113478679594
 20
-2271.385103055687
 30
0.0
  0
ENDBLK
  5
4CD
330
4C1
100
AcDbEntity
  8
0
100
AcDbBlockEnd
  0
BLOCK
  5
4CF
330
4CE
100
AcDbEntity
  8
0
100
AcDbBlockBegin
  2
*D27
 70
     1
 10
0.0
 20
0.0
 30
0.0
  3
*D27
  1

  0
LINE
  5
4D0
330
4CE
100
AcDbEntity
  8
C寸法
 62
     0
440
 16777216
370
    -2
100
AcDbLine
 10
3893.850339096654
 20
-2286.385103055686
 30
0.0
 11
3897.331667228215
 21
-2286.385103055686
 31
0.0
  0
LINE
  5
4D1
330
4CE
100
AcDbEntity
  8
C寸法
 62
     0
440
 16777216
370
    -2
100
AcDbLine
 10
3893.850339096654
 20
-2271.385103055687
 30
0.0
 11
3897.331667228215
 21
-2271.385103055687
 31
0.0
  0
LINE
  5
4D2
330
4CE
100
AcDbEntity
  8
C寸法
 62
     0
440
 16777216
370
    -2
100
AcDbLine
 10
3904.331667228215
 20
-2307.385103055686
 30
0.0
 11
3904.331667228215
 21
-2328.385103055686
 31
0.0
  0
LINE
  5
4D3
330
4CE
100
AcDbEntity
  8
C寸法
 62
     0
440
 16777216
370
    -2
100
AcDbLine
 10
3904.331667228215
 20
-2250.385103055686
 30
0.0
 11
3904.331667228215
 21
-2178.385103055686
 31
0.0
  0
INSERT
  5
4D4
330
4CE
100
AcDbEntity
  8
C寸法
 62
     0
440
 16777216
370
    -2
100
AcDbBlockReference
  2
_OPEN
 10
3904.331667228215
 20
-2286.385103055686
 30
0.0
 41
21.0
 42
21.0
 43
21.0
 50
90.0
  0
INSERT
  5
4D5
330
4CE
100
AcDbEntity
  8
C寸法
 62
     0
440
 16777216
370
    -2
100
AcDbBlockReference
  2
_OPEN
 10
3904.331667228215
 20
-2271.385103055687
 30
0.0
 41
21.0
 42
21.0
 43
21.0
 50
270.0
  0
MTEXT
  5
4D6
330
4CE
100
AcDbEntity
  8
C寸法
 62
     0
440
 16777216
100
AcDbMText
 10
3886.831667228213
 20
-2199.385103055687
 30
0.0
 40
21.0
 41
0.0
 46
0.0
 71
     5
 72
     1
  1
\A1;15
 11
0.0000000000000001
 21
1.0
 31
0.0
 73
     1
 44
1.0
  0
POINT
  5
4D7
330
4CE
100
AcDbEntity
  8
Defpoints
 62
     0
440
 16777216
100
AcDbPoint
 10
3907.850339096654
 20
-2286.385103055686
 30
0.0
  0
POINT
  5
4D8
330
4CE
100
AcDbEntity
  8
Defpoints
 62
     0
440
 16777216
100
AcDbPoint
 10
3907.850339096654
 20
-2271.385103055687
 30
0.0
  0
POINT
  5
4D9
330
4CE
100
AcDbEntity
  8
Defpoints
 62
     0
440
 16777216
100
AcDbPoint
 10
3904.331667228215
 20
-2271.385103055687
 30
0.0
  0
ENDBLK
  5
4DA
330
4CE
100
AcDbEntity
  8
0
100
AcDbBlockEnd
  0
BLOCK
  5
4DC
330
4DB
100
AcDbEntity
  8
0
100
AcDbBlockBegin
  2
*D28
 70
     1
 10
0.0
 20
0.0
 30
0.0
  3
*D28
  1

  0
LINE
  5
4DD
330
4DB
100
AcDbEntity
  8
C寸法
 62
     0
440
 16777216
370
    -2
100
AcDbLine
 10
5123.694828794731
 20
-1617.411771369503
 30
0.0
 11
5123.694828794731
 21
-1616.696660853749
 31
0.0
  0
LINE
  5
4DE
330
4DB
100
AcDbEntity
  8
C寸法
 62
     0
440
 16777216
370
    -2
100
AcDbLine
 10
5108.694828794734
 20
-1617.411771369503
 30
0.0
 11
5108.694828794734
 21
-1616.696660853749
 31
0.0
  0
LINE
  5
4DF
330
4DB
100
AcDbEntity
  8
C寸法
 62
     0
440
 16777216
370
    -2
100
AcDbLine
 10
5144.694828794733
 20
-1609.696660853749
 30
0.0
 11
5165.694828794734
 21
-1609.696660853749
 31
0.0
  0
LINE
  5
4E0
330
4DB
100
AcDbEntity
  8
C寸法
 62
     0
440
 16777216
370
    -2
100
AcDbLine
 10
5087.694828794734
 20
-1609.696660853749
 30
0.0
 11
5024.694828794732
 21
-1609.696660853749
 31
0.0
  0
INSERT
  5
4E1
330
4DB
100
AcDbEntity
  8
C寸法
 62
     0
440
 16777216
370
    -2
100
AcDbBlockReference
  2
_OPEN
 10
5123.694828794731
 20
-1609.696660853749
 30
0.0
 41
21.0
 42
21.0
 43
21.0
 50
180.0
  0
INSERT
  5
4E2
330
4DB
100
AcDbEntity
  8
C寸法
 62
     0
440
 16777216
370
    -2
100
AcDbBlockReference
  2
_OPEN
 10
5108.694828794734
 20
-1609.696660853749
 30
0.0
 41
21.0
 42
21.0
 43
21.0
  0
MTEXT
  5
4E3
330
4DB
100
AcDbEntity
  8
C寸法
 62
     0
440
 16777216
100
AcDbMText
 10
5045.694828794733
 20
-1592.196660853749
 30
0.0
 40
21.0
 41
0.0
 46
0.0
 71
     5
 72
     1
  1
\A1;15
 73
     1
 44
1.0
  0
POINT
  5
4E4
330
4DB
100
AcDbEntity
  8
Defpoints
 62
     0
440
 16777216
100
AcDbPoint
 10
5123.694828794731
 20
-1603.411771369503
 30
0.0
  0
POINT
  5
4E5
330
4DB
100
AcDbEntity
  8
Defpoints
 62
     0
440
 16777216
100
AcDbPoint
 10
5108.694828794734
 20
-1603.411771369503
 30
0.0
  0
POINT
  5
4E6
330
4DB
100
AcDbEntity
  8
Defpoints
 62
     0
440
 16777216
100
AcDbPoint
 10
5108.694828794734
 20
-1609.696660853749
 30
0.0
  0
ENDBLK
  5
4E7
330
4DB
100
AcDbEntity
  8
0
100
AcDbBlockEnd
  0
BLOCK
  5
4E9
330
4E8
100
AcDbEntity
  8
0
100
AcDbBlockBegin
  2
*D29
 70
     1
 10
0.0
 20
0.0
 30
0.0
  3
*D29
  1

  0
LINE
  5
4EA
330
4E8
100
AcDbEntity
  8
C寸法
 62
     0
440
 16777216
370
    -2
100
AcDbLine
 10
4245.315751195668
 20
-1509.411771369503
 30
0.0
 11
4245.315751195668
 21
-1403.77103336566
 31
0.0
  0
LINE
  5
4EB
330
4E8
100
AcDbEntity
  8
C寸法
 62
     0
440
 16777216
370
    -2
100
AcDbLine
 10
4485.315751195669
 20
-1509.411771369503
 30
0.0
 11
4485.315751195669
 21
-1403.77103336566
 31
0.0
  0
LINE
  5
4EC
330
4E8
100
AcDbEntity
  8
C寸法
 62
     0
440
 16777216
370
    -2
100
AcDbLine
 10
4266.315751195667
 20
-1410.77103336566
 30
0.0
 11
4464.315751195669
 21
-1410.77103336566
 31
0.0
  0
INSERT
  5
4ED
330
4E8
100
AcDbEntity
  8
C寸法
 62
     0
440
 16777216
370
    -2
100
AcDbBlockReference
  2
_OPEN
 10
4245.315751195668
 20
-1410.77103336566
 30
0.0
 41
21.0
 42
21.0
 43
21.0
 50
180.0
  0
INSERT
  5
4EE
330
4E8
100
AcDbEntity
  8
C寸法
 62
     0
440
 16777216
370
    -2
100
AcDbBlockReference
  2
_OPEN
 10
4485.315751195669
 20
-1410.77103336566
 30
0.0
 41
21.0
 42
21.0
 43
21.0
  0
MTEXT
  5
4EF
330
4E8
100
AcDbEntity
  8
C寸法
 62
     0
440
 16777216
100
AcDbMText
 10
4365.315751195669
 20
-1393.27103336566
 30
0.0
 40
21.0
 41
0.0
 46
0.0
 71
     5
 72
     1
  1
\A1;240
 73
     1
 44
1.0
  0
POINT
  5
4F0
330
4E8
100
AcDbEntity
  8
Defpoints
 62
     0
440
 16777216
100
AcDbPoint
 10
4245.315751195668
 20
-1523.411771369503
 30
0.0
  0
POINT
  5
4F1
330
4E8
100
AcDbEntity
  8
Defpoints
 62
     0
440
 16777216
100
AcDbPoint
 10
4485.315751195669
 20
-1523.411771369503
 30
0.0
  0
POINT
  5
4F2
330
4E8
100
AcDbEntity
  8
Defpoints
 62
     0
440
 16777216
100
AcDbPoint
 10
4485.315751195669
 20
-1410.77103336566
 30
0.0
  0
ENDBLK
  5
4F3
330
4E8
100
AcDbEntity
  8
0
100
AcDbBlockEnd
  0
BLOCK
  5
4F5
330
4F4
100
AcDbEntity
  8
0
100
AcDbBlockBegin
  2
*D30
 70
     1
 10
0.0
 20
0.0
 30
0.0
  3
*D30
  1

  0
LINE
  5
4F6
330
4F4
100
AcDbEntity
  8
C寸法
 62
     0
440
 16777216
370
    -2
100
AcDbLine
 10
3785.315751195668
 20
-2017.411771369503
 30
0.0
 11
3785.315751195668
 21
-2126.577905741688
 31
0.0
  0
LINE
  5
4F7
330
4F4
100
AcDbEntity
  8
C寸法
 62
     0
440
 16777216
370
    -2
100
AcDbLine
 10
4705.315751195668
 20
-2017.411771369503
 30
0.0
 11
4705.315751195668
 21
-2126.577905741688
 31
0.0
  0
LINE
  5
4F8
330
4F4
100
AcDbEntity
  8
C寸法
 62
     0
440
 16777216
370
    -2
100
AcDbLine
 10
3806.315751195668
 20
-2119.577905741687
 30
0.0
 11
4684.315751195669
 21
-2119.577905741687
 31
0.0
  0
INSERT
  5
4F9
330
4F4
100
AcDbEntity
  8
C寸法
 62
     0
440
 16777216
370
    -2
100
AcDbBlockReference
  2
_OPEN
 10
3785.315751195668
 20
-2119.577905741687
 30
0.0
 41
21.0
 42
21.0
 43
21.0
 50
180.0
  0
INSERT
  5
4FA
330
4F4
100
AcDbEntity
  8
C寸法
 62
     0
440
 16777216
370
    -2
100
AcDbBlockReference
  2
_OPEN
 10
4705.315751195668
 20
-2119.577905741687
 30
0.0
 41
21.0
 42
21.0
 43
21.0
  0
MTEXT
  5
4FB
330
4F4
100
AcDbEntity
  8
C寸法
 62
     0
440
 16777216
100
AcDbMText
 10
4245.315751195668
 20
-2102.077905741688
 30
0.0
 40
21.0
 41
0.0
 46
0.0
 71
     5
 72
     1
  1
\A1;W
  7
KANJI
 73
     1
 44
1.0
  0
POINT
  5
4FC
330
4F4
100
AcDbEntity
  8
Defpoints
 62
     0
440
 16777216
100
AcDbPoint
 10
3785.315751195668
 20
-2003.411771369503
 30
0.0
  0
POINT
  5
4FD
330
4F4
100
AcDbEntity
  8
Defpoints
 62
     0
440
 16777216
100
AcDbPoint
 10
4705.315751195668
 20
-2003.411771369503
 30
0.0
  0
POINT
  5
4FE
330
4F4
100
AcDbEntity
  8
Defpoints
 62
     0
440
 16777216
100
AcDbPoint
 10
4705.315751195668
 20
-2119.577905741687
 30
0.0
  0
ENDBLK
  5
4FF
330
4F4
100
AcDbEntity
  8
0
100
AcDbBlockEnd
  0
BLOCK
  5
501
330
500
100
AcDbEntity
  8
0
100
AcDbBlockBegin
  2
*D31
 70
     1
 10
0.0
 20
0.0
 30
0.0
  3
*D31
  1

  0
LINE
  5
502
330
500
100
AcDbEntity
  8
C寸法
 62
     0
440
 16777216
370
    -2
100
AcDbLine
 10
4705.315751195668
 20
-2017.411771369503
 30
0.0
 11
4705.315751195668
 21
-2126.577905741688
 31
0.0
  0
LINE
  5
503
330
500
100
AcDbEntity
  8
C寸法
 62
     0
440
 16777216
370
    -2
100
AcDbLine
 10
4730.315751195669
 20
-2052.411771369503
 30
0.0
 11
4730.315751195669
 21
-2126.577905741688
 31
0.0
  0
LINE
  5
504
330
500
100
AcDbEntity
  8
C寸法
 62
     0
440
 16777216
370
    -2
100
AcDbLine
 10
4684.315751195669
 20
-2119.577905741687
 30
0.0
 11
4663.315751195669
 21
-2119.577905741687
 31
0.0
  0
LINE
  5
505
330
500
100
AcDbEntity
  8
C寸法
 62
     0
440
 16777216
370
    -2
100
AcDbLine
 10
4751.315751195669
 20
-2119.577905741687
 30
0.0
 11
4772.315751195669
 21
-2119.577905741687
 31
0.0
  0
LINE
  5
506
330
500
100
AcDbEntity
  8
C寸法
 62
     0
440
 16777216
370
    -2
100
AcDbLine
 10
4833.94945918418
 20
-2119.577905741687
 30
0.0
 11
4730.315751195669
 21
-2119.577905741687
 31
0.0
  0
MTEXT
  5
507
330
500
100
AcDbEntity
  8
C寸法
 62
     0
440
 16777216
100
AcDbMText
 10
4809.449459184179
 20
-2102.077905741688
 30
0.0
 40
21.0
 41
0.0
 46
0.0
 71
     5
 72
     1
  1
\A1;25
 73
     1
 44
1.0
  0
LINE
  5
508
330
500
100
AcDbEntity
  8
C寸法
 62
     0
440
 16777216
370
    -2
100
AcDbLine
 10
4705.315751195668
 20
-2119.577905741687
 30
0.0
 11
4730.315751195669
 21
-2119.577905741687
 31
0.0
  0
LINE
  5
509
330
500
100
AcDbEntity
  8
C寸法
 62
     0
440
 16777216
370
    -2
100
AcDbLine
 10
4705.315751195668
 20
-2119.577905741687
 30
0.0
 11
4730.315751195669
 21
-2119.577905741687
 31
0.0
  0
INSERT
  5
50A
330
500
100
AcDbEntity
  8
C寸法
 62
     0
440
 16777216
370
    -2
100
AcDbBlockReference
  2
_OPEN
 10
4705.315751195668
 20
-2119.577905741687
 30
0.0
 41
21.0
 42
21.0
 43
21.0
  0
INSERT
  5
50B
330
500
100
AcDbEntity
  8
C寸法
 62
     0
440
 16777216
370
    -2
100
AcDbBlockReference
  2
_OPEN
 10
4730.315751195669
 20
-2119.577905741687
 30
0.0
 41
21.0
 42
21.0
 43
21.0
 50
180.0
  0
POINT
  5
50C
330
500
100
AcDbEntity
  8
Defpoints
 62
     0
440
 16777216
100
AcDbPoint
 10
4705.315751195668
 20
-2003.411771369503
 30
0.0
  0
POINT
  5
50D
330
500
100
AcDbEntity
  8
Defpoints
 62
     0
440
 16777216
100
AcDbPoint
 10
4730.315751195669
 20
-2038.411771369503
 30
0.0
  0
POINT
  5
50E
330
500
100
AcDbEntity
  8
Defpoints
 62
     0
440
 16777216
100
AcDbPoint
 10
4730.315751195669
 20
-2119.577905741687
 30
0.0
  0
ENDBLK
  5
50F
330
500
100
AcDbEntity
  8
0
100
AcDbBlockEnd
  0
BLOCK
  5
511
330
510
100
AcDbEntity
  8
0
100
AcDbBlockBegin
  2
*D32
 70
     1
 10
0.0
 20
0.0
 30
0.0
  3
*D32
  1

  0
LINE
  5
512
330
510
100
AcDbEntity
  8
C寸法
 62
     0
440
 16777216
370
    -2
100
AcDbLine
 10
3785.315751195668
 20
-2017.411771369503
 30
0.0
 11
3785.315751195668
 21
-2126.577905741688
 31
0.0
  0
LINE
  5
513
330
510
100
AcDbEntity
  8
C寸法
 62
     0
440
 16777216
370
    -2
100
AcDbLine
 10
3760.315751195668
 20
-2052.411771369503
 30
0.0
 11
3760.315751195668
 21
-2126.577905741688
 31
0.0
  0
LINE
  5
514
330
510
100
AcDbEntity
  8
C寸法
 62
     0
440
 16777216
370
    -2
100
AcDbLine
 10
3806.315751195668
 20
-2119.577905741687
 30
0.0
 11
3827.315751195668
 21
-2119.577905741687
 31
0.0
  0
LINE
  5
515
330
510
100
AcDbEntity
  8
C寸法
 62
     0
440
 16777216
370
    -2
100
AcDbLine
 10
3739.315751195669
 20
-2119.577905741687
 30
0.0
 11
3718.315751195669
 21
-2119.577905741687
 31
0.0
  0
LINE
  5
516
330
510
100
AcDbEntity
  8
C寸法
 62
     0
440
 16777216
370
    -2
100
AcDbLine
 10
3662.554107281585
 20
-2119.577905741687
 30
0.0
 11
3760.315751195668
 21
-2119.577905741687
 31
0.0
  0
MTEXT
  5
517
330
510
100
AcDbEntity
  8
C寸法
 62
     0
440
 16777216
100
AcDbMText
 10
3687.054107281583
 20
-2102.077905741688
 30
0.0
 40
21.0
 41
0.0
 46
0.0
 71
     5
 72
     1
  1
\A1;25
 73
     1
 44
1.0
  0
LINE
  5
518
330
510
100
AcDbEntity
  8
C寸法
 62
     0
440
 16777216
370
    -2
100
AcDbLine
 10
3785.315751195668
 20
-2119.577905741687
 30
0.0
 11
3760.315751195668
 21
-2119.577905741687
 31
0.0
  0
INSERT
  5
519
330
510
100
AcDbEntity
  8
C寸法
 62
     0
440
 16777216
370
    -2
100
AcDbBlockReference
  2
_OPEN
 10
3785.315751195668
 20
-2119.577905741687
 30
0.0
 41
21.0
 42
21.0
 43
21.0
 50
180.0
  0
INSERT
  5
51A
330
510
100
AcDbEntity
  8
C寸法
 62
     0
440
 16777216
370
    -2
100
AcDbBlockReference
  2
_OPEN
 10
3760.315751195668
 20
-2119.577905741687
 30
0.0
 41
21.0
 42
21.0
 43
21.0
  0
POINT
  5
51B
330
510
100
AcDbEntity
  8
Defpoints
 62
     0
440
 16777216
100
AcDbPoint
 10
3785.315751195668
 20
-2003.411771369503
 30
0.0
  0
POINT
  5
51C
330
510
100
AcDbEntity
  8
Defpoints
 62
     0
440
 16777216
100
AcDbPoint
 10
3760.315751195668
 20
-2038.411771369503
 30
0.0
  0
POINT
  5
51D
330
510
100
AcDbEntity
  8
Defpoints
 62
     0
440
 16777216
100
AcDbPoint
 10
3760.315751195668
 20
-2119.577905741687
 30
0.0
  0
ENDBLK
  5
51E
330
510
100
AcDbEntity
  8
0
100
AcDbBlockEnd
  0
BLOCK
  5
520
330
51F
100
AcDbEntity
  8
0
100
AcDbBlockBegin
  2
*D33
 70
     1
 10
0.0
 20
0.0
 30
0.0
  3
*D33
  1

  0
LINE
  5
521
330
51F
100
AcDbEntity
  8
C寸法
 62
     0
440
 16777216
370
    -2
100
AcDbLine
 10
3746.31575119567
 20
-1488.411771369503
 30
0.0
 11
3621.235050506476
 21
-1488.411771369503
 31
0.0
  0
LINE
  5
522
330
51F
100
AcDbEntity
  8
C寸法
 62
     0
440
 16777216
370
    -2
100
AcDbLine
 10
3781.31575119567
 20
-1513.411771369503
 30
0.0
 11
3621.235050506476
 21
-1513.411771369503
 31
0.0
  0
LINE
  5
523
330
51F
100
AcDbEntity
  8
C寸法
 62
     0
440
 16777216
370
    -2
100
AcDbLine
 10
3628.235050506475
 20
-1534.411771369503
 30
0.0
 11
3628.235050506475
 21
-1555.411771369503
 31
0.0
  0
LINE
  5
524
330
51F
100
AcDbEntity
  8
C寸法
 62
     0
440
 16777216
370
    -2
100
AcDbLine
 10
3628.235050506475
 20
-1467.411771369503
 30
0.0
 11
3628.235050506475
 21
-1387.911771369502
 31
0.0
  0
LINE
  5
525
330
51F
100
AcDbEntity
  8
C寸法
 62
     0
440
 16777216
370
    -2
100
AcDbLine
 10
3628.235050506475
 20
-1513.411771369503
 30
0.0
 11
3628.235050506475
 21
-1488.411771369503
 31
0.0
  0
INSERT
  5
526
330
51F
100
AcDbEntity
  8
C寸法
 62
     0
440
 16777216
370
    -2
100
AcDbBlockReference
  2
_OPEN
 10
3628.235050506475
 20
-1513.411771369503
 30
0.0
 41
21.0
 42
21.0
 43
21.0
 50
90.0
  0
INSERT
  5
527
330
51F
100
AcDbEntity
  8
C寸法
 62
     0
440
 16777216
370
    -2
100
AcDbBlockReference
  2
_OPEN
 10
3628.235050506475
 20
-1488.411771369503
 30
0.0
 41
21.0
 42
21.0
 43
21.0
 50
270.0
  0
MTEXT
  5
528
330
51F
100
AcDbEntity
  8
C寸法
 62
     0
440
 16777216
100
AcDbMText
 10
3610.735050506475
 20
-1412.411771369503
 30
0.0
 40
21.0
 41
0.0
 46
0.0
 71
     5
 72
     1
  1
\A1;25
 11
0.0000000000000001
 21
1.0
 31
0.0
 73
     1
 44
1.0
  0
POINT
  5
529
330
51F
100
AcDbEntity
  8
Defpoints
 62
     0
440
 16777216
100
AcDbPoint
 10
3760.31575119567
 20
-1488.411771369503
 30
0.0
  0
POINT
  5
52A
330
51F
100
AcDbEntity
  8
Defpoints
 62
     0
440
 16777216
100
AcDbPoint
 10
3795.31575119567
 20
-1513.411771369503
 30
0.0
  0
POINT
  5
52B
330
51F
100
AcDbEntity
  8
Defpoints
 62
     0
440
 16777216
100
AcDbPoint
 10
3628.235050506475
 20
-1513.411771369503
 30
0.0
  0
ENDBLK
  5
52C
330
51F
100
AcDbEntity
  8
0
100
AcDbBlockEnd
  0
BLOCK
  5
52E
330
52D
100
AcDbEntity
  8
0
100
AcDbBlockBegin
  2
*D34
 70
     1
 10
0.0
 20
0.0
 30
0.0
  3
*D34
  1

  0
LINE
  5
52F
330
52D
100
AcDbEntity
  8
C寸法
 62
     0
440
 16777216
370
    -2
100
AcDbLine
 10
3781.31575119567
 20
-1513.411771369503
 30
0.0
 11
3620.155050506475
 21
-1513.411771369503
 31
0.0
  0
LINE
  5
530
330
52D
100
AcDbEntity
  8
C寸法
 62
     0
440
 16777216
370
    -2
100
AcDbLine
 10
3781.31575119567
 20
-1603.411771369504
 30
0.0
 11
3620.155050506475
 21
-1603.411771369504
 31
0.0
  0
LINE
  5
531
330
52D
100
AcDbEntity
  8
C寸法
 62
     0
440
 16777216
370
    -2
100
AcDbLine
 10
3627.155050506476
 20
-1534.411771369503
 30
0.0
 11
3627.155050506476
 21
-1582.411771369504
 31
0.0
  0
INSERT
  5
532
330
52D
100
AcDbEntity
  8
C寸法
 62
     0
440
 16777216
370
    -2
100
AcDbBlockReference
  2
_OPEN
 10
3627.155050506476
 20
-1513.411771369503
 30
0.0
 41
21.0
 42
21.0
 43
21.0
 50
90.0
  0
INSERT
  5
533
330
52D
100
AcDbEntity
  8
C寸法
 62
     0
440
 16777216
370
    -2
100
AcDbBlockReference
  2
_OPEN
 10
3627.155050506476
 20
-1603.411771369504
 30
0.0
 41
21.0
 42
21.0
 43
21.0
 50
270.0
  0
MTEXT
  5
534
330
52D
100
AcDbEntity
  8
C寸法
 62
     0
440
 16777216
100
AcDbMText
 10
3609.655050506474
 20
-1558.411771369504
 30
0.0
 40
21.0
 41
0.0
 46
0.0
 71
     5
 72
     1
  1
\A1;90
 11
0.0000000000000001
 21
1.0
 31
0.0
 73
     1
 44
1.0
  0
POINT
  5
535
330
52D
100
AcDbEntity
  8
Defpoints
 62
     0
440
 16777216
100
AcDbPoint
 10
3795.31575119567
 20
-1513.411771369503
 30
0.0
  0
POINT
  5
536
330
52D
100
AcDbEntity
  8
Defpoints
 62
     0
440
 16777216
100
AcDbPoint
 10
3795.31575119567
 20
-1603.411771369504
 30
0.0
  0
POINT
  5
537
330
52D
100
AcDbEntity
  8
Defpoints
 62
     0
440
 16777216
100
AcDbPoint
 10
3627.155050506476
 20
-1603.411771369504
 30
0.0
  0
ENDBLK
  5
538
330
52D
100
AcDbEntity
  8
0
100
AcDbBlockEnd
  0
BLOCK
  5
53A
330
539
100
AcDbEntity
  8
0
100
AcDbBlockBegin
  2
*D35
 70
     1
 10
0.0
 20
0.0
 30
0.0
  3
*D35
  1

  0
LINE
  5
53B
330
539
100
AcDbEntity
  8
C寸法
 62
     0
440
 16777216
370
    -2
100
AcDbLine
 10
3781.31575119567
 20
-1603.411771369504
 30
0.0
 11
3620.155050506475
 21
-1603.411771369504
 31
0.0
  0
LINE
  5
53C
330
539
100
AcDbEntity
  8
C寸法
 62
     0
440
 16777216
370
    -2
100
AcDbLine
 10
3781.31575119567
 20
-2013.411771369504
 30
0.0
 11
3620.155050506475
 21
-2013.411771369504
 31
0.0
  0
LINE
  5
53D
330
539
100
AcDbEntity
  8
C寸法
 62
     0
440
 16777216
370
    -2
100
AcDbLine
 10
3627.155050506476
 20
-1624.411771369504
 30
0.0
 11
3627.155050506476
 21
-1992.411771369504
 31
0.0
  0
INSERT
  5
53E
330
539
100
AcDbEntity
  8
C寸法
 62
     0
440
 16777216
370
    -2
100
AcDbBlockReference
  2
_OPEN
 10
3627.155050506476
 20
-1603.411771369504
 30
0.0
 41
21.0
 42
21.0
 43
21.0
 50
90.0
  0
INSERT
  5
53F
330
539
100
AcDbEntity
  8
C寸法
 62
     0
440
 16777216
370
    -2
100
AcDbBlockReference
  2
_OPEN
 10
3627.155050506476
 20
-2013.411771369504
 30
0.0
 41
21.0
 42
21.0
 43
21.0
 50
270.0
  0
MTEXT
  5
540
330
539
100
AcDbEntity
  8
C寸法
 62
     0
440
 16777216
100
AcDbMText
 10
3609.655050506474
 20
-1808.411771369504
 30
0.0
 40
21.0
 41
0.0
 46
0.0
 71
     5
 72
     1
  1
\A1;D
  7
KANJI
 11
0.0000000000000001
 21
1.0
 31
0.0
 73
     1
 44
1.0
  0
POINT
  5
541
330
539
100
AcDbEntity
  8
Defpoints
 62
     0
440
 16777216
100
AcDbPoint
 10
3795.31575119567
 20
-1603.411771369504
 30
0.0
  0
POINT
  5
542
330
539
100
AcDbEntity
  8
Defpoints
 62
     0
440
 16777216
100
AcDbPoint
 10
3795.31575119567
 20
-2013.411771369504
 30
0.0
  0
POINT
  5
543
330
539
100
AcDbEntity
  8
Defpoints
 62
     0
440
 16777216
100
AcDbPoint
 10
3627.155050506476
 20
-2013.411771369504
 30
0.0
  0
ENDBLK
  5
544
330
539
100
AcDbEntity
  8
0
100
AcDbBlockEnd
  0
BLOCK
  5
546
330
545
100
AcDbEntity
  8
0
100
AcDbBlockBegin
  2
*D36
 70
     1
 10
0.0
 20
0.0
 30
0.0
  3
*D36
  1

  0
LINE
  5
547
330
545
100
AcDbEntity
  8
C寸法
 62
     0
440
 16777216
370
    -2
100
AcDbLine
 10
3781.31575119567
 20
-2013.411771369504
 30
0.0
 11
3627.51505050647
 21
-2013.411771369504
 31
0.0
  0
LINE
  5
548
330
545
100
AcDbEntity
  8
C寸法
 62
     0
440
 16777216
370
    -2
100
AcDbLine
 10
3746.31575119567
 20
-2038.411771369504
 30
0.0
 11
3627.51505050647
 21
-2038.411771369504
 31
0.0
  0
LINE
  5
549
330
545
100
AcDbEntity
  8
C寸法
 62
     0
440
 16777216
370
    -2
100
AcDbLine
 10
3634.51505050647
 20
-1992.411771369504
 30
0.0
 11
3634.51505050647
 21
-1971.411771369504
 31
0.0
  0
LINE
  5
54A
330
545
100
AcDbEntity
  8
C寸法
 62
     0
440
 16777216
370
    -2
100
AcDbLine
 10
3634.51505050647
 20
-2059.411771369504
 30
0.0
 11
3634.51505050647
 21
-2138.747581669282
 31
0.0
  0
LINE
  5
54B
330
545
100
AcDbEntity
  8
C寸法
 62
     0
440
 16777216
370
    -2
100
AcDbLine
 10
3634.51505050647
 20
-2013.411771369504
 30
0.0
 11
3634.51505050647
 21
-2038.411771369504
 31
0.0
  0
INSERT
  5
54C
330
545
100
AcDbEntity
  8
C寸法
 62
     0
440
 16777216
370
    -2
100
AcDbBlockReference
  2
_OPEN
 10
3634.51505050647
 20
-2013.411771369504
 30
0.0
 41
21.0
 42
21.0
 43
21.0
 50
270.0
  0
INSERT
  5
54D
330
545
100
AcDbEntity
  8
C寸法
 62
     0
440
 16777216
370
    -2
100
AcDbBlockReference
  2
_OPEN
 10
3634.51505050647
 20
-2038.411771369504
 30
0.0
 41
21.0
 42
21.0
 43
21.0
 50
90.0
  0
MTEXT
  5
54E
330
545
100
AcDbEntity
  8
C寸法
 62
     0
440
 16777216
100
AcDbMText
 10
3617.015050506469
 20
-2114.247581669282
 30
0.0
 40
21.0
 41
0.0
 46
0.0
 71
     5
 72
     1
  1
\A1;25
 11
0.0000000000000001
 21
1.0
 31
0.0
 73
     1
 44
1.0
  0
POINT
  5
54F
330
545
100
AcDbEntity
  8
Defpoints
 62
     0
440
 16777216
100
AcDbPoint
 10
3795.31575119567
 20
-2013.411771369504
 30
0.0
  0
POINT
  5
550
330
545
100
AcDbEntity
  8
Defpoints
 62
     0
440
 16777216
100
AcDbPoint
 10
3760.31575119567
 20
-2038.411771369504
 30
0.0
  0
POINT
  5
551
330
545
100
AcDbEntity
  8
Defpoints
 62
     0
440
 16777216
100
AcDbPoint
 10
3634.51505050647
 20
-2038.411771369504
 30
0.0
  0
ENDBLK
  5
552
330
545
100
AcDbEntity
  8
0
100
AcDbBlockEnd
  0
BLOCK
  5
554
330
553
100
AcDbEntity
  8
0
100
AcDbBlockBegin
  2
*D37
 70
     1
 10
0.0
 20
0.0
 30
0.0
  3
*D37
  1

  0
LINE
  5
555
330
553
100
AcDbEntity
  8
C寸法
 62
     0
440
 16777216
370
    -2
100
AcDbLine
 10
4349.302419958053
 20
-1901.60489365292
 30
0.0
 11
4464.425710224502
 21
-1994.613646134743
 31
0.0
  0
MTEXT
  5
556
330
553
100
AcDbEntity
  8
C寸法
 62
     0
440
 16777216
100
AcDbMText
 10
4406.987054316775
 20
-1922.497068238168
 30
0.0
 40
24.0
 41
0.0
 46
0.0
 71
     5
 72
     1
  1
\A1;8-R10
 11
0.7778600693679385
 21
-0.6284375167690947
 31
0.0
 73
     1
 44
1.0
  0
INSERT
  5
557
330
553
100
AcDbEntity
  8
C寸法
 62
     0
440
 16777216
370
    -2
100
AcDbBlockReference
  2
_OPEN
 10
4483.094351889333
 20
-2009.696146537201
 30
0.0
 41
24.0
 42
24.0
 43
24.0
 50
321.065060795507
  0
POINT
  5
558
330
553
100
AcDbEntity
  8
Defpoints
 62
     0
440
 16777216
100
AcDbPoint
 10
4483.094351889333
 20
-2009.696146537201
 30
0.0
  0
POINT
  5
559
330
553
100
AcDbEntity
  8
Defpoints
 62
     0
440
 16777216
100
AcDbPoint
 10
4475.315751195654
 20
-2003.411771369511
 30
0.0
  0
ENDBLK
  5
55A
330
553
100
AcDbEntity
  8
0
100
AcDbBlockEnd
  0
BLOCK
  5
55C
330
55B
100
AcDbEntity
  8
0
100
AcDbBlockBegin
  2
*D38
 70
     1
 10
0.0
 20
0.0
 30
0.0
  3
*D38
  1

  0
LINE
  5
55D
330
55B
100
AcDbEntity
  8
C寸法
 62
     0
440
 16777216
370
    -2
100
AcDbLine
 10
4166.01531304027
 20
-1741.029545696357
 30
0.0
 11
4264.565640075169
 21
-1687.814575609789
 31
0.0
  0
MTEXT
  5
55E
330
55B
100
AcDbEntity
  8
C寸法
 62
     0
440
 16777216
100
AcDbMText
 10
4195.228839717093
 20
-1702.525391906116
 30
0.0
 40
24.0
 41
0.0
 46
0.0
 71
     5
 72
     1
  1
\A1;∅181
 11
0.8799136342401745
 21
0.4751336614872158
 31
0.0
 73
     1
 44
1.0
  0
INSERT
  5
55F
330
55B
100
AcDbEntity
  8
C寸法
 62
     0
440
 16777216
370
    -2
100
AcDbBlockReference
  2
_OPEN
 10
4285.683567296934
 20
-1676.411367734096
 30
0.0
 41
24.0
 42
24.0
 43
24.0
 50
28.36805306988527
  0
POINT
  5
560
330
55B
100
AcDbEntity
  8
Defpoints
 62
     0
440
 16777216
100
AcDbPoint
 10
4285.683567296934
 20
-1676.411367734096
 30
0.0
  0
POINT
  5
561
330
55B
100
AcDbEntity
  8
Defpoints
 62
     0
440
 16777216
100
AcDbPoint
 10
4444.947935094403
 20
-1590.41217500491
 30
0.0
  0
ENDBLK
  5
562
330
55B
100
AcDbEntity
  8
0
100
AcDbBlockEnd
  0
BLOCK
  5
564
330
563
100
AcDbEntity
  8
0
100
AcDbBlockBegin
  2
*D39
 70
     1
 10
0.0
 20
0.0
 30
0.0
  3
*D39
  1

  0
LINE
  5
565
330
563
100
AcDbEntity
  8
C寸法
 62
     0
440
 16777216
370
    -2
100
AcDbLine
 10
4230.885773712325
 20
-1811.33754565146
 30
0.0
 11
4303.224775048651
 21
-1715.592734378666
 31
0.0
  0
MTEXT
  5
566
330
563
100
AcDbEntity
  8
C寸法
 62
     0
440
 16777216
100
AcDbMText
 10
4243.86390570139
 20
-1760.983120919621
 30
0.0
 40
24.0
 41
0.0
 46
0.0
 71
     5
 72
     1
  1
\A1;∅158
 11
0.602825011136055
 21
0.7978734272732833
 31
0.0
 73
     1
 44
1.0
  0
INSERT
  5
567
330
563
100
AcDbEntity
  8
C寸法
 62
     0
440
 16777216
370
    -2
100
AcDbBlockReference
  2
_OPEN
 10
4317.692575315914
 20
-1696.443772124107
 30
0.0
 41
24.0
 42
24.0
 43
24.0
 50
52.92750677460059
  0
POINT
  5
568
330
563
100
AcDbEntity
  8
Defpoints
 62
     0
440
 16777216
100
AcDbPoint
 10
4317.692575315914
 20
-1696.443772124107
 30
0.0
  0
POINT
  5
569
330
563
100
AcDbEntity
  8
Defpoints
 62
     0
440
 16777216
100
AcDbPoint
 10
4412.938927075418
 20
-1570.379770614922
 30
0.0
  0
ENDBLK
  5
56A
330
563
100
AcDbEntity
  8
0
100
AcDbBlockEnd
  0
BLOCK
  5
56C
330
56B
100
AcDbEntity
  8
0
100
AcDbBlockBegin
  2
*D40
 70
     1
 10
0.0
 20
0.0
 30
0.0
  3
*D40
  1

  0
LINE
  5
56D
330
56B
100
AcDbEntity
  8
C寸法
 62
     0
440
 16777216
370
    -2
100
AcDbLine
 10
4485.315751195669
 20
-1798.517809018727
 30
0.0
 11
4485.315751195669
 21
-1794.253955688591
 31
0.0
  0
LINE
  5
56E
330
56B
100
AcDbEntity
  8
C寸法
 62
     0
440
 16777216
370
    -2
100
AcDbLine
 10
4365.315751195653
 20
-1798.517809018727
 30
0.0
 11
4365.315751195653
 21
-1794.253955688591
 31
0.0
  0
LINE
  5
56F
330
56B
100
AcDbEntity
  8
C寸法
 62
     0
440
 16777216
370
    -2
100
AcDbLine
 10
4464.315751195669
 20
-1787.253955688591
 30
0.0
 11
4386.315751195653
 21
-1787.253955688591
 31
0.0
  0
INSERT
  5
570
330
56B
100
AcDbEntity
  8
C寸法
 62
     0
440
 16777216
370
    -2
100
AcDbBlockReference
  2
_OPEN
 10
4485.315751195669
 20
-1787.253955688591
 30
0.0
 41
21.0
 42
21.0
 43
21.0
  0
INSERT
  5
571
330
56B
100
AcDbEntity
  8
C寸法
 62
     0
440
 16777216
370
    -2
100
AcDbBlockReference
  2
_OPEN
 10
4365.315751195653
 20
-1787.253955688591
 30
0.0
 41
21.0
 42
21.0
 43
21.0
 50
180.0
  0
MTEXT
  5
572
330
56B
100
AcDbEntity
  8
C寸法
 62
     0
440
 16777216
100
AcDbMText
 10
4425.31575119566
 20
-1769.753955688591
 30
0.0
 40
21.0
 41
0.0
 46
0.0
 71
     5
 72
     1
  1
\A1;120
 73
     1
 44
1.0
  0
POINT
  5
573
330
56B
100
AcDbEntity
  8
Defpoints
 62
     0
440
 16777216
100
AcDbPoint
 10
4485.315751195669
 20
-1784.517809018727
 30
0.0
  0
POINT
  5
574
330
56B
100
AcDbEntity
  8
Defpoints
 62
     0
440
 16777216
100
AcDbPoint
 10
4365.315751195653
 20
-1784.517809018727
 30
0.0
  0
POINT
  5
575
330
56B
100
AcDbEntity
  8
Defpoints
 62
     0
440
 16777216
100
AcDbPoint
 10
4365.315751195653
 20
-1787.253955688591
 30
0.0
  0
ENDBLK
  5
576
330
56B
100
AcDbEntity
  8
0
100
AcDbBlockEnd
  0
BLOCK
  5
578
330
577
100
AcDbEntity
  8
0
100
AcDbBlockBegin
  2
*D41
 70
     1
 10
0.0
 20
0.0
 30
0.0
  3
*D41
  1

  0
LINE
  5
579
330
577
100
AcDbEntity
  8
C寸法
 62
     0
440
 16777216
370
    -2
100
AcDbLine
 10
4544.314414115728
 20
-1633.411771369504
 30
0.0
 11
4850.030890517583
 21
-1633.411771369503
 31
0.0
  0
LINE
  5
57A
330
577
100
AcDbEntity
  8
C寸法
 62
     0
440
 16777216
370
    -2
100
AcDbLine
 10
4696.809192725503
 20
-1513.411771369504
 30
0.0
 11
4850.030890517583
 21
-1513.411771369504
 31
0.0
  0
LINE
  5
57B
330
577
100
AcDbEntity
  8
C寸法
 62
     0
440
 16777216
370
    -2
100
AcDbLine
 10
4843.030890517582
 20
-1612.411771369503
 30
0.0
 11
4843.030890517582
 21
-1534.411771369504
 31
0.0
  0
INSERT
  5
57C
330
577
100
AcDbEntity
  8
C寸法
 62
     0
440
 16777216
370
    -2
100
AcDbBlockReference
  2
_OPEN
 10
4843.030890517582
 20
-1633.411771369503
 30
0.0
 41
21.0
 42
21.0
 43
21.0
 50
270.0
  0
INSERT
  5
57D
330
577
100
AcDbEntity
  8
C寸法
 62
     0
440
 16777216
370
    -2
100
AcDbBlockReference
  2
_OPEN
 10
4843.030890517582
 20
-1513.411771369504
 30
0.0
 41
21.0
 42
21.0
 43
21.0
 50
90.0
  0
MTEXT
  5
57E
330
577
100
AcDbEntity
  8
C寸法
 62
     0
440
 16777216
100
AcDbMText
 10
4825.530890517581
 20
-1573.411771369505
 30
0.0
 40
21.0
 41
0.0
 46
0.0
 71
     5
 72
     1
  1
\A1;120
 11
0.0000000000000001
 21
1.0
 31
0.0
 73
     1
 44
1.0
  0
POINT
  5
57F
330
577
100
AcDbEntity
  8
Defpoints
 62
     0
440
 16777216
100
AcDbPoint
 10
4530.314414115728
 20
-1633.411771369504
 30
0.0
  0
POINT
  5
580
330
577
100
AcDbEntity
  8
Defpoints
 62
     0
440
 16777216
100
AcDbPoint
 10
4682.809192725502
 20
-1513.411771369504
 30
0.0
  0
POINT
  5
581
330
577
100
AcDbEntity
  8
Defpoints
 62
     0
440
 16777216
100
AcDbPoint
 10
4843.030890517582
 20
-1513.411771369504
 30
0.0
  0
ENDBLK
  5
582
330
577
100
AcDbEntity
  8
0
100
AcDbBlockEnd
  0
BLOCK
  5
584
330
583
100
AcDbEntity
  8
0
100
AcDbBlockBegin
  2
*D42
 70
     1
 10
0.0
 20
0.0
 30
0.0
  3
*D42
  1

  0
LINE
  5
585
330
583
100
AcDbEntity
  8
C寸法
 62
     0
440
 16777216
370
    -2
100
AcDbLine
 10
3878.887485874081
 20
-2386.321379014851
 30
0.0
 11
3806.353527473948
 21
-2442.914884638812
 31
0.0
  0
MTEXT
  5
586
330
583
100
AcDbEntity
  8
C寸法
 62
     0
440
 16777216
100
AcDbMText
 10
3839.778521764479
 20
-2391.468118397589
 30
0.0
 40
24.0
 41
0.0
 46
0.0
 71
     5
 72
     1
  1
\A1;R10
 11
0.7884125913057268
 21
0.6151468002603844
 31
0.0
 73
     1
 44
1.0
  0
INSERT
  5
587
330
583
100
AcDbEntity
  8
C寸法
 62
     0
440
 16777216
370
    -2
100
AcDbBlockReference
  2
_OPEN
 10
3787.431625282611
 20
-2457.67840784506
 30
0.0
 41
24.0
 42
24.0
 43
24.0
 50
217.9625878313611
  0
POINT
  5
588
330
583
100
AcDbEntity
  8
Defpoints
 62
     0
440
 16777216
100
AcDbPoint
 10
3787.431625282611
 20
-2457.67840784506
 30
0.0
  0
POINT
  5
589
330
583
100
AcDbEntity
  8
Defpoints
 62
     0
440
 16777216
100
AcDbPoint
 10
3795.315751195682
 20
-2451.526939842445
 30
0.0
  0
ENDBLK
  5
58A
330
583
100
AcDbEntity
  8
0
100
AcDbBlockEnd
  0
BLOCK
  5
58C
330
58B
100
AcDbEntity
  8
0
100
AcDbBlockBegin
  2
*D43
 70
     1
 10
0.0
 20
0.0
 30
0.0
  3
*D43
  1

  0
LINE
  5
58D
330
58B
100
AcDbEntity
  8
C寸法
 62
     0
440
 16777216
370
    -2
100
AcDbLine
 10
4744.31575119567
 20
-2278.385103055686
 30
0.0
 11
4784.73777538772
 21
-2278.385103055686
 31
0.0
  0
LINE
  5
58E
330
58B
100
AcDbEntity
  8
C寸法
 62
     0
440
 16777216
370
    -2
100
AcDbLine
 10
4744.31575119567
 20
-2271.385103055687
 30
0.0
 11
4784.73777538772
 21
-2271.385103055687
 31
0.0
  0
LINE
  5
58F
330
58B
100
AcDbEntity
  8
C寸法
 62
     0
440
 16777216
370
    -2
100
AcDbLine
 10
4777.737775387721
 20
-2299.385103055686
 30
0.0
 11
4777.737775387721
 21
-2320.385103055686
 31
0.0
  0
LINE
  5
590
330
58B
100
AcDbEntity
  8
C寸法
 62
     0
440
 16777216
370
    -2
100
AcDbLine
 10
4777.737775387721
 20
-2250.385103055686
 30
0.0
 11
4777.737775387721
 21
-2199.051769722353
 31
0.0
  0
INSERT
  5
591
330
58B
100
AcDbEntity
  8
C寸法
 62
     0
440
 16777216
370
    -2
100
AcDbBlockReference
  2
_OPEN
 10
4777.737775387721
 20
-2278.385103055686
 30
0.0
 41
21.0
 42
21.0
 43
21.0
 50
90.0
  0
INSERT
  5
592
330
58B
100
AcDbEntity
  8
C寸法
 62
     0
440
 16777216
370
    -2
100
AcDbBlockReference
  2
_OPEN
 10
4777.737775387721
 20
-2271.385103055687
 30
0.0
 41
21.0
 42
21.0
 43
21.0
 50
270.0
  0
MTEXT
  5
593
330
58B
100
AcDbEntity
  8
C寸法
 62
     0
440
 16777216
100
AcDbMText
 10
4758.487775387719
 20
-2214.218436389021
 30
0.0
 40
24.5
 41
0.0
 46
0.0
 71
     5
 72
     1
  1
\A1;7
 11
0.0000000000000001
 21
1.0
 31
0.0
 73
     1
 44
1.0
 90
        3
 63
     9
421
 13158600
 45
1.1
441
        0
  0
POINT
  5
594
330
58B
100
AcDbEntity
  8
Defpoints
 62
     0
440
 16777216
100
AcDbPoint
 10
4730.315751195671
 20
-2278.385103055686
 30
0.0
  0
POINT
  5
595
330
58B
100
AcDbEntity
  8
Defpoints
 62
     0
440
 16777216
100
AcDbPoint
 10
4730.315751195671
 20
-2271.385103055687
 30
0.0
  0
POINT
  5
596
330
58B
100
AcDbEntity
  8
Defpoints
 62
     0
440
 16777216
100
AcDbPoint
 10
4777.737775387721
 20
-2271.385103055687
 30
0.0
  0
ENDBLK
  5
597
330
58B
100
AcDbEntity
  8
0
100
AcDbBlockEnd
  0
BLOCK
  5
599
330
598
100
AcDbEntity
  8
0
100
AcDbBlockBegin
  2
*D44
 70
     1
 10
0.0
 20
0.0
 30
0.0
  3
*D44
  1

  0
LINE
  5
59A
330
598
100
AcDbEntity
  8
C寸法
 62
     0
440
 16777216
370
    -2
100
AcDbLine
 10
4489.315751195671
 20
-2471.241225556721
 30
0.0
 11
4861.958363341756
 21
-2471.241225556721
 31
0.0
  0
LINE
  5
59B
330
598
100
AcDbEntity
  8
C寸法
 62
     0
440
 16777216
370
    -2
100
AcDbLine
 10
4744.31575119567
 20
-2271.385103055687
 30
0.0
 11
4861.958363341756
 21
-2271.385103055687
 31
0.0
  0
LINE
  5
59C
330
598
100
AcDbEntity
  8
C寸法
 62
     0
440
 16777216
370
    -2
100
AcDbLine
 10
4854.958363341755
 20
-2450.241225556721
 30
0.0
 11
4854.958363341755
 21
-2292.385103055686
 31
0.0
  0
INSERT
  5
59D
330
598
100
AcDbEntity
  8
C寸法
 62
     0
440
 16777216
370
    -2
100
AcDbBlockReference
  2
_OPEN
 10
4854.958363341755
 20
-2471.241225556721
 30
0.0
 41
21.0
 42
21.0
 43
21.0
 50
270.0
  0
INSERT
  5
59E
330
598
100
AcDbEntity
  8
C寸法
 62
     0
440
 16777216
370
    -2
100
AcDbBlockReference
  2
_OPEN
 10
4854.958363341755
 20
-2271.385103055687
 30
0.0
 41
21.0
 42
21.0
 43
21.0
 50
90.0
  0
MTEXT
  5
59F
330
598
100
AcDbEntity
  8
C寸法
 62
     0
440
 16777216
100
AcDbMText
 10
4835.708363341753
 20
-2371.313164306205
 30
0.0
 40
24.5
 41
0.0
 46
0.0
 71
     5
 72
     1
  1
\A1;200
 11
0.0000000000000001
 21
1.0
 31
0.0
 73
     1
 44
1.0
 90
        3
 63
     9
421
 13158600
 45
1.1
441
        0
  0
POINT
  5
5A0
330
598
100
AcDbEntity
  8
Defpoints
 62
     0
440
 16777216
100
AcDbPoint
 10
4475.315751195671
 20
-2471.241225556721
 30
0.0
  0
POINT
  5
5A1
330
598
100
AcDbEntity
  8
Defpoints
 62
     0
440
 16777216
100
AcDbPoint
 10
4730.315751195671
 20
-2271.385103055687
 30
0.0
  0
POINT
  5
5A2
330
598
100
AcDbEntity
  8
Defpoints
 62
     0
440
 16777216
100
AcDbPoint
 10
4854.958363341755
 20
-2271.385103055687
 30
0.0
  0
ENDBLK
  5
5A3
330
598
100
AcDbEntity
  8
0
100
AcDbBlockEnd
  0
BLOCK
  5
726
330
725
100
AcDbEntity
  8
0
100
AcDbBlockBegin
  2
*D45
 70
     1
 10
0.0
 20
0.0
 30
0.0
  3
*D45
  1

  0
LINE
  5
10FF
330
725
100
AcDbEntity
  8
C寸法
 62
     0
440
 16777216
370
    -2
100
AcDbLine
 10
1202.178225073882
 20
312.3139390274758
 30
0.0
 11
1182.51781925704
 21
312.3139390274758
 31
0.0
  0
LINE
  5
1100
330
725
100
AcDbEntity
  8
C寸法
 62
     0
440
 16777216
370
    -2
100
AcDbLine
 10
1202.178225073882
 20
322.3139390274758
 30
0.0
 11
1182.51781925704
 21
322.3139390274758
 31
0.0
  0
LINE
  5
1101
330
725
100
AcDbEntity
  8
C寸法
 62
     0
440
 16777216
370
    -2
100
AcDbLine
 10
1189.517819257039
 20
291.3139390274758
 30
0.0
 11
1189.517819257039
 21
270.3139390274758
 31
0.0
  0
LINE
  5
1102
330
725
100
AcDbEntity
  8
C寸法
 62
     0
440
 16777216
370
    -2
100
AcDbLine
 10
1189.517819257039
 20
343.3139390274758
 30
0.0
 11
1189.517819257039
 21
409.3139390274759
 31
0.0
  0
INSERT
  5
1103
330
725
100
AcDbEntity
  8
C寸法
 62
     0
440
 16777216
370
    -2
100
AcDbBlockReference
  2
_OPEN
 10
1189.517819257039
 20
312.3139390274758
 30
0.0
 41
21.0
 42
21.0
 43
21.0
 50
90.0
  0
INSERT
  5
1104
330
725
100
AcDbEntity
  8
C寸法
 62
     0
440
 16777216
370
    -2
100
AcDbBlockReference
  2
_OPEN
 10
1189.517819257039
 20
322.3139390274758
 30
0.0
 41
21.0
 42
21.0
 43
21.0
 50
270.0
  0
MTEXT
  5
1105
330
725
100
AcDbEntity
  8
C寸法
 62
     0
440
 16777216
370
    18
100
AcDbMText
 10
1172.017819257039
 20
386.8139390274754
 30
0.0
 40
21.0
 41
0.0
 46
0.0
 71
     5
 72
     1
  1
\A1;10
  7
KANJI
 11
0.0000000000000001
 21
1.0
 31
0.0
 73
     1
 44
1.0
  0
POINT
  5
1106
330
725
100
AcDbEntity
  8
Defpoints
 62
     0
440
 16777216
100
AcDbPoint
 10
1216.178225073882
 20
312.3139390274758
 30
0.0
  0
POINT
  5
1107
330
725
100
AcDbEntity
  8
Defpoints
 62
     0
440
 16777216
100
AcDbPoint
 10
1216.178225073882
 20
322.3139390274758
 30
0.0
  0
POINT
  5
1108
330
725
100
AcDbEntity
  8
Defpoints
 62
     0
440
 16777216
100
AcDbPoint
 10
1189.517819257039
 20
322.3139390274758
 30
0.0
  0
ENDBLK
  5
727
330
725
100
AcDbEntity
  8
0
100
AcDbBlockEnd
  0
BLOCK
  5
733
330
732
100
AcDbEntity
  8
0
100
AcDbBlockBegin
  2
*D46
 70
     1
 10
0.0
 20
0.0
 30
0.0
  3
*D46
  1

  0
LINE
  5
1109
330
732
100
AcDbEntity
  8
C寸法
 62
     0
440
 16777216
370
    -2
100
AcDbLine
 10
982.1782250738667
 20
307.3139390274759
 30
0.0
 11
966.9759525578204
 21
307.3139390274759
 31
0.0
  0
LINE
  5
110A
330
732
100
AcDbEntity
  8
C寸法
 62
     0
440
 16777216
370
    -2
100
AcDbLine
 10
982.1782250738667
 20
322.3139390274758
 30
0.0
 11
966.9759525578204
 21
322.3139390274758
 31
0.0
  0
LINE
  5
110B
330
732
100
AcDbEntity
  8
C寸法
 62
     0
440
 16777216
370
    -2
100
AcDbLine
 10
973.9759525578206
 20
286.3139390274758
 30
0.0
 11
973.9759525578206
 21
265.3139390274759
 31
0.0
  0
LINE
  5
110C
330
732
100
AcDbEntity
  8
C寸法
 62
     0
440
 16777216
370
    -2
100
AcDbLine
 10
973.9759525578206
 20
343.3139390274758
 30
0.0
 11
973.9759525578206
 21
409.3139390274759
 31
0.0
  0
INSERT
  5
110D
330
732
100
AcDbEntity
  8
C寸法
 62
     0
440
 16777216
370
    -2
100
AcDbBlockReference
  2
_OPEN
 10
973.9759525578206
 20
307.3139390274759
 30
0.0
 41
21.0
 42
21.0
 43
21.0
 50
90.0
  0
INSERT
  5
110E
330
732
100
AcDbEntity
  8
C寸法
 62
     0
440
 16777216
370
    -2
100
AcDbBlockReference
  2
_OPEN
 10
973.9759525578206
 20
322.3139390274758
 30
0.0
 41
21.0
 42
21.0
 43
21.0
 50
270.0
  0
MTEXT
  5
110F
330
732
100
AcDbEntity
  8
C寸法
 62
     0
440
 16777216
370
    18
100
AcDbMText
 10
956.4759525578203
 20
386.8139390274755
 30
0.0
 40
21.0
 41
0.0
 46
0.0
 71
     5
 72
     1
  1
\A1;15
  7
KANJI
 11
0.0000000000000001
 21
1.0
 31
0.0
 73
     1
 44
1.0
  0
POINT
  5
1110
330
732
100
AcDbEntity
  8
Defpoints
 62
     0
440
 16777216
100
AcDbPoint
 10
996.178225073867
 20
307.3139390274759
 30
0.0
  0
POINT
  5
1111
330
732
100
AcDbEntity
  8
Defpoints
 62
     0
440
 16777216
100
AcDbPoint
 10
996.178225073867
 20
322.3139390274758
 30
0.0
  0
POINT
  5
1112
330
732
100
AcDbEntity
  8
Defpoints
 62
     0
440
 16777216
100
AcDbPoint
 10
973.9759525578206
 20
322.3139390274758
 30
0.0
  0
ENDBLK
  5
734
330
732
100
AcDbEntity
  8
0
100
AcDbBlockEnd
  0
BLOCK
  5
740
330
73F
100
AcDbEntity
  8
0
100
AcDbBlockBegin
  2
*D47
 70
     1
 10
0.0
 20
0.0
 30
0.0
  3
*D47
  1

  0
LINE
  5
1113
330
73F
100
AcDbEntity
  8
C寸法
 62
     0
440
 16777216
370
    -2
100
AcDbLine
 10
404.7128129748655
 20
307.3139390274759
 30
0.0
 11
408.1941411064263
 21
307.3139390274759
 31
0.0
  0
LINE
  5
1114
330
73F
100
AcDbEntity
  8
C寸法
 62
     0
440
 16777216
370
    -2
100
AcDbLine
 10
404.7128129748655
 20
322.3139390274758
 30
0.0
 11
408.1941411064263
 21
322.3139390274758
 31
0.0
  0
LINE
  5
1115
330
73F
100
AcDbEntity
  8
C寸法
 62
     0
440
 16777216
370
    -2
100
AcDbLine
 10
415.1941411064263
 20
286.3139390274758
 30
0.0
 11
415.1941411064263
 21
265.3139390274759
 31
0.0
  0
LINE
  5
1116
330
73F
100
AcDbEntity
  8
C寸法
 62
     0
440
 16777216
370
    -2
100
AcDbLine
 10
415.1941411064263
 20
343.3139390274758
 30
0.0
 11
415.1941411064261
 21
416.8139390274741
 31
0.0
  0
INSERT
  5
1117
330
73F
100
AcDbEntity
  8
C寸法
 62
     0
440
 16777216
370
    -2
100
AcDbBlockReference
  2
_OPEN
 10
415.1941411064263
 20
307.3139390274759
 30
0.0
 41
21.0
 42
21.0
 43
21.0
 50
90.0
  0
INSERT
  5
1118
330
73F
100
AcDbEntity
  8
C寸法
 62
     0
440
 16777216
370
    -2
100
AcDbBlockReference
  2
_OPEN
 10
415.1941411064263
 20
322.3139390274758
 30
0.0
 41
21.0
 42
21.0
 43
21.0
 50
270.0
  0
MTEXT
  5
1119
330
73F
100
AcDbEntity
  8
C寸法
 62
     0
440
 16777216
370
    18
100
AcDbMText
 10
397.6941411064263
 20
394.3139390274739
 30
0.0
 40
21.0
 41
0.0
 46
0.0
 71
     5
 72
     1
  1
\A1;15
  7
KANJI
 11
0.0000000000000001
 21
1.0
 31
0.0
 73
     1
 44
1.0
  0
POINT
  5
111A
330
73F
100
AcDbEntity
  8
Defpoints
 62
     0
440
 16777216
100
AcDbPoint
 10
418.7128129748654
 20
307.3139390274759
 30
0.0
  0
POINT
  5
111B
330
73F
100
AcDbEntity
  8
Defpoints
 62
     0
440
 16777216
100
AcDbPoint
 10
418.7128129748654
 20
322.3139390274758
 30
0.0
  0
POINT
  5
111C
330
73F
100
AcDbEntity
  8
Defpoints
 62
     0
440
 16777216
100
AcDbPoint
 10
415.1941411064263
 20
322.3139390274758
 30
0.0
  0
ENDBLK
  5
741
330
73F
100
AcDbEntity
  8
0
100
AcDbBlockEnd
  0
BLOCK
  5
74D
330
74C
100
AcDbEntity
  8
0
100
AcDbBlockBegin
  2
*D48
 70
     1
 10
0.0
 20
0.0
 30
0.0
  3
*D48
  1

  0
LINE
  5
111D
330
74C
100
AcDbEntity
  8
C寸法
 62
     0
440
 16777216
370
    -2
100
AcDbLine
 10
1489.380097238028
 20
976.287270713658
 30
0.0
 11
1489.380097238028
 21
977.0023812294118
 31
0.0
  0
LINE
  5
111E
330
74C
100
AcDbEntity
  8
C寸法
 62
     0
440
 16777216
370
    -2
100
AcDbLine
 10
1474.380097238028
 20
976.287270713658
 30
0.0
 11
1474.380097238028
 21
977.0023812294118
 31
0.0
  0
LINE
  5
111F
330
74C
100
AcDbEntity
  8
C寸法
 62
     0
440
 16777216
370
    -2
100
AcDbLine
 10
1510.380097238028
 20
984.0023812294118
 30
0.0
 11
1531.380097238028
 21
984.0023812294118
 31
0.0
  0
LINE
  5
1120
330
74C
100
AcDbEntity
  8
C寸法
 62
     0
440
 16777216
370
    -2
100
AcDbLine
 10
1453.380097238028
 20
984.0023812294118
 30
0.0
 11
1387.380097238028
 21
984.0023812294118
 31
0.0
  0
INSERT
  5
1121
330
74C
100
AcDbEntity
  8
C寸法
 62
     0
440
 16777216
370
    -2
100
AcDbBlockReference
  2
_OPEN
 10
1489.380097238028
 20
984.0023812294118
 30
0.0
 41
21.0
 42
21.0
 43
21.0
 50
180.0
  0
INSERT
  5
1122
330
74C
100
AcDbEntity
  8
C寸法
 62
     0
440
 16777216
370
    -2
100
AcDbBlockReference
  2
_OPEN
 10
1474.380097238028
 20
984.0023812294118
 30
0.0
 41
21.0
 42
21.0
 43
21.0
  0
MTEXT
  5
1123
330
74C
100
AcDbEntity
  8
C寸法
 62
     0
440
 16777216
370
    18
100
AcDbMText
 10
1409.880097238028
 20
1001.502381229412
 30
0.0
 40
21.0
 41
0.0
 46
0.0
 71
     5
 72
     1
  1
\A1;15
  7
KANJI
 73
     1
 44
1.0
  0
POINT
  5
1124
330
74C
100
AcDbEntity
  8
Defpoints
 62
     0
440
 16777216
100
AcDbPoint
 10
1489.380097238028
 20
990.287270713658
 30
0.0
  0
POINT
  5
1125
330
74C
100
AcDbEntity
  8
Defpoints
 62
     0
440
 16777216
100
AcDbPoint
 10
1474.380097238028
 20
990.287270713658
 30
0.0
  0
POINT
  5
1126
330
74C
100
AcDbEntity
  8
Defpoints
 62
     0
440
 16777216
100
AcDbPoint
 10
1474.380097238028
 20
984.0023812294118
 30
0.0
  0
ENDBLK
  5
74E
330
74C
100
AcDbEntity
  8
0
100
AcDbBlockEnd
  0
BLOCK
  5
75A
330
759
100
AcDbEntity
  8
0
100
AcDbBlockBegin
  2
*D49
 70
     1
 10
0.0
 20
0.0
 30
0.0
  3
*D49
  1

  0
LINE
  5
1127
330
759
100
AcDbEntity
  8
C寸法
 62
     0
440
 16777216
370
    -2
100
AcDbLine
 10
1255.178225073882
 20
315.3139390274759
 30
0.0
 11
1282.389237169918
 21
315.3139390274759
 31
0.0
  0
LINE
  5
1128
330
759
100
AcDbEntity
  8
C寸法
 62
     0
440
 16777216
370
    -2
100
AcDbLine
 10
1255.178225073882
 20
322.3139390274758
 30
0.0
 11
1282.389237169918
 21
322.3139390274758
 31
0.0
  0
LINE
  5
1129
330
759
100
AcDbEntity
  8
C寸法
 62
     0
440
 16777216
370
    -2
100
AcDbLine
 10
1275.389237169918
 20
294.3139390274758
 30
0.0
 11
1275.389237169918
 21
273.3139390274758
 31
0.0
  0
LINE
  5
112A
330
759
100
AcDbEntity
  8
C寸法
 62
     0
440
 16777216
370
    -2
100
AcDbLine
 10
1275.389237169918
 20
343.3139390274758
 30
0.0
 11
1275.389237169918
 21
392.3139390274759
 31
0.0
  0
LINE
  5
112B
330
759
100
AcDbEntity
  8
C寸法
 62
     0
440
 16777216
370
    -2
100
AcDbLine
 10
1275.389237169918
 20
315.3139390274759
 30
0.0
 11
1275.389237169918
 21
322.3139390274758
 31
0.0
  0
INSERT
  5
112C
330
759
100
AcDbEntity
  8
C寸法
 62
     0
440
 16777216
370
    -2
100
AcDbBlockReference
  2
_OPEN
 10
1275.389237169918
 20
315.3139390274759
 30
0.0
 41
21.0
 42
21.0
 43
21.0
 50
90.0
  0
INSERT
  5
112D
330
759
100
AcDbEntity
  8
C寸法
 62
     0
440
 16777216
370
    -2
100
AcDbBlockReference
  2
_OPEN
 10
1275.389237169918
 20
322.3139390274758
 30
0.0
 41
21.0
 42
21.0
 43
21.0
 50
270.0
  0
MTEXT
  5
112E
330
759
100
AcDbEntity
  8
C寸法
 62
     0
440
 16777216
370
    18
100
AcDbMText
 10
1257.889237169918
 20
378.3139390274754
 30
0.0
 40
21.0
 41
0.0
 46
0.0
 71
     5
 72
     1
  1
\A1;7
  7
KANJI
 11
0.0000000000000001
 21
1.0
 31
0.0
 73
     1
 44
1.0
 90
        3
 63
     9
421
 13158600
 45
1.1
441
        0
  0
POINT
  5
112F
330
759
100
AcDbEntity
  8
Defpoints
 62
     0
440
 16777216
100
AcDbPoint
 10
1241.178225073882
 20
315.3139390274759
 30
0.0
  0
POINT
  5
1130
330
759
100
AcDbEntity
  8
Defpoints
 62
     0
440
 16777216
100
AcDbPoint
 10
1241.178225073882
 20
322.3139390274758
 30
0.0
  0
POINT
  5
1131
330
759
100
AcDbEntity
  8
Defpoints
 62
     0
440
 16777216
100
AcDbPoint
 10
1275.389237169918
 20
322.3139390274758
 30
0.0
  0
ENDBLK
  5
75B
330
759
100
AcDbEntity
  8
0
100
AcDbBlockEnd
  0
BLOCK
  5
767
330
766
100
AcDbEntity
  8
0
100
AcDbBlockBegin
  2
*D50
 70
     1
 10
0.0
 20
0.0
 30
0.0
  3
*D50
  1

  0
LINE
  5
1132
330
766
100
AcDbEntity
  8
C寸法
 62
     0
440
 16777216
370
    -2
100
AcDbLine
 10
1000.178225073882
 20
122.4578165264409
 30
0.0
 11
1330.808579211079
 21
122.457816526441
 31
0.0
  0
LINE
  5
1133
330
766
100
AcDbEntity
  8
C寸法
 62
     0
440
 16777216
370
    -2
100
AcDbLine
 10
1255.178225073882
 20
322.3139390274758
 30
0.0
 11
1330.808579211079
 21
322.3139390274758
 31
0.0
  0
LINE
  5
1134
330
766
100
AcDbEntity
  8
C寸法
 62
     0
440
 16777216
370
    -2
100
AcDbLine
 10
1323.808579211079
 20
143.457816526441
 30
0.0
 11
1323.808579211079
 21
301.3139390274758
 31
0.0
  0
INSERT
  5
1135
330
766
100
AcDbEntity
  8
C寸法
 62
     0
440
 16777216
370
    -2
100
AcDbBlockReference
  2
_OPEN
 10
1323.808579211079
 20
122.457816526441
 30
0.0
 41
21.0
 42
21.0
 43
21.0
 50
270.0
  0
INSERT
  5
1136
330
766
100
AcDbEntity
  8
C寸法
 62
     0
440
 16777216
370
    -2
100
AcDbBlockReference
  2
_OPEN
 10
1323.808579211079
 20
322.3139390274758
 30
0.0
 41
21.0
 42
21.0
 43
21.0
 50
90.0
  0
MTEXT
  5
1137
330
766
100
AcDbEntity
  8
C寸法
 62
     0
440
 16777216
370
    18
100
AcDbMText
 10
1306.308579211079
 20
222.385877776958
 30
0.0
 40
21.0
 41
0.0
 46
0.0
 71
     5
 72
     1
  1
\A1;200
  7
KANJI
 11
0.0000000000000001
 21
1.0
 31
0.0
 73
     1
 44
1.0
 90
        3
 63
     9
421
 13158600
 45
1.1
441
        0
  0
POINT
  5
1138
330
766
100
AcDbEntity
  8
Defpoints
 62
     0
440
 16777216
100
AcDbPoint
 10
986.1782250738825
 20
122.4578165264409
 30
0.0
  0
POINT
  5
1139
330
766
100
AcDbEntity
  8
Defpoints
 62
     0
440
 16777216
100
AcDbPoint
 10
1241.178225073882
 20
322.3139390274758
 30
0.0
  0
POINT
  5
113A
330
766
100
AcDbEntity
  8
Defpoints
 62
     0
440
 16777216
100
AcDbPoint
 10
1323.808579211079
 20
322.3139390274758
 30
0.0
  0
ENDBLK
  5
768
330
766
100
AcDbEntity
  8
0
100
AcDbBlockEnd
  0
BLOCK
  5
773
330
772
100
AcDbEntity
  8
0
100
AcDbBlockBegin
  2
*D51
 70
     1
 10
0.0
 20
0.0
 30
0.0
  3
*D51
  1

  0
LINE
  5
12F8
330
772
100
AcDbEntity
  8
C寸法
 62
     0
440
 16777216
370
    -2
100
AcDbLine
 10
756.1782250738816
 20
1119.287270713658
 30
0.0
 11
756.1782250738816
 21
1207.905789740654
 31
0.0
  0
LINE
  5
12F9
330
772
100
AcDbEntity
  8
C寸法
 62
     0
440
 16777216
370
    -2
100
AcDbLine
 10
996.1782250738819
 20
1119.287270713658
 30
0.0
 11
996.1782250738819
 21
1207.905789740654
 31
0.0
  0
LINE
  5
12FA
330
772
100
AcDbEntity
  8
C寸法
 62
     0
440
 16777216
370
    -2
100
AcDbLine
 10
777.1782250738817
 20
1200.905789740654
 30
0.0
 11
975.178225073882
 21
1200.905789740654
 31
0.0
  0
INSERT
  5
12FB
330
772
100
AcDbEntity
  8
C寸法
 62
     0
440
 16777216
370
    -2
100
AcDbBlockReference
  2
_OPEN
 10
756.1782250738816
 20
1200.905789740654
 30
0.0
 41
21.0
 42
21.0
 43
21.0
 50
180.0
  0
INSERT
  5
12FC
330
772
100
AcDbEntity
  8
C寸法
 62
     0
440
 16777216
370
    -2
100
AcDbBlockReference
  2
_OPEN
 10
996.1782250738819
 20
1200.905789740654
 30
0.0
 41
21.0
 42
21.0
 43
21.0
  0
MTEXT
  5
12FD
330
772
100
AcDbEntity
  8
C寸法
 62
     0
440
 16777216
370
    18
100
AcDbMText
 10
876.1782250738816
 20
1218.405789740655
 30
0.0
 40
21.0
 41
0.0
 46
0.0
 71
     5
 72
     1
  1
\A1;240
  7
KANJI
 73
     1
 44
1.0
  0
POINT
  5
12FE
330
772
100
AcDbEntity
  8
Defpoints
 62
     0
440
 16777216
100
AcDbPoint
 10
756.1782250738816
 20
1105.287270713658
 30
0.0
  0
POINT
  5
12FF
330
772
100
AcDbEntity
  8
Defpoints
 62
     0
440
 16777216
100
AcDbPoint
 10
996.1782250738819
 20
1105.287270713658
 30
0.0
  0
POINT
  5
1300
330
772
100
AcDbEntity
  8
Defpoints
 62
     0
440
 16777216
100
AcDbPoint
 10
996.1782250738819
 20
1200.905789740654
 30
0.0
  0
ENDBLK
  5
774
330
772
100
AcDbEntity
  8
0
100
AcDbBlockEnd
  0
BLOCK
  5
77F
330
77E
100
AcDbEntity
  8
0
100
AcDbBlockBegin
  2
*D52
 70
     1
 10
0.0
 20
0.0
 30
0.0
  3
*D52
  1

  0
LINE
  5
1320
330
77E
100
AcDbEntity
  8
C寸法
 62
     0
440
 16777216
370
    -2
100
AcDbLine
 10
296.1782250738815
 20
541.287270713658
 30
0.0
 11
296.1782250738815
 21
467.1211363414733
 31
0.0
  0
LINE
  5
1321
330
77E
100
AcDbEntity
  8
C寸法
 62
     0
440
 16777216
370
    -2
100
AcDbLine
 10
1216.178225073882
 20
541.287270713658
 30
0.0
 11
1216.178225073882
 21
467.1211363414733
 31
0.0
  0
LINE
  5
1322
330
77E
100
AcDbEntity
  8
C寸法
 62
     0
440
 16777216
370
    -2
100
AcDbLine
 10
317.1782250738815
 20
474.1211363414731
 30
0.0
 11
1195.178225073882
 21
474.1211363414731
 31
0.0
  0
INSERT
  5
1323
330
77E
100
AcDbEntity
  8
C寸法
 62
     0
440
 16777216
370
    -2
100
AcDbBlockReference
  2
_OPEN
 10
296.1782250738815
 20
474.1211363414731
 30
0.0
 41
21.0
 42
21.0
 43
21.0
 50
180.0
  0
INSERT
  5
1324
330
77E
100
AcDbEntity
  8
C寸法
 62
     0
440
 16777216
370
    -2
100
AcDbBlockReference
  2
_OPEN
 10
1216.178225073882
 20
474.1211363414731
 30
0.0
 41
21.0
 42
21.0
 43
21.0
  0
MTEXT
  5
1325
330
77E
100
AcDbEntity
  8
C寸法
 62
     0
440
 16777216
370
    18
100
AcDbMText
 10
756.1782250738816
 20
498.6211363414732
 30
0.0
 40
35.0
 41
0.0
 46
0.0
 71
     5
 72
     1
  1
\A1;W
  7
KANJI
 73
     1
 44
1.0
  0
POINT
  5
1326
330
77E
100
AcDbEntity
  8
Defpoints
 62
     0
440
 16777216
100
AcDbPoint
 10
296.1782250738815
 20
555.287270713658
 30
0.0
  0
POINT
  5
1327
330
77E
100
AcDbEntity
  8
Defpoints
 62
     0
440
 16777216
100
AcDbPoint
 10
1216.178225073882
 20
555.287270713658
 30
0.0
  0
POINT
  5
1328
330
77E
100
AcDbEntity
  8
Defpoints
 62
     0
440
 16777216
100
AcDbPoint
 10
1216.178225073882
 20
474.1211363414731
 30
0.0
  0
ENDBLK
  5
780
330
77E
100
AcDbEntity
  8
0
100
AcDbBlockEnd
  0
BLOCK
  5
78B
330
78A
100
AcDbEntity
  8
0
100
AcDbBlockBegin
  2
*D53
 70
     1
 10
0.0
 20
0.0
 30
0.0
  3
*D53
  1

  0
LINE
  5
1313
330
78A
100
AcDbEntity
  8
C寸法
 62
     0
440
 16777216
370
    -2
100
AcDbLine
 10
1216.178225073882
 20
541.287270713658
 30
0.0
 11
1216.178225073882
 21
467.1211363414733
 31
0.0
  0
LINE
  5
1314
330
78A
100
AcDbEntity
  8
C寸法
 62
     0
440
 16777216
370
    -2
100
AcDbLine
 10
1241.178225073882
 20
541.287270713658
 30
0.0
 11
1241.178225073882
 21
467.1211363414733
 31
0.0
  0
LINE
  5
1315
330
78A
100
AcDbEntity
  8
C寸法
 62
     0
440
 16777216
370
    -2
100
AcDbLine
 10
1195.178225073882
 20
474.1211363414731
 30
0.0
 11
1174.178225073882
 21
474.1211363414731
 31
0.0
  0
LINE
  5
1316
330
78A
100
AcDbEntity
  8
C寸法
 62
     0
440
 16777216
370
    -2
100
AcDbLine
 10
1262.178225073882
 20
474.1211363414731
 30
0.0
 11
1283.178225073882
 21
474.1211363414731
 31
0.0
  0
LINE
  5
1317
330
78A
100
AcDbEntity
  8
C寸法
 62
     0
440
 16777216
370
    -2
100
AcDbLine
 10
1344.311933062393
 20
474.1211363414731
 30
0.0
 11
1241.178225073882
 21
474.1211363414731
 31
0.0
  0
MTEXT
  5
1318
330
78A
100
AcDbEntity
  8
C寸法
 62
     0
440
 16777216
370
    18
100
AcDbMText
 10
1320.311933062393
 20
491.6211363414731
 30
0.0
 40
21.0
 41
0.0
 46
0.0
 71
     5
 72
     1
  1
\A1;25
  7
KANJI
 73
     1
 44
1.0
  0
LINE
  5
1319
330
78A
100
AcDbEntity
  8
C寸法
 62
     0
440
 16777216
370
    -2
100
AcDbLine
 10
1216.178225073882
 20
474.1211363414731
 30
0.0
 11
1241.178225073882
 21
474.1211363414731
 31
0.0
  0
LINE
  5
131A
330
78A
100
AcDbEntity
  8
C寸法
 62
     0
440
 16777216
370
    -2
100
AcDbLine
 10
1216.178225073882
 20
474.1211363414731
 30
0.0
 11
1241.178225073882
 21
474.1211363414731
 31
0.0
  0
INSERT
  5
131B
330
78A
100
AcDbEntity
  8
C寸法
 62
     0
440
 16777216
370
    -2
100
AcDbBlockReference
  2
_OPEN
 10
1216.178225073882
 20
474.1211363414731
 30
0.0
 41
21.0
 42
21.0
 43
21.0
  0
INSERT
  5
131C
330
78A
100
AcDbEntity
  8
C寸法
 62
     0
440
 16777216
370
    -2
100
AcDbBlockReference
  2
_OPEN
 10
1241.178225073882
 20
474.1211363414731
 30
0.0
 41
21.0
 42
21.0
 43
21.0
 50
180.0
  0
POINT
  5
131D
330
78A
100
AcDbEntity
  8
Defpoints
 62
     0
440
 16777216
100
AcDbPoint
 10
1216.178225073882
 20
555.287270713658
 30
0.0
  0
POINT
  5
131E
330
78A
100
AcDbEntity
  8
Defpoints
 62
     0
440
 16777216
100
AcDbPoint
 10
1241.178225073882
 20
555.287270713658
 30
0.0
  0
POINT
  5
131F
330
78A
100
AcDbEntity
  8
Defpoints
 62
     0
440
 16777216
100
AcDbPoint
 10
1241.178225073882
 20
474.1211363414731
 30
0.0
  0
ENDBLK
  5
78C
330
78A
100
AcDbEntity
  8
0
100
AcDbBlockEnd
  0
BLOCK
  5
79B
330
79A
100
AcDbEntity
  8
0
100
AcDbBlockBegin
  2
*D54
 70
     1
 10
0.0
 20
0.0
 30
0.0
  3
*D54
  1

  0
LINE
  5
11FF
330
79A
100
AcDbEntity
  8
C寸法
 62
     0
440
 16777216
370
    -2
100
AcDbLine
 10
296.1782250738815
 20
541.287270713658
 30
0.0
 11
296.1782250738815
 21
467.1211363414733
 31
0.0
  0
LINE
  5
1200
330
79A
100
AcDbEntity
  8
C寸法
 62
     0
440
 16777216
370
    -2
100
AcDbLine
 10
271.1782250738815
 20
541.287270713658
 30
0.0
 11
271.1782250738815
 21
467.1211363414733
 31
0.0
  0
LINE
  5
1201
330
79A
100
AcDbEntity
  8
C寸法
 62
     0
440
 16777216
370
    -2
100
AcDbLine
 10
317.1782250738815
 20
474.1211363414731
 30
0.0
 11
338.1782250738815
 21
474.1211363414731
 31
0.0
  0
LINE
  5
1202
330
79A
100
AcDbEntity
  8
C寸法
 62
     0
440
 16777216
370
    -2
100
AcDbLine
 10
250.1782250738815
 20
474.1211363414731
 30
0.0
 11
229.1782250738815
 21
474.1211363414731
 31
0.0
  0
LINE
  5
1203
330
79A
100
AcDbEntity
  8
C寸法
 62
     0
440
 16777216
370
    -2
100
AcDbLine
 10
173.9165811597963
 20
474.1211363414731
 30
0.0
 11
271.1782250738815
 21
474.1211363414731
 31
0.0
  0
MTEXT
  5
1204
330
79A
100
AcDbEntity
  8
C寸法
 62
     0
440
 16777216
370
    18
100
AcDbMText
 10
197.9165811597963
 20
491.6211363414731
 30
0.0
 40
21.0
 41
0.0
 46
0.0
 71
     5
 72
     1
  1
\A1;25
  7
KANJI
 73
     1
 44
1.0
  0
LINE
  5
1205
330
79A
100
AcDbEntity
  8
C寸法
 62
     0
440
 16777216
370
    -2
100
AcDbLine
 10
296.1782250738815
 20
474.1211363414731
 30
0.0
 11
271.1782250738815
 21
474.1211363414731
 31
0.0
  0
INSERT
  5
1206
330
79A
100
AcDbEntity
  8
C寸法
 62
     0
440
 16777216
370
    -2
100
AcDbBlockReference
  2
_OPEN
 10
296.1782250738815
 20
474.1211363414731
 30
0.0
 41
21.0
 42
21.0
 43
21.0
 50
180.0
  0
INSERT
  5
1207
330
79A
100
AcDbEntity
  8
C寸法
 62
     0
440
 16777216
370
    -2
100
AcDbBlockReference
  2
_OPEN
 10
271.1782250738815
 20
474.1211363414731
 30
0.0
 41
21.0
 42
21.0
 43
21.0
  0
POINT
  5
1208
330
79A
100
AcDbEntity
  8
Defpoints
 62
     0
440
 16777216
100
AcDbPoint
 10
296.1782250738815
 20
555.287270713658
 30
0.0
  0
POINT
  5
1209
330
79A
100
AcDbEntity
  8
Defpoints
 62
     0
440
 16777216
100
AcDbPoint
 10
271.1782250738815
 20
555.287270713658
 30
0.0
  0
POINT
  5
120A
330
79A
100
AcDbEntity
  8
Defpoints
 62
     0
440
 16777216
100
AcDbPoint
 10
271.1782250738815
 20
474.1211363414731
 30
0.0
  0
ENDBLK
  5
79C
330
79A
100
AcDbEntity
  8
0
100
AcDbBlockEnd
  0
BLOCK
  5
7AA
330
7A9
100
AcDbEntity
  8
0
100
AcDbBlockBegin
  2
*D55
 70
     1
 10
0.0
 20
0.0
 30
0.0
  3
*D55
  1

  0
LINE
  5
11C5
330
7A9
100
AcDbEntity
  8
C寸法
 62
     0
440
 16777216
370
    -2
100
AcDbLine
 10
257.1782250738816
 20
1105.287270713658
 30
0.0
 11
147.0013536569873
 21
1105.287270713658
 31
0.0
  0
LINE
  5
11C6
330
7A9
100
AcDbEntity
  8
C寸法
 62
     0
440
 16777216
370
    -2
100
AcDbLine
 10
257.1782250738816
 20
1080.287270713658
 30
0.0
 11
147.0013536569874
 21
1080.287270713658
 31
0.0
  0
LINE
  5
11C7
330
7A9
100
AcDbEntity
  8
C寸法
 62
     0
440
 16777216
370
    -2
100
AcDbLine
 10
154.0013536569874
 20
1059.287270713658
 30
0.0
 11
154.0013536569874
 21
1038.287270713658
 31
0.0
  0
LINE
  5
11C8
330
7A9
100
AcDbEntity
  8
C寸法
 62
     0
440
 16777216
370
    -2
100
AcDbLine
 10
154.0013536569873
 20
1126.287270713658
 30
0.0
 11
154.0013536569873
 21
1205.287270713658
 31
0.0
  0
LINE
  5
11C9
330
7A9
100
AcDbEntity
  8
C寸法
 62
     0
440
 16777216
370
    -2
100
AcDbLine
 10
154.0013536569874
 20
1080.287270713658
 30
0.0
 11
154.0013536569873
 21
1105.287270713658
 31
0.0
  0
INSERT
  5
11CA
330
7A9
100
AcDbEntity
  8
C寸法
 62
     0
440
 16777216
370
    -2
100
AcDbBlockReference
  2
_OPEN
 10
154.0013536569874
 20
1080.287270713658
 30
0.0
 41
21.0
 42
21.0
 43
21.0
 50
90.0
  0
INSERT
  5
11CB
330
7A9
100
AcDbEntity
  8
C寸法
 62
     0
440
 16777216
370
    -2
100
AcDbBlockReference
  2
_OPEN
 10
154.0013536569873
 20
1105.287270713658
 30
0.0
 41
21.0
 42
21.0
 43
21.0
 50
270.0
  0
MTEXT
  5
11CC
330
7A9
100
AcDbEntity
  8
C寸法
 62
     0
440
 16777216
370
    18
100
AcDbMText
 10
136.5013536569877
 20
1181.287270713658
 30
0.0
 40
21.0
 41
0.0
 46
0.0
 71
     5
 72
     1
  1
\A1;25
  7
KANJI
 11
0.0000000000000001
 21
1.0
 31
0.0
 73
     1
 44
1.0
  0
POINT
  5
11CD
330
7A9
100
AcDbEntity
  8
Defpoints
 62
     0
440
 16777216
100
AcDbPoint
 10
271.1782250738816
 20
1105.287270713658
 30
0.0
  0
POINT
  5
11CE
330
7A9
100
AcDbEntity
  8
Defpoints
 62
     0
440
 16777216
100
AcDbPoint
 10
271.1782250738816
 20
1080.287270713658
 30
0.0
  0
POINT
  5
11CF
330
7A9
100
AcDbEntity
  8
Defpoints
 62
     0
440
 16777216
100
AcDbPoint
 10
154.0013536569874
 20
1080.287270713658
 30
0.0
  0
ENDBLK
  5
7AB
330
7A9
100
AcDbEntity
  8
0
100
AcDbBlockEnd
  0
BLOCK
  5
7B8
330
7B7
100
AcDbEntity
  8
0
100
AcDbBlockBegin
  2
*D56
 70
     1
 10
0.0
 20
0.0
 30
0.0
  3
*D56
  1

  0
LINE
  5
11E2
330
7B7
100
AcDbEntity
  8
C寸法
 62
     0
440
 16777216
370
    -2
100
AcDbLine
 10
257.1782250738816
 20
1080.287270713658
 30
0.0
 11
146.6413536569877
 21
1080.287270713658
 31
0.0
  0
LINE
  5
11E3
330
7B7
100
AcDbEntity
  8
C寸法
 62
     0
440
 16777216
370
    -2
100
AcDbLine
 10
257.1782250738816
 20
990.2872707136587
 30
0.0
 11
146.6413536569877
 21
990.2872707136587
 31
0.0
  0
LINE
  5
11E4
330
7B7
100
AcDbEntity
  8
C寸法
 62
     0
440
 16777216
370
    -2
100
AcDbLine
 10
153.6413536569877
 20
1059.287270713658
 30
0.0
 11
153.6413536569877
 21
1011.287270713659
 31
0.0
  0
INSERT
  5
11E5
330
7B7
100
AcDbEntity
  8
C寸法
 62
     0
440
 16777216
370
    -2
100
AcDbBlockReference
  2
_OPEN
 10
153.6413536569877
 20
1080.287270713658
 30
0.0
 41
21.0
 42
21.0
 43
21.0
 50
90.0
  0
INSERT
  5
11E6
330
7B7
100
AcDbEntity
  8
C寸法
 62
     0
440
 16777216
370
    -2
100
AcDbBlockReference
  2
_OPEN
 10
153.6413536569877
 20
990.2872707136587
 30
0.0
 41
21.0
 42
21.0
 43
21.0
 50
270.0
  0
MTEXT
  5
11E7
330
7B7
100
AcDbEntity
  8
C寸法
 62
     0
440
 16777216
370
    18
100
AcDbMText
 10
136.141353656988
 20
1035.287270713657
 30
0.0
 40
21.0
 41
0.0
 46
0.0
 71
     5
 72
     1
  1
\A1;90
  7
KANJI
 11
0.0000000000000001
 21
1.0
 31
0.0
 73
     1
 44
1.0
  0
POINT
  5
11E8
330
7B7
100
AcDbEntity
  8
Defpoints
 62
     0
440
 16777216
100
AcDbPoint
 10
271.1782250738816
 20
1080.287270713658
 30
0.0
  0
POINT
  5
11E9
330
7B7
100
AcDbEntity
  8
Defpoints
 62
     0
440
 16777216
100
AcDbPoint
 10
271.1782250738816
 20
990.2872707136587
 30
0.0
  0
POINT
  5
11EA
330
7B7
100
AcDbEntity
  8
Defpoints
 62
     0
440
 16777216
100
AcDbPoint
 10
153.6413536569877
 20
990.2872707136587
 30
0.0
  0
ENDBLK
  5
7B9
330
7B7
100
AcDbEntity
  8
0
100
AcDbBlockEnd
  0
BLOCK
  5
7C4
330
7C3
100
AcDbEntity
  8
0
100
AcDbBlockBegin
  2
*D57
 70
     1
 10
0.0
 20
0.0
 30
0.0
  3
*D57
  1

  0
LINE
  5
11F6
330
7C3
100
AcDbEntity
  8
C寸法
 62
     0
440
 16777216
370
    -2
100
AcDbLine
 10
257.1782250738816
 20
990.2872707136587
 30
0.0
 11
146.6413536569877
 21
990.2872707136587
 31
0.0
  0
LINE
  5
11F7
330
7C3
100
AcDbEntity
  8
C寸法
 62
     0
440
 16777216
370
    -2
100
AcDbLine
 10
257.1782250738816
 20
580.2872707136582
 30
0.0
 11
146.6413536569878
 21
580.2872707136582
 31
0.0
  0
LINE
  5
11F8
330
7C3
100
AcDbEntity
  8
C寸法
 62
     0
440
 16777216
370
    -2
100
AcDbLine
 10
153.6413536569877
 20
969.2872707136585
 30
0.0
 11
153.6413536569878
 21
601.2872707136582
 31
0.0
  0
INSERT
  5
11F9
330
7C3
100
AcDbEntity
  8
C寸法
 62
     0
440
 16777216
370
    -2
100
AcDbBlockReference
  2
_OPEN
 10
153.6413536569877
 20
990.2872707136587
 30
0.0
 41
21.0
 42
21.0
 43
21.0
 50
90.0
  0
INSERT
  5
11FA
330
7C3
100
AcDbEntity
  8
C寸法
 62
     0
440
 16777216
370
    -2
100
AcDbBlockReference
  2
_OPEN
 10
153.6413536569878
 20
580.2872707136582
 30
0.0
 41
21.0
 42
21.0
 43
21.0
 50
270.0
  0
MTEXT
  5
11FB
330
7C3
100
AcDbEntity
  8
C寸法
 62
     0
440
 16777216
370
    18
100
AcDbMText
 10
129.141353656988
 20
785.2872707136563
 30
0.0
 40
35.0
 41
0.0
 46
0.0
 71
     5
 72
     1
  1
\A1;D
  7
KANJI
 11
0.0000000000000001
 21
1.0
 31
0.0
 73
     1
 44
1.0
  0
POINT
  5
11FC
330
7C3
100
AcDbEntity
  8
Defpoints
 62
     0
440
 16777216
100
AcDbPoint
 10
271.1782250738816
 20
990.2872707136587
 30
0.0
  0
POINT
  5
11FD
330
7C3
100
AcDbEntity
  8
Defpoints
 62
     0
440
 16777216
100
AcDbPoint
 10
271.1782250738816
 20
580.2872707136582
 30
0.0
  0
POINT
  5
11FE
330
7C3
100
AcDbEntity
  8
Defpoints
 62
     0
440
 16777216
100
AcDbPoint
 10
153.6413536569878
 20
580.2872707136582
 30
0.0
  0
ENDBLK
  5
7C5
330
7C3
100
AcDbEntity
  8
0
100
AcDbBlockEnd
  0
BLOCK
  5
7D0
330
7CF
100
AcDbEntity
  8
0
100
AcDbBlockBegin
  2
*D58
 70
     1
 10
0.0
 20
0.0
 30
0.0
  3
*D58
  1

  0
LINE
  5
11EB
330
7CF
100
AcDbEntity
  8
C寸法
 62
     0
440
 16777216
370
    -2
100
AcDbLine
 10
257.1782250738816
 20
580.2872707136582
 30
0.0
 11
147.3613536569871
 21
580.2872707136582
 31
0.0
  0
LINE
  5
11EC
330
7CF
100
AcDbEntity
  8
C寸法
 62
     0
440
 16777216
370
    -2
100
AcDbLine
 10
257.1782250738816
 20
555.2872707136582
 30
0.0
 11
147.3613536569871
 21
555.2872707136581
 31
0.0
  0
LINE
  5
11ED
330
7CF
100
AcDbEntity
  8
C寸法
 62
     0
440
 16777216
370
    -2
100
AcDbLine
 10
154.3613536569871
 20
601.2872707136582
 30
0.0
 11
154.3613536569871
 21
622.2872707136582
 31
0.0
  0
LINE
  5
11EE
330
7CF
100
AcDbEntity
  8
C寸法
 62
     0
440
 16777216
370
    -2
100
AcDbLine
 10
154.3613536569871
 20
534.2872707136581
 30
0.0
 11
154.3613536569871
 21
456.6449761853897
 31
0.0
  0
LINE
  5
11EF
330
7CF
100
AcDbEntity
  8
C寸法
 62
     0
440
 16777216
370
    -2
100
AcDbLine
 10
154.3613536569871
 20
580.2872707136582
 30
0.0
 11
154.3613536569871
 21
555.2872707136581
 31
0.0
  0
INSERT
  5
11F0
330
7CF
100
AcDbEntity
  8
C寸法
 62
     0
440
 16777216
370
    -2
100
AcDbBlockReference
  2
_OPEN
 10
154.3613536569871
 20
580.2872707136582
 30
0.0
 41
21.0
 42
21.0
 43
21.0
 50
270.0
  0
INSERT
  5
11F1
330
7CF
100
AcDbEntity
  8
C寸法
 62
     0
440
 16777216
370
    -2
100
AcDbBlockReference
  2
_OPEN
 10
154.3613536569871
 20
555.2872707136581
 30
0.0
 41
21.0
 42
21.0
 43
21.0
 50
90.0
  0
MTEXT
  5
11F2
330
7CF
100
AcDbEntity
  8
C寸法
 62
     0
440
 16777216
370
    18
100
AcDbMText
 10
136.8613536569873
 20
480.6449761853896
 30
0.0
 40
21.0
 41
0.0
 46
0.0
 71
     5
 72
     1
  1
\A1;25
  7
KANJI
 11
0.0000000000000001
 21
1.0
 31
0.0
 73
     1
 44
1.0
  0
POINT
  5
11F3
330
7CF
100
AcDbEntity
  8
Defpoints
 62
     0
440
 16777216
100
AcDbPoint
 10
271.1782250738816
 20
580.2872707136582
 30
0.0
  0
POINT
  5
11F4
330
7CF
100
AcDbEntity
  8
Defpoints
 62
     0
440
 16777216
100
AcDbPoint
 10
271.1782250738816
 20
555.2872707136582
 30
0.0
  0
POINT
  5
11F5
330
7CF
100
AcDbEntity
  8
Defpoints
 62
     0
440
 16777216
100
AcDbPoint
 10
154.3613536569871
 20
555.2872707136581
 30
0.0
  0
ENDBLK
  5
7D1
330
7CF
100
AcDbEntity
  8
0
100
AcDbBlockEnd
  0
BLOCK
  5
7DE
330
7DD
100
AcDbEntity
  8
0
100
AcDbBlockBegin
  2
*D59
 70
     1
 10
0.0
 20
0.0
 30
0.0
  3
*D59
  1

  0
LINE
  5
1243
330
7DD
100
AcDbEntity
  8
C寸法
 62
     0
440
 16777216
370
    -2
100
AcDbLine
 10
437.6233761730571
 20
670.0414109235155
 30
0.0
 11
318.4850799680102
 21
604.4512715932892
 31
0.0
  0
MTEXT
  5
1244
330
7DD
100
AcDbEntity
  8
C寸法
 62
     0
440
 16777216
370
    18
100
AcDbMText
 10
378.8124977166664
 20
657.640581306606
 30
0.0
 40
21.0
 41
0.0
 46
0.0
 71
     5
 72
     1
  1
\A1;8-R10
  7
KANJI
 11
0.8760168838606395
 21
0.4822804362516636
 31
0.0
 73
     1
 44
1.0
  0
INSERT
  5
1245
330
7DD
100
AcDbEntity
  8
C寸法
 62
     0
440
 16777216
370
    -2
100
AcDbBlockReference
  2
_OPEN
 10
300.0887254069368
 20
594.3233824320042
 30
0.0
 41
21.0
 42
21.0
 43
21.0
 50
208.8344471166306
  0
ARC
  5
1246
330
7DD
100
AcDbEntity
  8
C寸法
 62
     0
440
 16777216
370
    -2
100
AcDbCircle
 10
291.3285565683305
 20
589.5005780694877
 30
0.0
 40
9.999999999999886
100
AcDbArc
 50
80.21409131831617
 51
68.94149277578856
  0
POINT
  5
1247
330
7DD
100
AcDbEntity
  8
Defpoints
 62
     0
440
 16777216
100
AcDbPoint
 10
300.0887254069368
 20
594.3233824320042
 30
0.0
  0
POINT
  5
1248
330
7DD
100
AcDbEntity
  8
Defpoints
 62
     0
440
 16777216
100
AcDbPoint
 10
291.3285565683305
 20
589.5005780694877
 30
0.0
  0
ENDBLK
  5
7DF
330
7DD
100
AcDbEntity
  8
0
100
AcDbBlockEnd
  0
BLOCK
  5
7E6
330
7E5
100
AcDbEntity
  8
0
100
AcDbBlockBegin
  2
*D60
 70
     1
 10
0.0
 20
0.0
 30
0.0
  3
*D60
  1

  0
LINE
  5
920
330
7E5
100
AcDbEntity
  8
C寸法
 62
     0
440
 16777216
370
    -2
100
AcDbLine
 10
3229.719600408551
 20
961.3413812138947
 30
0.0
 11
3265.293102939838
 21
980.5502761007319
 31
0.0
  0
MTEXT
  5
921
330
7E5
100
AcDbEntity
  8
C寸法
 62
     0
440
 16777216
100
AcDbMText
 10
3233.111007524789
 20
972.3489277022313
 30
0.0
 40
0.138
 41
0.0
 46
0.0
 71
     5
 72
     1
  1
\A1;∅181
 11
0.8799136342401753
 21
0.4751336614872148
 31
0.0
 73
     1
 44
1.0
  0
INSERT
  5
922
330
7E5
100
AcDbEntity
  8
C寸法
 62
     0
440
 16777216
370
    -2
100
AcDbBlockReference
  2
_OPEN
 10
3286.411030161602
 20
991.9534839764253
 30
0.0
 41
24.0
 42
24.0
 43
24.0
 50
28.3680530698852
  0
POINT
  5
923
330
7E5
100
AcDbEntity
  8
Defpoints
 62
     0
440
 16777216
100
AcDbPoint
 10
3286.411030161602
 20
991.9534839764253
 30
0.0
  0
POINT
  5
924
330
7E5
100
AcDbEntity
  8
Defpoints
 62
     0
440
 16777216
100
AcDbPoint
 10
3445.675397959071
 20
1077.95267670561
 30
0.0
  0
ENDBLK
  5
7E7
330
7E5
100
AcDbEntity
  8
0
100
AcDbBlockEnd
  0
BLOCK
  5
7EE
330
7ED
100
AcDbEntity
  8
0
100
AcDbBlockBegin
  2
*D61
 70
     1
 10
0.0
 20
0.0
 30
0.0
  3
*D61
  1

  0
LINE
  5
91B
330
7ED
100
AcDbEntity
  8
C寸法
 62
     0
440
 16777216
370
    -2
100
AcDbLine
 10
3279.564756354723
 20
920.4938887675639
 30
0.0
 11
3303.95223791332
 21
952.7721173318555
 31
0.0
  0
MTEXT
  5
91C
330
7ED
100
AcDbEntity
  8
C寸法
 62
     0
440
 16777216
100
AcDbMText
 10
3278.082312782903
 20
931.9259230945938
 30
0.0
 40
0.138
 41
0.0
 46
0.0
 71
     5
 72
     1
  1
\A1;∅158
 11
0.6028250111360594
 21
0.7978734272732801
 31
0.0
 73
     1
 44
1.0
  0
INSERT
  5
91D
330
7ED
100
AcDbEntity
  8
C寸法
 62
     0
440
 16777216
370
    -2
100
AcDbBlockReference
  2
_OPEN
 10
3318.420038180585
 20
971.9210795864141
 30
0.0
 41
24.0
 42
24.0
 43
24.0
 50
52.92750677460026
  0
POINT
  5
91E
330
7ED
100
AcDbEntity
  8
Defpoints
 62
     0
440
 16777216
100
AcDbPoint
 10
3318.420038180585
 20
971.9210795864141
 30
0.0
  0
POINT
  5
91F
330
7ED
100
AcDbEntity
  8
Defpoints
 62
     0
440
 16777216
100
AcDbPoint
 10
3413.66638994009
 20
1097.985081095599
 30
0.0
  0
ENDBLK
  5
7EF
330
7ED
100
AcDbEntity
  8
0
100
AcDbBlockEnd
  0
BLOCK
  5
7F6
330
7F5
100
AcDbEntity
  8
0
100
AcDbBlockBegin
  2
*D62
 70
     1
 10
0.0
 20
0.0
 30
0.0
  3
*D62
  1

  0
LINE
  5
130A
330
7F5
100
AcDbEntity
  8
C寸法
 62
     0
440
 16777216
370
    -2
100
AcDbLine
 10
996.1782250738819
 20
1119.287270713658
 30
0.0
 11
996.1782250738819
 21
1158.449166724553
 31
0.0
  0
LINE
  5
130B
330
7F5
100
AcDbEntity
  8
C寸法
 62
     0
440
 16777216
370
    -2
100
AcDbLine
 10
876.1782250738663
 20
1119.287270713658
 30
0.0
 11
876.1782250738663
 21
1158.449166724553
 31
0.0
  0
LINE
  5
130C
330
7F5
100
AcDbEntity
  8
C寸法
 62
     0
440
 16777216
370
    -2
100
AcDbLine
 10
975.178225073882
 20
1151.449166724553
 30
0.0
 11
897.1782250738664
 21
1151.449166724553
 31
0.0
  0
INSERT
  5
130D
330
7F5
100
AcDbEntity
  8
C寸法
 62
     0
440
 16777216
370
    -2
100
AcDbBlockReference
  2
_OPEN
 10
996.1782250738819
 20
1151.449166724553
 30
0.0
 41
21.0
 42
21.0
 43
21.0
  0
INSERT
  5
130E
330
7F5
100
AcDbEntity
  8
C寸法
 62
     0
440
 16777216
370
    -2
100
AcDbBlockReference
  2
_OPEN
 10
876.1782250738663
 20
1151.449166724553
 30
0.0
 41
21.0
 42
21.0
 43
21.0
 50
180.0
  0
MTEXT
  5
130F
330
7F5
100
AcDbEntity
  8
C寸法
 62
     0
440
 16777216
370
    18
100
AcDbMText
 10
936.1782250738743
 20
1168.949166724553
 30
0.0
 40
21.0
 41
0.0
 46
0.0
 71
     5
 72
     1
  1
\A1;120
  7
KANJI
 73
     1
 44
1.0
  0
POINT
  5
1310
330
7F5
100
AcDbEntity
  8
Defpoints
 62
     0
440
 16777216
100
AcDbPoint
 10
996.1782250738819
 20
1105.287270713658
 30
0.0
  0
POINT
  5
1311
330
7F5
100
AcDbEntity
  8
Defpoints
 62
     0
440
 16777216
100
AcDbPoint
 10
876.1782250738663
 20
1105.287270713658
 30
0.0
  0
POINT
  5
1312
330
7F5
100
AcDbEntity
  8
Defpoints
 62
     0
440
 16777216
100
AcDbPoint
 10
876.1782250738663
 20
1151.449166724553
 30
0.0
  0
ENDBLK
  5
7F7
330
7F5
100
AcDbEntity
  8
0
100
AcDbBlockEnd
  0
BLOCK
  5
802
330
801
100
AcDbEntity
  8
0
100
AcDbBlockBegin
  2
*D63
 70
     1
 10
0.0
 20
0.0
 30
0.0
  3
*D63
  1

  0
LINE
  5
122F
330
801
100
AcDbEntity
  8
C寸法
 62
     0
440
 16777216
370
    -2
100
AcDbLine
 10
1255.178225073882
 20
960.2872707136587
 30
0.0
 11
1337.808579211082
 21
960.287270713659
 31
0.0
  0
LINE
  5
1230
330
801
100
AcDbEntity
  8
C寸法
 62
     0
440
 16777216
370
    -2
100
AcDbLine
 10
1255.178225073882
 20
1080.287270713657
 30
0.0
 11
1337.808579211082
 21
1080.287270713657
 31
0.0
  0
LINE
  5
1231
330
801
100
AcDbEntity
  8
C寸法
 62
     0
440
 16777216
370
    -2
100
AcDbLine
 10
1330.808579211082
 20
981.2872707136587
 30
0.0
 11
1330.808579211082
 21
1059.287270713658
 31
0.0
  0
INSERT
  5
1232
330
801
100
AcDbEntity
  8
C寸法
 62
     0
440
 16777216
370
    -2
100
AcDbBlockReference
  2
_OPEN
 10
1330.808579211082
 20
960.287270713659
 30
0.0
 41
21.0
 42
21.0
 43
21.0
 50
270.0
  0
INSERT
  5
1233
330
801
100
AcDbEntity
  8
C寸法
 62
     0
440
 16777216
370
    -2
100
AcDbBlockReference
  2
_OPEN
 10
1330.808579211082
 20
1080.287270713657
 30
0.0
 41
21.0
 42
21.0
 43
21.0
 50
90.0
  0
MTEXT
  5
1234
330
801
100
AcDbEntity
  8
C寸法
 62
     0
440
 16777216
370
    18
100
AcDbMText
 10
1313.308579211082
 20
1020.287270713657
 30
0.0
 40
21.0
 41
0.0
 46
0.0
 71
     5
 72
     1
  1
\A1;120
  7
KANJI
 11
0.0000000000000001
 21
1.0
 31
0.0
 73
     1
 44
1.0
  0
POINT
  5
1235
330
801
100
AcDbEntity
  8
Defpoints
 62
     0
440
 16777216
100
AcDbPoint
 10
1241.178225073882
 20
960.2872707136587
 30
0.0
  0
POINT
  5
1236
330
801
100
AcDbEntity
  8
Defpoints
 62
     0
440
 16777216
100
AcDbPoint
 10
1241.178225073882
 20
1080.287270713657
 30
0.0
  0
POINT
  5
1237
330
801
100
AcDbEntity
  8
Defpoints
 62
     0
440
 16777216
100
AcDbPoint
 10
1330.808579211082
 20
1080.287270713657
 30
0.0
  0
ENDBLK
  5
803
330
801
100
AcDbEntity
  8
0
100
AcDbBlockEnd
  0
BLOCK
  5
80E
330
80D
100
AcDbEntity
  8
0
100
AcDbBlockBegin
  2
*D64
 70
     1
 10
0.0
 20
0.0
 30
0.0
  3
*D64
  1

  0
LINE
  5
10FA
330
80D
100
AcDbEntity
  8
C寸法
 62
     0
440
 16777216
370
    -2
100
AcDbLine
 10
393.5793923386268
 20
210.3655189552892
 30
0.0
 11
314.8507635782443
 21
148.9387170435696
 31
0.0
  0
MTEXT
  5
10FB
330
80D
100
AcDbEntity
  8
C寸法
 62
     0
440
 16777216
370
    18
100
AcDbMText
 10
356.0082952296757
 20
203.2477480942842
 30
0.0
 40
21.0
 41
0.0
 46
0.0
 71
     5
 72
     1
  1
\A1;R10
  7
KANJI
 11
0.7884125913056933
 21
0.6151468002604274
 31
0.0
 73
     1
 44
1.0
  0
INSERT
  5
10FC
330
80D
100
AcDbEntity
  8
C寸法
 62
     0
440
 16777216
370
    -2
100
AcDbBlockReference
  2
_OPEN
 10
298.2940991608248
 20
136.0206342381007
 30
0.0
 41
21.0
 42
21.0
 43
21.0
 50
217.9625878313643
  0
POINT
  5
10FD
330
80D
100
AcDbEntity
  8
Defpoints
 62
     0
440
 16777216
100
AcDbPoint
 10
298.2940991608248
 20
136.0206342381007
 30
0.0
  0
POINT
  5
10FE
330
80D
100
AcDbEntity
  8
Defpoints
 62
     0
440
 16777216
100
AcDbPoint
 10
306.1782250738962
 20
142.1721022407162
 30
0.0
  0
ENDBLK
  5
80F
330
80D
100
AcDbEntity
  8
0
100
AcDbBlockEnd
  0
BLOCK
  5
124C
330
124B
100
AcDbEntity
  8
0
100
AcDbBlockBegin
  2
*D65
 70
     1
 10
0.0
 20
0.0
 30
0.0
  3
*D65
  1

  0
LINE
  5
12BB
330
124B
100
AcDbEntity
  8
画層1
 62
     0
440
 16777216
370
    -2
100
AcDbLine
 10
406.4106113070687
 20
690.5196569468562
 30
0.0
 11
313.9563996669327
 21
598.0654453067103
 31
0.0
  0
MTEXT
  5
12BC
330
124B
100
AcDbEntity
  8
画層1
 62
     0
440
 16777216
100
AcDbMText
 10
357.0899133193086
 20
662.2353856993917
 30
0.0
 40
21.0
 41
0.0
 46
0.0
 71
     5
 72
     1
  1
8-R10
  7
KANJI
 11
0.7071067811865101
 21
0.7071067811865852
 31
0.0
 73
     1
 44
1.0
  0
INSERT
  5
12BD
330
124B
100
AcDbEntity
  8
画層1
 62
     0
440
 16777216
370
    -2
100
AcDbBlockReference
  2
_OPEN
 10
299.1071572620159
 20
583.2162029017921
 30
0.0
 41
21.0
 42
21.0
 43
21.0
 50
225.0000000000031
  0
POINT
  5
12BE
330
124B
100
AcDbEntity
  8
Defpoints
 62
     0
440
 16777216
100
AcDbPoint
 10
299.1071572620159
 20
583.2162029017921
 30
0.0
  0
POINT
  5
12BF
330
124B
100
AcDbEntity
  8
Defpoints
 62
     0
440
 16777216
100
AcDbPoint
 10
306.1782250738813
 20
590.2872707136582
 30
0.0
  0
ENDBLK
  5
124D
330
124B
100
AcDbEntity
  8
0
100
AcDbBlockEnd
  0
ENDSEC
  0
SECTION
  2
ENTITIES
  0
TEXT
  5
265
330
1F
100
AcDbEntity
  8
C寸法
 62
     7
100
AcDbText
 10
1382.050309773436
 20
217.9593312928909
 30
0.0
 40
20.0
  1
品　番　：ハンドメイドシンク フルオーダー
  7
KANJI
100
AcDbText
  0
LINE
  5
266
330
1F
100
AcDbEntity
  8
0
100
AcDbLine
 10
1376.683132538019
 20
111.5967714035605
 30
0.0
 11
1870.776720483351
 21
111.5967714035605
 31
0.0
  0
TEXT
  5
267
330
1F
100
AcDbEntity
  8
C寸法
 62
     7
100
AcDbText
 10
1378.061348794894
 20
81.29381523884148
 30
0.0
 40
20.0
  1
※詳細はお問合せください
  7
KANJI
100
AcDbText
  0
LWPOLYLINE
  5
268
330
1F
100
AcDbEntity
  8
0
100
AcDbPolyline
 90
        4
 70
     1
 43
0.0
 10
85.4002191002171
 20
1269.060383075003
 10
85.4002191002171
 20
67.51189516750978
 10
1885.455878342763
 20
67.51189516750978
 10
1885.455878342763
 20
1269.060383075003
  0
DIMENSION
  5
45E
330
1F
100
AcDbEntity
  8
C寸法
 62
     0
370
    18
100
AcDbDimension
280
     0
  2
*D21
 10
910.0954225049914
 20
1044.93413766697
 30
0.0
 11
743.0172495478741
 21
800.8771137889647
 31
0.0
 70
   163
 71
     5
 42
181.0000000000104
 73
     0
 74
     0
 75
     0
  3
Standard
100
AcDbDiametricDimension
 15
828.4622778629096
 25
883.3883865750621
 35
0.0
 40
0.0
1001
ACAD_DSTYLE_DIMRADIAL_EXTENSION
1070
   387
1070
     1
1070
   388
1040
0.0
1070
   390
1040
0.0
1001
ACAD
1000
DSTYLE
1002
{
1070
   340
1005
F3
1070
    40
1040
7.0
1070
    41
1040
3.0
1070
    42
1040
2.0
1070
    43
1040
1.0
1070
    44
1040
1.0
1070
    48
1040
0.000000001
1070
    73
1070
     0
1070
    77
1070
     1
1070
    78
1070
     8
1070
    79
1070
     2
1070
    90
1070
     2
1070
   140
1040
3.0
1070
   141
1040
0.0
1070
   147
1040
1.0
1070
   179
1070
     2
1070
   271
1070
     2
1070
   272
1070
     2
1070
   288
1070
     1
1070
   341
1005
90
1070
   342
1005
90
1002
}
  0
LINE
  5
66D
330
1F
100
AcDbEntity
  8
C4
 62
     0
100
AcDbLine
 10
306.1782250738815
 20
1080.287270713658
 30
0.0
 11
1206.178225073882
 21
1080.287270713658
 31
0.0
  0
LINE
  5
66E
330
1F
100
AcDbEntity
  8
C4
 62
     0
100
AcDbLine
 10
271.1782250738815
 20
1105.287270713658
 30
0.0
 11
1241.178225073882
 21
1105.287270713658
 31
0.0
  0
ARC
  5
66F
330
1F
100
AcDbEntity
  8
C4
 62
     0
100
AcDbCircle
 10
766.178225073882
 20
1070.287270713658
 30
0.0
 40
10.0
100
AcDbArc
 50
90.0
 51
180.0
  0
LINE
  5
670
330
1F
100
AcDbEntity
  8
C4
 62
     0
100
AcDbLine
 10
306.1782250738815
 20
990.287270713658
 30
0.0
 11
756.1782250738819
 21
990.287270713658
 31
0.0
  0
ARC
  5
671
330
1F
100
AcDbEntity
  8
C4
 62
     0
100
AcDbCircle
 10
306.1782250738815
 20
980.2872707136581
 30
0.0
 40
10.0
100
AcDbArc
 50
90.0
 51
180.0
  0
ARC
  5
672
330
1F
100
AcDbEntity
  8
C4
 62
     0
100
AcDbCircle
 10
986.1782250738819
 20
1070.287270713658
 30
0.0
 40
10.0
100
AcDbArc
 50
0.0
 51
90.0
  0
ARC
  5
673
330
1F
100
AcDbEntity
  8
C4
 62
     0
100
AcDbCircle
 10
306.1782250738815
 20
1070.287270713658
 30
0.0
 40
10.0
100
AcDbArc
 50
90.0
 51
180.0
  0
LINE
  5
674
330
1F
100
AcDbEntity
  8
C4
 62
     0
100
AcDbLine
 10
996.1782250738819
 20
1070.287270713658
 30
0.0
 11
996.1782250738819
 21
590.2872707136578
 31
0.0
  0
LINE
  5
675
330
1F
100
AcDbEntity
  8
C4
 62
     0
100
AcDbLine
 10
756.1782250738819
 20
1070.287270713658
 30
0.0
 11
756.1782250738819
 21
990.287270713658
 31
0.0
  0
ARC
  5
676
330
1F
100
AcDbEntity
  8
C4
 62
     0
100
AcDbCircle
 10
986.1782250738819
 20
590.2872707136578
 30
0.0
 40
10.0
100
AcDbArc
 50
270.0
 51
0.0
  0
LINE
  5
677
330
1F
100
AcDbEntity
  8
C4
 62
     0
100
AcDbLine
 10
1206.178225073882
 20
580.287270713658
 30
0.0
 11
306.1782250738815
 21
580.287270713658
 31
0.0
  0
LINE
  5
678
330
1F
100
AcDbEntity
  8
C4
 62
     0
100
AcDbLine
 10
1241.178225073882
 20
555.287270713658
 30
0.0
 11
271.1782250738815
 21
555.287270713658
 31
0.0
  0
ARC
  5
679
102
{ACAD_REACTORS
330
1259
102
}
330
1F
100
AcDbEntity
  8
C4
 62
     0
100
AcDbCircle
 10
306.1782250738815
 20
590.2872707136578
 30
0.0
 40
10.0
100
AcDbArc
 50
180.0
 51
270.0
  0
LINE
  5
67A
330
1F
100
AcDbEntity
  8
C4
 62
     0
100
AcDbLine
 10
296.1782250738815
 20
590.2872707136578
 30
0.0
 11
296.1782250738815
 21
1070.287270713658
 31
0.0
  0
LINE
  5
67B
330
1F
100
AcDbEntity
  8
C4
 62
     0
100
AcDbLine
 10
271.1782250738815
 20
555.287270713658
 30
0.0
 11
271.1782250738815
 21
1105.287270713658
 31
0.0
  0
ARC
  5
67C
330
1F
100
AcDbEntity
  8
C4
 62
     0
100
AcDbCircle
 10
1206.178225073882
 20
1070.287270713658
 30
0.0
 40
10.0
100
AcDbArc
 50
0.0
 51
90.0
  0
LINE
  5
67D
330
1F
100
AcDbEntity
  8
C4
 62
     0
100
AcDbLine
 10
1216.178225073882
 20
1070.287270713658
 30
0.0
 11
1216.178225073882
 21
590.2872707136578
 31
0.0
  0
LINE
  5
67E
330
1F
100
AcDbEntity
  8
C4
 62
     0
100
AcDbLine
 10
1241.178225073882
 20
1105.287270713658
 30
0.0
 11
1241.178225073882
 21
555.287270713658
 31
0.0
  0
ARC
  5
67F
330
1F
100
AcDbEntity
  8
C4
 62
     0
100
AcDbCircle
 10
1206.178225073882
 20
590.2872707136578
 30
0.0
 40
10.0
100
AcDbArc
 50
270.0
 51
0.0
  0
CIRCLE
  5
680
330
1F
100
AcDbEntity
  8
C4
 62
     0
100
AcDbCircle
 10
876.1782250738663
 20
960.287270713658
 30
0.0
 40
90.5
  0
CIRCLE
  5
681
330
1F
100
AcDbEntity
  8
C4
 62
     0
100
AcDbCircle
 10
876.1782250738663
 20
960.287270713658
 30
0.0
 40
79.0
  0
LINE
  5
682
330
1F
100
AcDbEntity
  8
C4
 62
     0
100
AcDbLine
 10
271.1782250738815
 20
322.3139390274757
 30
0.0
 11
296.1782250738815
 21
322.3139390274757
 31
0.0
  0
LINE
  5
683
330
1F
100
AcDbEntity
  8
C4
 62
     0
100
AcDbLine
 10
272.1782250738816
 20
321.1139390274791
 30
0.0
 11
294.9782250738699
 21
321.1139390274791
 31
0.0
  0
LINE
  5
684
330
1F
100
AcDbEntity
  8
C4
 62
     0
100
AcDbLine
 10
296.1782250738815
 20
322.3139390274757
 30
0.0
 11
296.1782250738815
 21
142.1721022407239
 31
0.0
  0
LINE
  5
685
330
1F
100
AcDbEntity
  8
C4
 62
     0
100
AcDbLine
 10
294.9782250738699
 20
321.1139390274791
 30
0.0
 11
294.9782250738699
 21
142.1721022407239
 31
0.0
  0
LINE
  5
686
330
1F
100
AcDbEntity
  8
C4
 62
     0
100
AcDbLine
 10
996.1782250738664
 20
307.3139390274757
 30
0.0
 11
996.1782250738819
 21
132.4578165264407
 31
0.0
  0
LINE
  5
687
330
1F
100
AcDbEntity
  8
C4
 62
     0
100
AcDbLine
 10
997.3782250738636
 20
306.1409018774008
 30
0.0
 11
997.3782250738791
 21
132.4578165264407
 31
0.0
  0
ARC
  5
688
330
1F
100
AcDbEntity
  8
C4
 62
     0
100
AcDbCircle
 10
986.1782250738819
 20
132.4578165264407
 30
0.0
 40
10.0
100
AcDbArc
 50
269.1815445380446
 51
0.0
  0
ARC
  5
689
330
1F
100
AcDbEntity
  8
C4
 62
     0
100
AcDbCircle
 10
986.1782250738819
 20
132.4578165264407
 30
0.0
 40
11.2
100
AcDbArc
 50
269.1815445380446
 51
0.0
  0
LINE
  5
68A
330
1F
100
AcDbEntity
  8
C4
 62
     0
100
AcDbLine
 10
296.1782250738815
 20
322.3139390274757
 30
0.0
 11
1241.178225073882
 21
322.3139390274757
 31
0.0
  0
LINE
  5
68B
330
1F
100
AcDbEntity
  8
C4
 62
     0
100
AcDbLine
 10
1240.178225073882
 20
315.3139390274757
 30
0.0
 11
1241.178225073882
 21
315.3139390274757
 31
0.0
  0
LINE
  5
68C
330
1F
100
AcDbEntity
  8
C4
 62
     0
100
AcDbLine
 10
1217.378225073878
 20
321.1139390274791
 30
0.0
 11
1240.17822507388
 21
321.1139390274791
 31
0.0
  0
LINE
  5
68D
330
1F
100
AcDbEntity
  8
C4
 62
     0
100
AcDbLine
 10
296.1782250738815
 20
307.3139390274757
 30
0.0
 11
756.1782250738664
 21
307.3139390274757
 31
0.0
  0
LINE
  5
68E
330
1F
100
AcDbEntity
  8
C4
 62
     0
100
AcDbLine
 10
296.1782250738815
 20
310.3139390274757
 30
0.0
 11
756.1782250738664
 21
310.3139390274757
 31
0.0
  0
LINE
  5
68F
330
1F
100
AcDbEntity
  8
C4
 62
     0
100
AcDbLine
 10
784.165154735651
 20
122.4578165264408
 30
0.0
 11
306.0353825060502
 21
132.17312249273
 31
0.0
  0
LINE
  5
690
330
1F
100
AcDbEntity
  8
C4
 62
     0
100
AcDbLine
 10
784.1407764981027
 20
121.2580641763582
 30
0.0
 11
306.0110042685028
 21
130.973370142646
 31
0.0
  0
ARC
  5
691
330
1F
100
AcDbEntity
  8
C4
 62
     0
100
AcDbCircle
 10
306.1782250738815
 20
142.1721022407239
 30
0.0
 40
10.0
100
AcDbArc
 50
180.0
 51
269.1815445380446
  0
ARC
  5
692
330
1F
100
AcDbEntity
  8
C4
 62
     0
100
AcDbCircle
 10
306.1782250738815
 20
142.1721022407239
 30
0.0
 40
11.2
100
AcDbArc
 50
180.0
 51
269.1815445380446
  0
LINE
  5
693
330
1F
100
AcDbEntity
  8
C4
 62
     0
100
AcDbLine
 10
1216.178225073882
 20
322.3139390274757
 30
0.0
 11
1216.178225073882
 21
314.0734947525869
 31
0.0
  0
LINE
  5
694
330
1F
100
AcDbEntity
  8
C4
 62
     0
100
AcDbLine
 10
1217.378225073878
 20
321.1139390274791
 30
0.0
 11
1217.378225073878
 21
314.0734947525869
 31
0.0
  0
ARC
  5
695
330
1F
100
AcDbEntity
  8
C4
 62
     0
100
AcDbCircle
 10
1214.378225073878
 20
314.0734947525869
 30
0.0
 40
3.0
100
AcDbArc
 50
271.301952672925
 51
0.0
  0
ARC
  5
696
330
1F
100
AcDbEntity
  8
C4
 62
     0
100
AcDbCircle
 10
1214.378225073878
 20
314.0734947525869
 30
0.0
 40
1.8
100
AcDbArc
 50
271.301952672925
 51
0.0
  0
LINE
  5
697
330
1F
100
AcDbEntity
  8
C4
 62
     0
100
AcDbLine
 10
1214.419123603516
 20
312.2739594486068
 30
0.0
 11
996.1782250738664
 21
307.3139390274757
 31
0.0
  0
LINE
  5
698
330
1F
100
AcDbEntity
  8
C4
 62
     0
100
AcDbLine
 10
1214.446389289928
 20
311.0742692459478
 30
0.0
 11
997.3782250738636
 21
306.1409018774008
 31
0.0
  0
LINE
  5
699
330
1F
100
AcDbEntity
  8
C4
 62
     0
100
AcDbLine
 10
756.1782250738664
 20
310.3139390274757
 30
0.0
 11
756.1782250738664
 21
135.6006736692959
 31
0.0
  0
ARC
  5
69A
330
1F
100
AcDbEntity
  8
C4
 62
     0
100
AcDbCircle
 10
766.1782250738664
 20
135.6006736692959
 30
0.0
 40
10.0
100
AcDbArc
 50
180.0
 51
269.1815445380446
  0
LINE
  5
69B
330
1F
100
AcDbEntity
  8
C4
 62
     0
100
AcDbLine
 10
966.665154735651
 20
120.9578165264408
 30
0.0
 11
966.665154735651
 21
115.4578165264408
 31
0.0
  0
LINE
  5
69C
330
1F
100
AcDbEntity
  8
C4
 62
     0
100
AcDbLine
 10
966.665154735651
 20
115.4578165264408
 30
0.0
 11
785.6651547356509
 21
115.4578165264408
 31
0.0
  0
LINE
  5
69D
330
1F
100
AcDbEntity
  8
C4
 62
     0
100
AcDbLine
 10
785.6651547356509
 20
115.4578165264408
 30
0.0
 11
785.6651547356509
 21
120.9578165264408
 31
0.0
  0
ARC
  5
69E
330
1F
100
AcDbEntity
  8
C4
 62
     0
100
AcDbCircle
 10
784.165154735651
 20
120.9578165264408
 30
0.0
 40
1.5
100
AcDbArc
 50
0.0
 51
90.0
  0
LINE
  5
69F
330
1F
100
AcDbEntity
  8
C4
 62
     0
100
AcDbLine
 10
784.165154735651
 20
121.2578165264369
 30
0.0
 11
784.165154735651
 21
115.4578165264408
 31
0.0
  0
LINE
  5
6A0
330
1F
100
AcDbEntity
  8
C4
 62
     0
100
AcDbLine
 10
785.6651547356509
 20
113.9578165264399
 30
0.0
 11
966.665154735651
 21
113.9578165264399
 31
0.0
  0
LINE
  5
6A1
330
1F
100
AcDbEntity
  8
C4
 62
     0
100
AcDbLine
 10
968.1651547356507
 20
121.2578165264369
 30
0.0
 11
968.1651547356507
 21
115.4578165264408
 31
0.0
  0
ARC
  5
6A2
330
1F
100
AcDbEntity
  8
C4
 62
     0
100
AcDbCircle
 10
968.1651547356507
 20
120.9578165264408
 30
0.0
 40
1.5
100
AcDbArc
 50
90.0
 51
180.0
  0
ARC
  5
6A3
330
1F
100
AcDbEntity
  8
C4
 62
     0
100
AcDbCircle
 10
966.665154735651
 20
115.4578165264408
 30
0.0
 40
1.5
100
AcDbArc
 50
270.0
 51
0.0
  0
ARC
  5
6A4
330
1F
100
AcDbEntity
  8
C4
 62
     0
100
AcDbCircle
 10
785.6651547356509
 20
115.4578165264408
 30
0.0
 40
1.5
100
AcDbArc
 50
180.0
 51
270.0
  0
LINE
  5
6A5
330
1F
100
AcDbEntity
  8
C4
 62
     0
100
AcDbLine
 10
986.1782250738819
 20
122.4578165264408
 30
0.0
 11
968.1651547356507
 21
122.4578165264408
 31
0.0
  0
LINE
  5
6A6
330
1F
100
AcDbEntity
  8
C4
 62
     0
100
AcDbLine
 10
986.1782250738819
 20
121.2578165264369
 30
0.0
 11
968.1651547356507
 21
121.2578165264369
 31
0.0
  0
DIMENSION
  5
6A7
330
1F
100
AcDbEntity
  8
C寸法
 62
     0
370
    18
100
AcDbDimension
280
     0
  2
*D51
 10
996.1782250738819
 20
1200.905789740654
 30
0.0
 11
876.1782250738816
 21
1218.405789740655
 31
0.0
 70
    32
 71
     5
 42
240.0000000000002
 73
     0
 74
     0
 75
     0
  3
Standard
100
AcDbAlignedDimension
 13
756.1782250738816
 23
1105.287270713658
 33
0.0
 14
996.1782250738819
 24
1105.287270713658
 34
0.0
100
AcDbRotatedDimension
1001
ACAD
1000
DSTYLE
1002
{
1070
    40
1040
7.0
1070
    41
1040
3.0
1070
    42
1040
2.0
1070
    43
1040
1.0
1070
    44
1040
1.0
1070
    48
1040
0.000000001
1070
    73
1070
     0
1070
    74
1070
     0
1070
    77
1070
     1
1070
    78
1070
     8
1070
    90
1070
     2
1070
   140
1040
3.0
1070
   141
1040
0.0
1070
   147
1040
1.0
1070
   271
1070
     2
1070
   272
1070
     2
1070
   279
1070
     1
1070
   340
1005
F3
1070
   341
1005
90
1070
   342
1005
90
1002
}
  0
DIMENSION
  5
6A8
330
1F
100
AcDbEntity
  8
C寸法
 62
     0
370
    18
100
AcDbDimension
280
     0
  2
*D52
 10
1216.178225073882
 20
474.1211363414731
 30
0.0
 11
756.1782250738816
 21
498.6211363414732
 31
0.0
 70
    32
  1
W
 71
     5
 42
920.0000000000002
 73
     0
 74
     0
 75
     0
  3
Standard
100
AcDbAlignedDimension
 13
296.1782250738815
 23
555.287270713658
 33
0.0
 14
1216.178225073882
 24
555.287270713658
 34
0.0
100
AcDbRotatedDimension
1001
ACAD
1000
DSTYLE
1002
{
1070
   340
1005
F3
1070
    40
1040
7.0
1070
    41
1040
3.0
1070
    42
1040
2.0
1070
    43
1040
1.0
1070
    44
1040
1.0
1070
    48
1040
0.000000001
1070
    73
1070
     0
1070
    74
1070
     0
1070
    77
1070
     1
1070
    78
1070
     8
1070
    90
1070
     2
1070
   140
1040
5.0
1070
   141
1040
0.0
1070
   147
1040
1.0
1070
   271
1070
     2
1070
   272
1070
     2
1070
   341
1005
90
1070
   342
1005
90
1002
}
  0
DIMENSION
  5
6A9
330
1F
100
AcDbEntity
  8
C寸法
 62
     0
370
    18
100
AcDbDimension
280
     0
  2
*D53
 10
1241.178225073882
 20
474.1211363414731
 30
0.0
 11
1320.311933062393
 21
500.1324497174662
 31
0.0
 70
   160
 71
     5
 42
25.0
 73
     0
 74
     0
 75
     0
  3
Standard
100
AcDbAlignedDimension
 13
1216.178225073882
 23
555.287270713658
 33
0.0
 14
1241.178225073882
 24
555.287270713658
 34
0.0
100
AcDbRotatedDimension
1001
ACAD
1000
DSTYLE
1002
{
1070
   340
1005
F3
1070
    40
1040
7.0
1070
    41
1040
3.0
1070
    42
1040
2.0
1070
    43
1040
1.0
1070
    44
1040
1.0
1070
    48
1040
0.000000001
1070
    73
1070
     0
1070
    74
1070
     0
1070
    77
1070
     1
1070
    78
1070
     8
1070
    90
1070
     2
1070
   140
1040
3.0
1070
   141
1040
0.0
1070
   147
1040
1.0
1070
   172
1070
     1
1070
   271
1070
     2
1070
   272
1070
     2
1070
   279
1070
     1
1070
   341
1005
90
1070
   342
1005
90
1002
}
  0
DIMENSION
  5
6AA
330
1F
100
AcDbEntity
  8
C寸法
 62
     0
370
    18
100
AcDbDimension
280
     0
  2
*D54
 10
271.1782250738815
 20
474.1211363414731
 30
0.0
 11
197.9165811597963
 21
474.1211363414731
 31
0.0
 70
   160
 71
     5
 42
25.0
 73
     0
 74
     0
 75
     0
  3
Standard
100
AcDbAlignedDimension
 13
296.1782250738815
 23
555.287270713658
 33
0.0
 14
271.1782250738815
 24
555.287270713658
 34
0.0
100
AcDbRotatedDimension
1001
ACAD
1000
DSTYLE
1002
{
1070
   340
1005
F3
1070
    40
1040
7.0
1070
    41
1040
3.0
1070
    42
1040
2.0
1070
    43
1040
1.0
1070
    44
1040
1.0
1070
    48
1040
0.000000001
1070
    73
1070
     0
1070
    74
1070
     0
1070
    77
1070
     1
1070
    78
1070
     8
1070
    90
1070
     2
1070
   140
1040
3.0
1070
   141
1040
0.0
1070
   147
1040
1.0
1070
   271
1070
     2
1070
   272
1070
     2
1070
   279
1070
     1
1070
   341
1005
90
1070
   342
1005
90
1002
}
  0
DIMENSION
  5
6AB
330
1F
100
AcDbEntity
  8
C寸法
 62
     0
370
    18
100
AcDbDimension
280
     0
  2
*D55
 10
154.0013536569874
 20
1080.287270713658
 30
0.0
 11
154.0013536569877
 21
1181.287270713658
 31
0.0
 70
   160
 71
     5
 42
25.0
 73
     0
 74
     0
 75
     0
  3
Standard
100
AcDbAlignedDimension
 13
271.1782250738815
 23
1105.287270713658
 33
0.0
 14
271.1782250738815
 24
1080.287270713658
 34
0.0
 50
90.0
100
AcDbRotatedDimension
1001
ACAD
1000
DSTYLE
1002
{
1070
   340
1005
F3
1070
   279
1070
     0
1070
    40
1040
7.0
1070
    41
1040
3.0
1070
    42
1040
2.0
1070
    43
1040
1.0
1070
    44
1040
1.0
1070
    48
1040
0.000000001
1070
    73
1070
     0
1070
    74
1070
     0
1070
    77
1070
     1
1070
    78
1070
     8
1070
    90
1070
     2
1070
   140
1040
3.0
1070
   141
1040
0.0
1070
   147
1040
1.0
1070
   172
1070
     1
1070
   271
1070
     2
1070
   272
1070
     2
1070
   341
1005
90
1070
   342
1005
90
1002
}
  0
DIMENSION
  5
6AC
330
1F
100
AcDbEntity
  8
C寸法
 62
     0
370
    18
100
AcDbDimension
280
     0
  2
*D56
 10
153.6413536569877
 20
990.2872707136587
 30
0.0
 11
153.641353656988
 21
1035.287270713657
 31
0.0
 70
   160
 71
     5
 42
89.99999999999966
 73
     0
 74
     0
 75
     0
  3
Standard
100
AcDbAlignedDimension
 13
271.1782250738815
 23
1080.287270713658
 33
0.0
 14
271.1782250738815
 24
990.2872707136584
 34
0.0
 50
90.0
100
AcDbRotatedDimension
1001
ACAD
1000
DSTYLE
1002
{
1070
   340
1005
F3
1070
   279
1070
     0
1070
    40
1040
7.0
1070
    41
1040
3.0
1070
    42
1040
2.0
1070
    43
1040
1.0
1070
    44
1040
1.0
1070
    48
1040
0.000000001
1070
    73
1070
     0
1070
    74
1070
     0
1070
    77
1070
     1
1070
    78
1070
     8
1070
    90
1070
     2
1070
   140
1040
3.0
1070
   141
1040
0.0
1070
   147
1040
1.0
1070
   271
1070
     2
1070
   272
1070
     2
1070
   341
1005
90
1070
   342
1005
90
1002
}
  0
DIMENSION
  5
6AD
330
1F
100
AcDbEntity
  8
C寸法
 62
     0
370
    18
100
AcDbDimension
280
     0
  2
*D57
 10
153.6413536569878
 20
580.2872707136582
 30
0.0
 11
153.641353656988
 21
785.2872707136563
 31
0.0
 70
   160
  1
D
 71
     5
 42
410.0000000000003
 73
     0
 74
     0
 75
     0
  3
Standard
100
AcDbAlignedDimension
 13
271.1782250738815
 23
990.2872707136584
 33
0.0
 14
271.1782250738815
 24
580.2872707136582
 34
0.0
 50
90.0
100
AcDbRotatedDimension
1001
ACAD
1000
DSTYLE
1002
{
1070
   340
1005
F3
1070
   279
1070
     0
1070
    40
1040
7.0
1070
    41
1040
3.0
1070
    42
1040
2.0
1070
    43
1040
1.0
1070
    44
1040
1.0
1070
    48
1040
0.000000001
1070
    73
1070
     0
1070
    74
1070
     0
1070
    77
1070
     1
1070
    78
1070
     8
1070
    90
1070
     2
1070
   140
1040
5.0
1070
   141
1040
0.0
1070
   147
1040
1.0
1070
   271
1070
     2
1070
   272
1070
     2
1070
   341
1005
90
1070
   342
1005
90
1002
}
  0
DIMENSION
  5
6AE
330
1F
100
AcDbEntity
  8
C寸法
 62
     0
370
    18
100
AcDbDimension
280
     0
  2
*D58
 10
154.3613536569871
 20
555.2872707136581
 30
0.0
 11
154.3613536569873
 21
480.6449761853896
 31
0.0
 70
   160
 71
     5
 42
25.00000000000023
 73
     0
 74
     0
 75
     0
  3
Standard
100
AcDbAlignedDimension
 13
271.1782250738815
 23
580.2872707136582
 33
0.0
 14
271.1782250738815
 24
555.287270713658
 34
0.0
 50
90.0
100
AcDbRotatedDimension
1001
ACAD
1000
DSTYLE
1002
{
1070
   279
1070
     0
1070
    40
1040
7.0
1070
    41
1040
3.0
1070
    42
1040
2.0
1070
    43
1040
1.0
1070
    44
1040
1.0
1070
    48
1040
0.000000001
1070
    73
1070
     0
1070
    74
1070
     0
1070
    77
1070
     1
1070
    78
1070
     8
1070
    90
1070
     2
1070
   140
1040
3.0
1070
   141
1040
0.0
1070
   147
1040
1.0
1070
   172
1070
     1
1070
   271
1070
     2
1070
   272
1070
     2
1070
   340
1005
F3
1070
   341
1005
90
1070
   342
1005
90
1002
}
  0
DIMENSION
  5
6B2
330
1F
100
AcDbEntity
  8
C寸法
 62
     0
370
    18
100
AcDbDimension
280
     0
  2
*D62
 10
876.1782250738663
 20
1151.449166724553
 30
0.0
 11
936.1782250738743
 21
1168.949166724553
 31
0.0
 70
    32
 71
     5
 42
120.0000000000156
 73
     0
 74
     0
 75
     0
  3
Standard
100
AcDbAlignedDimension
 13
996.1782250738819
 23
1105.287270713658
 33
0.0
 14
876.1782250738663
 24
1105.287270713658
 34
0.0
100
AcDbRotatedDimension
1001
ACAD
1000
DSTYLE
1002
{
1070
    40
1040
7.0
1070
    41
1040
3.0
1070
    42
1040
2.0
1070
    43
1040
1.0
1070
    44
1040
1.0
1070
    48
1040
0.000000001
1070
    73
1070
     0
1070
    74
1070
     0
1070
    77
1070
     1
1070
    78
1070
     8
1070
    90
1070
     2
1070
   140
1040
3.0
1070
   141
1040
0.0
1070
   147
1040
1.0
1070
   271
1070
     2
1070
   272
1070
     2
1070
   340
1005
F3
1070
   341
1005
90
1070
   342
1005
90
1002
}
  0
DIMENSION
  5
6B3
330
1F
100
AcDbEntity
  8
C寸法
 62
     0
370
    18
100
AcDbDimension
280
     0
  2
*D63
 10
1330.808579211082
 20
1080.287270713657
 30
0.0
 11
1313.308579211082
 21
1020.287270713657
 31
0.0
 70
    32
 71
     5
 42
119.9999999999986
 73
     0
 74
     0
 75
     0
  3
Standard
100
AcDbAlignedDimension
 13
1241.178225073882
 23
960.2872707136585
 33
0.0
 14
1241.178225073882
 24
1080.287270713657
 34
0.0
 50
90.0
100
AcDbRotatedDimension
1001
ACAD
1000
DSTYLE
1002
{
1070
    40
1040
7.0
1070
    41
1040
3.0
1070
    42
1040
2.0
1070
    43
1040
1.0
1070
    44
1040
1.0
1070
    48
1040
0.000000001
1070
    73
1070
     0
1070
    74
1070
     0
1070
    77
1070
     1
1070
    78
1070
     8
1070
    90
1070
     2
1070
   140
1040
3.0
1070
   141
1040
0.0
1070
   147
1040
1.0
1070
   271
1070
     2
1070
   272
1070
     2
1070
   340
1005
F3
1070
   341
1005
90
1070
   342
1005
90
1002
}
  0
LINE
  5
6B4
330
1F
100
AcDbEntity
  8
C2
 62
     0
 48
20.0
370
    18
100
AcDbLine
 10
876.1782250738663
 20
384.5428377734009
 30
0.0
 11
876.1782250738663
 21
83.39404126615226
 31
0.0
  0
DIMENSION
  5
6B5
330
1F
100
AcDbEntity
  8
C寸法
 62
     0
370
    18
100
AcDbDimension
280
     0
  2
*D64
 10
306.1782250738962
 20
142.1721022407162
 30
0.0
 11
366.7733642342331
 21
189.4505277464346
 31
0.0
 70
   164
 71
     5
 42
10.00000000001824
 73
     0
 74
     0
 75
     0
  3
Standard
100
AcDbRadialDimension
 15
298.2940991608248
 25
136.0206342381007
 35
0.0
 40
0.0
1001
ACAD_DSTYLE_DIMRADIAL_EXTENSION
1070
   387
1070
     1
1070
   388
1040
3.141592653589792
1070
   390
1040
4.698104237797291
1001
ACAD
1000
DSTYLE
1002
{
1070
   340
1005
F3
1070
    40
1040
7.0
1070
    41
1040
3.0
1070
    42
1040
2.0
1070
    43
1040
1.0
1070
    44
1040
1.0
1070
    48
1040
0.000000001
1070
    73
1070
     0
1070
    74
1070
     0
1070
    77
1070
     1
1070
    78
1070
     8
1070
    90
1070
     2
1070
   140
1040
3.0
1070
   141
1040
0.0
1070
   147
1040
1.0
1070
   271
1070
     2
1070
   272
1070
     2
1070
   288
1070
     1
1070
   341
1005
90
1070
   342
1005
90
1002
}
  0
INSERT
  5
6B6
330
1F
100
AcDbEntity
  8
C寸法
 62
     0
100
AcDbBlockReference
  2
A$C4E673540
 10
758.1782138057946
 20
172.4578227779368
 30
0.0
  0
CIRCLE
  5
6B7
330
1F
100
AcDbEntity
  8
C4
 62
     0
100
AcDbCircle
 10
876.1782250738663
 20
170.457816526434
 30
0.0
 40
6.0
  0
LINE
  5
6B8
330
1F
100
AcDbEntity
  8
C4
 62
     0
100
AcDbLine
 10
996.1782250738819
 20
166.457816526434
 30
0.0
 11
990.178225073882
 21
166.457816526434
 31
0.0
  0
LINE
  5
6B9
330
1F
100
AcDbEntity
  8
C4
 62
     0
100
AcDbLine
 10
988.1782250738821
 20
168.457816526434
 30
0.0
 11
990.178225073882
 21
166.457816526434
 31
0.0
  0
LINE
  5
6BA
330
1F
100
AcDbEntity
  8
C4
 62
     0
100
AcDbLine
 10
988.1782250738821
 20
168.457816526434
 30
0.0
 11
988.1782250738664
 21
176.457816526434
 31
0.0
  0
LINE
  5
6BB
330
1F
100
AcDbEntity
  8
C4
 62
     0
100
AcDbLine
 10
990.1782250738666
 20
178.457816526434
 30
0.0
 11
996.1782250738819
 21
178.457816526434
 31
0.0
  0
LINE
  5
6BC
330
1F
100
AcDbEntity
  8
C4
 62
     0
100
AcDbLine
 10
988.1782250738664
 20
176.457816526434
 30
0.0
 11
990.1782250738666
 21
178.457816526434
 31
0.0
  0
LINE
  5
6BD
330
1F
100
AcDbEntity
  8
C4
 62
     0
100
AcDbLine
 10
990.1782250738666
 20
178.457816526434
 30
0.0
 11
990.1782250738666
 21
166.457816526434
 31
0.0
  0
LINE
  5
6BE
330
1F
100
AcDbEntity
  8
C2
 62
     0
 48
20.0
100
AcDbLine
 10
981.8436059577994
 20
172.457816526434
 30
0.0
 11
1004.321860835297
 21
172.457816526434
 31
0.0
  0
LINE
  5
6BF
330
1F
100
AcDbEntity
  8
C4
 62
     0
100
AcDbLine
 10
756.1782250738664
 20
166.457816526434
 30
0.0
 11
762.1782250738664
 21
166.457816526434
 31
0.0
  0
LINE
  5
6C0
330
1F
100
AcDbEntity
  8
C4
 62
     0
100
AcDbLine
 10
764.1782250738664
 20
168.457816526434
 30
0.0
 11
762.1782250738664
 21
166.457816526434
 31
0.0
  0
LINE
  5
6C1
330
1F
100
AcDbEntity
  8
C4
 62
     0
100
AcDbLine
 10
764.1782250738664
 20
168.457816526434
 30
0.0
 11
764.1782250738664
 21
176.457816526434
 31
0.0
  0
LINE
  5
6C2
330
1F
100
AcDbEntity
  8
C4
 62
     0
100
AcDbLine
 10
762.1782250738664
 20
178.457816526434
 30
0.0
 11
756.1782250738664
 21
178.457816526434
 31
0.0
  0
LINE
  5
6C3
330
1F
100
AcDbEntity
  8
C4
 62
     0
100
AcDbLine
 10
764.1782250738664
 20
176.457816526434
 30
0.0
 11
762.1782250738664
 21
178.457816526434
 31
0.0
  0
LINE
  5
6C4
330
1F
100
AcDbEntity
  8
C4
 62
     0
100
AcDbLine
 10
762.1782250738664
 20
178.457816526434
 30
0.0
 11
762.1782250738664
 21
166.457816526434
 31
0.0
  0
LINE
  5
6C5
330
1F
100
AcDbEntity
  8
C2
 62
     0
 48
20.0
100
AcDbLine
 10
770.5128441899483
 20
172.457816526434
 30
0.0
 11
748.0345893124518
 21
172.457816526434
 31
0.0
  0
LINE
  5
6C6
330
1F
100
AcDbEntity
  8
C2
 62
     0
 48
20.0
100
AcDbLine
 10
889.9618982162268
 20
170.457816526434
 30
0.0
 11
862.3945519315215
 21
170.457816526434
 31
0.0
  0
INSERT
  5
6C7
330
1F
100
AcDbEntity
  8
C寸法
 62
     0
100
AcDbBlockReference
  2
A$C1E474562
 10
758.1782138057946
 20
990.287271541662
 30
0.0
  0
LINE
  5
6C8
330
1F
100
AcDbEntity
  8
C4
 62
     0
100
AcDbLine
 10
756.1782250738819
 20
1014.287270713658
 30
0.0
 11
762.178225073882
 21
1014.287270713658
 31
0.0
  0
LINE
  5
6C9
330
1F
100
AcDbEntity
  8
C4
 62
     0
100
AcDbLine
 10
764.178225073882
 20
1016.287270713658
 30
0.0
 11
762.178225073882
 21
1014.287270713658
 31
0.0
  0
LINE
  5
6CA
330
1F
100
AcDbEntity
  8
C4
 62
     0
100
AcDbLine
 10
764.178225073882
 20
1016.287270713658
 30
0.0
 11
764.178225073882
 21
1024.287270713658
 31
0.0
  0
LINE
  5
6CB
330
1F
100
AcDbEntity
  8
C4
 62
     0
100
AcDbLine
 10
762.178225073882
 20
1026.287270713658
 30
0.0
 11
756.1782250738819
 21
1026.287270713658
 31
0.0
  0
LINE
  5
6CC
330
1F
100
AcDbEntity
  8
C4
 62
     0
100
AcDbLine
 10
764.178225073882
 20
1024.287270713658
 30
0.0
 11
762.178225073882
 21
1026.287270713658
 31
0.0
  0
LINE
  5
6CD
330
1F
100
AcDbEntity
  8
C4
 62
     0
100
AcDbLine
 10
762.178225073882
 20
1026.287270713658
 30
0.0
 11
762.178225073882
 21
1014.287270713658
 31
0.0
  0
LINE
  5
6CE
330
1F
100
AcDbEntity
  8
C2
 62
     0
 48
20.0
100
AcDbLine
 10
770.5128441899483
 20
1020.287270713658
 30
0.0
 11
748.0345893124518
 21
1020.287270713658
 31
0.0
  0
LINE
  5
6CF
330
1F
100
AcDbEntity
  8
C4
 62
     0
100
AcDbLine
 10
996.1782250738664
 20
1014.287270713658
 30
0.0
 11
990.1782250738666
 21
1014.287270713658
 31
0.0
  0
LINE
  5
6D0
330
1F
100
AcDbEntity
  8
C4
 62
     0
100
AcDbLine
 10
988.1782250738664
 20
1016.287270713658
 30
0.0
 11
990.1782250738666
 21
1014.287270713658
 31
0.0
  0
LINE
  5
6D1
330
1F
100
AcDbEntity
  8
C4
 62
     0
100
AcDbLine
 10
988.1782250738664
 20
1016.287270713658
 30
0.0
 11
988.1782250738664
 21
1024.287270713658
 31
0.0
  0
LINE
  5
6D2
330
1F
100
AcDbEntity
  8
C4
 62
     0
100
AcDbLine
 10
990.1782250738666
 20
1026.287270713658
 30
0.0
 11
996.1782250738664
 21
1026.287270713658
 31
0.0
  0
LINE
  5
6D3
330
1F
100
AcDbEntity
  8
C4
 62
     0
100
AcDbLine
 10
988.1782250738664
 20
1024.287270713658
 30
0.0
 11
990.1782250738666
 21
1026.287270713658
 31
0.0
  0
LINE
  5
6D4
330
1F
100
AcDbEntity
  8
C4
 62
     0
100
AcDbLine
 10
990.1782250738666
 20
1026.287270713658
 30
0.0
 11
990.1782250738666
 21
1014.287270713658
 31
0.0
  0
LINE
  5
6D5
330
1F
100
AcDbEntity
  8
C2
 62
     0
 48
20.0
100
AcDbLine
 10
981.8436059577994
 20
1020.287270713658
 30
0.0
 11
1004.321860835281
 21
1020.287270713658
 31
0.0
  0
LINE
  5
6D6
330
1F
100
AcDbEntity
  8
C4
 62
     0
100
AcDbLine
 10
870.1782250738665
 20
1080.287270713658
 30
0.0
 11
870.1782250738665
 21
1074.287270713658
 31
0.0
  0
LINE
  5
6D7
330
1F
100
AcDbEntity
  8
C4
 62
     0
100
AcDbLine
 10
872.1782250738666
 20
1072.287270713658
 30
0.0
 11
870.1782250738665
 21
1074.287270713658
 31
0.0
  0
LINE
  5
6D8
330
1F
100
AcDbEntity
  8
C4
 62
     0
100
AcDbLine
 10
872.1782250738666
 20
1072.287270713658
 30
0.0
 11
880.1782250738666
 21
1072.287270713658
 31
0.0
  0
LINE
  5
6D9
330
1F
100
AcDbEntity
  8
C4
 62
     0
100
AcDbLine
 10
882.1782250738666
 20
1074.287270713658
 30
0.0
 11
882.1782250738666
 21
1080.287270713658
 31
0.0
  0
LINE
  5
6DA
330
1F
100
AcDbEntity
  8
C4
 62
     0
100
AcDbLine
 10
880.1782250738666
 20
1072.287270713658
 30
0.0
 11
882.1782250738666
 21
1074.287270713658
 31
0.0
  0
LINE
  5
6DB
330
1F
100
AcDbEntity
  8
C4
 62
     0
100
AcDbLine
 10
882.1782250738666
 20
1074.287270713658
 30
0.0
 11
870.1782250738665
 21
1074.287270713658
 31
0.0
  0
LINE
  5
6DC
330
1F
100
AcDbEntity
  8
C4
 62
     0
100
AcDbLine
 10
1474.380097238028
 20
1105.287270713658
 30
0.0
 11
1474.380097238028
 21
1080.287270713658
 31
0.0
  0
LINE
  5
6DD
330
1F
100
AcDbEntity
  8
C4
 62
     0
100
AcDbLine
 10
1474.380097238028
 20
1080.287270713658
 30
0.0
 11
1489.380097238028
 21
1080.287270713658
 31
0.0
  0
LINE
  5
6DE
330
1F
100
AcDbEntity
  8
C4
 62
     0
100
AcDbLine
 10
1474.380097238028
 20
555.287270713658
 30
0.0
 11
1474.380097238028
 21
580.287270713658
 31
0.0
  0
LINE
  5
6DF
330
1F
100
AcDbEntity
  8
C4
 62
     0
100
AcDbLine
 10
1474.380097238028
 20
580.287270713658
 30
0.0
 11
1489.380097238028
 21
580.287270713658
 31
0.0
  0
LINE
  5
6E0
330
1F
100
AcDbEntity
  8
C4
 62
     0
100
AcDbLine
 10
1489.380097238028
 20
1080.287270713658
 30
0.0
 11
1664.378097837821
 21
1080.287270713658
 31
0.0
  0
LINE
  5
6E1
330
1F
100
AcDbEntity
  8
C4
 62
     0
100
AcDbLine
 10
1489.380097238028
 20
990.287270713658
 30
0.0
 11
1663.316397492804
 21
990.287270713658
 31
0.0
  0
LINE
  5
6E2
330
1F
100
AcDbEntity
  8
C4
 62
     0
100
AcDbLine
 10
1674.380097238028
 20
868.4872307256537
 30
0.0
 11
1659.576098037783
 21
590.0873107016606
 31
0.0
  0
LINE
  5
6E3
330
1F
100
AcDbEntity
  8
C4
 62
     0
100
AcDbLine
 10
1489.380097238028
 20
580.287270713658
 30
0.0
 11
1649.57809743799
 21
580.287270713658
 31
0.0
  0
ARC
  5
6E4
330
1F
100
AcDbEntity
  8
C4
 62
     0
100
AcDbCircle
 10
1649.57809743799
 20
590.2872707136578
 30
0.0
 40
10.0
100
AcDbArc
 50
270.0
 51
358.8542371620323
  0
ARC
  5
6E5
330
1F
100
AcDbEntity
  8
C4
 62
     0
100
AcDbCircle
 10
1664.378097837821
 20
1070.287270713658
 30
0.0
 40
10.0
100
AcDbArc
 50
0.0000000375193497
 51
90.0
  0
LINE
  5
6E6
330
1F
100
AcDbEntity
  8
C4
 62
     0
100
AcDbLine
 10
1474.380097238028
 20
1080.287270713658
 30
0.0
 11
1474.380097238028
 21
580.287270713658
 31
0.0
  0
LINE
  5
6E7
330
1F
100
AcDbEntity
  8
C4
 62
     0
100
AcDbLine
 10
1675.880097238028
 20
1050.987230725654
 30
0.0
 11
1681.380097238028
 21
1050.987230725654
 31
0.0
  0
LINE
  5
6E8
330
1F
100
AcDbEntity
  8
C4
 62
     0
100
AcDbLine
 10
1681.380097238028
 20
1050.987230725654
 30
0.0
 11
1681.380097238028
 21
869.9872307256539
 31
0.0
  0
LINE
  5
6E9
330
1F
100
AcDbEntity
  8
C4
 62
     0
100
AcDbLine
 10
1681.380097238028
 20
869.9872307256539
 30
0.0
 11
1675.880097238028
 21
869.9872307256539
 31
0.0
  0
ARC
  5
6EA
330
1F
100
AcDbEntity
  8
C4
 62
     0
100
AcDbCircle
 10
1675.880097238028
 20
868.4872307256537
 30
0.0
 40
1.5
100
AcDbArc
 50
90.0
 51
180.0
  0
LINE
  5
6EB
330
1F
100
AcDbEntity
  8
C4
 62
     0
100
AcDbLine
 10
1675.580097238025
 20
868.4872307256537
 30
0.0
 11
1681.380097238028
 21
868.4872307256537
 31
0.0
  0
LINE
  5
6EC
330
1F
100
AcDbEntity
  8
C4
 62
     0
100
AcDbLine
 10
1682.880097238028
 20
869.9872307256539
 30
0.0
 11
1682.880097238028
 21
1050.987230725654
 31
0.0
  0
LINE
  5
6ED
330
1F
100
AcDbEntity
  8
C4
 62
     0
100
AcDbLine
 10
1675.580097238025
 20
1052.487230725654
 30
0.0
 11
1681.380097238028
 21
1052.487230725654
 31
0.0
  0
ARC
  5
6EE
330
1F
100
AcDbEntity
  8
C4
 62
     0
100
AcDbCircle
 10
1675.880097238028
 20
1052.487230725654
 30
0.0
 40
1.5
100
AcDbArc
 50
180.0
 51
270.0
  0
ARC
  5
6EF
330
1F
100
AcDbEntity
  8
C4
 62
     0
100
AcDbCircle
 10
1681.380097238028
 20
1050.987230725654
 30
0.0
 40
1.5
100
AcDbArc
 50
0.0
 51
90.0
  0
ARC
  5
6F0
330
1F
100
AcDbEntity
  8
C4
 62
     0
100
AcDbCircle
 10
1681.380097238028
 20
869.9872307256539
 30
0.0
 40
1.5
100
AcDbArc
 50
270.0
 51
0.0
  0
LINE
  5
6F1
330
1F
100
AcDbEntity
  8
C4
 62
     0
100
AcDbLine
 10
1674.378097837821
 20
1070.287270713658
 30
0.0
 11
1674.380097238028
 21
1052.487230725654
 31
0.0
  0
LINE
  5
6F2
330
1F
100
AcDbEntity
  8
C4
 62
     0
100
AcDbLine
 10
1475.580097238025
 20
579.087270713653
 30
0.0
 11
1649.57809743799
 21
579.087270713653
 31
0.0
  0
ARC
  5
6F3
330
1F
100
AcDbEntity
  8
C4
 62
     0
100
AcDbCircle
 10
1649.57809743799
 20
590.2872707136578
 30
0.0
 40
11.2
100
AcDbArc
 50
270.0
 51
358.8542371620323
  0
LINE
  5
6F4
330
1F
100
AcDbEntity
  8
C4
 62
     0
100
AcDbLine
 10
1675.580097238025
 20
868.4872307256537
 30
0.0
 11
1660.77585810976
 21
590.063315500224
 31
0.0
  0
LINE
  5
6F5
330
1F
100
AcDbEntity
  8
C4
 62
     0
100
AcDbLine
 10
1475.580097238023
 20
556.4872707136578
 30
0.0
 11
1475.580097238025
 21
579.087270713653
 31
0.0
  0
LINE
  5
6F6
330
1F
100
AcDbEntity
  8
C4
 62
     0
100
AcDbLine
 10
1675.577857909798
 20
1070.26327551222
 30
0.0
 11
1675.580097238025
 21
1052.487230725654
 31
0.0
  0
ARC
  5
6F7
330
1F
100
AcDbEntity
  8
C4
 62
     0
100
AcDbCircle
 10
1664.378097837821
 20
1070.287270713658
 30
0.0
 40
11.2
100
AcDbArc
 50
359.6297603651489
 51
90.0
  0
LINE
  5
6F8
330
1F
100
AcDbEntity
  8
C4
 62
     0
100
AcDbLine
 10
1475.580097238025
 20
1081.487270713655
 30
0.0
 11
1664.378097837821
 21
1081.487270713655
 31
0.0
  0
LINE
  5
6F9
330
1F
100
AcDbEntity
  8
C4
 62
     0
100
AcDbLine
 10
1475.580097238025
 20
1104.087270713658
 30
0.0
 11
1475.580097238025
 21
1081.487270713655
 31
0.0
  0
DIMENSION
  5
6FA
330
1F
100
AcDbEntity
  8
C寸法
 62
     0
370
    18
100
AcDbDimension
280
     0
  2
*D45
 10
1189.517819257039
 20
322.3139390274758
 30
0.0
 11
1172.017819257039
 21
386.8139390274754
 31
0.0
 70
    32
 71
     5
 42
10.0
 73
     0
 74
     0
 75
     0
  3
Standard
100
AcDbAlignedDimension
 13
1216.178225073882
 23
312.3139390274757
 33
0.0
 14
1216.178225073882
 24
322.3139390274757
 34
0.0
 50
90.0
100
AcDbRotatedDimension
1001
ACAD
1000
DSTYLE
1002
{
1070
   340
1005
F3
1070
    40
1040
7.0
1070
    41
1040
3.0
1070
    42
1040
2.0
1070
    43
1040
1.0
1070
    44
1040
1.0
1070
    48
1040
0.000000001
1070
    73
1070
     0
1070
    74
1070
     0
1070
    77
1070
     1
1070
    78
1070
     8
1070
    90
1070
     2
1070
   140
1040
3.0
1070
   141
1040
0.0
1070
   147
1040
1.0
1070
   271
1070
     2
1070
   272
1070
     2
1070
   341
1005
90
1070
   342
1005
90
1002
}
  0
LINE
  5
6FB
330
1F
100
AcDbEntity
  8
C寸法
 62
     0
100
AcDbLine
 10
1216.178225073882
 20
312.3139390274757
 30
0.0
 11
1216.178225073882
 21
313.0195883141589
 31
0.0
  0
LINE
  5
6FC
330
1F
100
AcDbEntity
  8
C寸法
 62
     0
100
AcDbLine
 10
1216.178225073882
 20
312.3139390274757
 30
0.0
 11
1215.472844455732
 21
312.2979076497893
 31
0.0
  0
DIMENSION
  5
6FD
330
1F
100
AcDbEntity
  8
C寸法
 62
     0
370
    18
100
AcDbDimension
280
     0
  2
*D46
 10
973.9759525578206
 20
322.3139390274758
 30
0.0
 11
956.4759525578203
 21
386.8139390274755
 31
0.0
 70
    32
 71
     5
 42
15.0
 73
     0
 74
     0
 75
     0
  3
Standard
100
AcDbAlignedDimension
 13
996.1782250738664
 23
307.3139390274757
 33
0.0
 14
996.1782250738664
 24
322.3139390274757
 34
0.0
 50
90.0
100
AcDbRotatedDimension
1001
ACAD
1000
DSTYLE
1002
{
1070
   340
1005
F3
1070
    40
1040
7.0
1070
    41
1040
3.0
1070
    42
1040
2.0
1070
    43
1040
1.0
1070
    44
1040
1.0
1070
    48
1040
0.000000001
1070
    73
1070
     0
1070
    74
1070
     0
1070
    77
1070
     1
1070
    78
1070
     8
1070
    90
1070
     2
1070
   140
1040
3.0
1070
   141
1040
0.0
1070
   147
1040
1.0
1070
   271
1070
     2
1070
   272
1070
     2
1070
   341
1005
90
1070
   342
1005
90
1002
}
  0
DIMENSION
  5
6FE
330
1F
100
AcDbEntity
  8
C寸法
 62
     0
370
    18
100
AcDbDimension
280
     0
  2
*D47
 10
415.1941411064263
 20
322.3139390274758
 30
0.0
 11
415.1941411064261
 21
394.3139390274739
 31
0.0
 70
   160
 71
     5
 42
15.0
 73
     0
 74
     0
 75
     0
  3
Standard
100
AcDbAlignedDimension
 13
418.7128129748654
 23
307.3139390274757
 33
0.0
 14
418.7128129748654
 24
322.3139390274757
 34
0.0
 50
90.0
100
AcDbRotatedDimension
1001
ACAD
1000
DSTYLE
1002
{
1070
   340
1005
F3
1070
    40
1040
7.0
1070
    41
1040
3.0
1070
    42
1040
2.0
1070
    43
1040
1.0
1070
    44
1040
1.0
1070
    48
1040
0.000000001
1070
    73
1070
     0
1070
    74
1070
     0
1070
    77
1070
     1
1070
    78
1070
     8
1070
    90
1070
     2
1070
   140
1040
3.0
1070
   141
1040
0.0
1070
   147
1040
1.0
1070
   271
1070
     2
1070
   272
1070
     2
1070
   341
1005
90
1070
   342
1005
90
1002
}
  0
LINE
  5
6FF
330
1F
100
AcDbEntity
  8
C4
 62
     0
100
AcDbLine
 10
1489.380097238028
 20
990.287270713658
 30
0.0
 11
1486.380097238028
 21
1080.287270713658
 31
0.0
  0
LINE
  5
700
330
1F
100
AcDbEntity
  8
C5
 62
     0
 48
0.5
100
AcDbLine
 10
1490.212967993836
 20
995.3178100787939
 30
0.0
 11
1487.546116296158
 21
1075.32336100899
 31
0.0
  0
LINE
  5
701
330
1F
100
AcDbEntity
  8
C4
 62
     0
100
AcDbLine
 10
1487.380652639345
 20
1080.287270713658
 30
0.0
 11
1487.379542145006
 21
1080.320585543889
 31
0.0
  0
LINE
  5
702
330
1F
100
AcDbEntity
  8
C5
 62
     0
 48
0.5
100
AcDbLine
 10
1499.207972156655
 20
995.6176435508773
 30
0.0
 11
1496.541120458976
 21
1075.623194481081
 31
0.0
  0
CIRCLE
  5
703
330
1F
100
AcDbEntity
  8
C4
 62
     0
100
AcDbCircle
 10
1624.380097238027
 20
1020.287270713658
 30
0.0
 40
6.0
  0
LINE
  5
704
330
1F
100
AcDbEntity
  8
C2
 62
     0
 48
20.0
100
AcDbLine
 10
1638.163770380371
 20
1020.287270713658
 30
0.0
 11
1610.596424095669
 21
1020.287270713658
 31
0.0
  0
LINE
  5
705
330
1F
100
AcDbEntity
  8
C2
 62
     0
 48
20.0
100
AcDbLine
 10
1624.380097238027
 20
1034.07094385601
 30
0.0
 11
1624.380097238027
 21
1006.503597571298
 31
0.0
  0
LINE
  5
706
330
1F
100
AcDbEntity
  8
C4
 62
     0
100
AcDbLine
 10
1632.380097238028
 20
1080.287270713658
 30
0.0
 11
1632.380097238028
 21
1074.287270713658
 31
0.0
  0
LINE
  5
707
330
1F
100
AcDbEntity
  8
C4
 62
     0
100
AcDbLine
 10
1630.380097238028
 20
1072.287270713658
 30
0.0
 11
1632.380097238028
 21
1074.287270713658
 31
0.0
  0
LINE
  5
708
330
1F
100
AcDbEntity
  8
C4
 62
     0
100
AcDbLine
 10
1630.380097238028
 20
1072.287270713658
 30
0.0
 11
1622.380097238028
 21
1072.287270713658
 31
0.0
  0
LINE
  5
709
330
1F
100
AcDbEntity
  8
C4
 62
     0
100
AcDbLine
 10
1620.380097238028
 20
1074.287270713658
 30
0.0
 11
1620.380097238028
 21
1080.287270713658
 31
0.0
  0
LINE
  5
70A
330
1F
100
AcDbEntity
  8
C4
 62
     0
100
AcDbLine
 10
1622.380097238028
 20
1072.287270713658
 30
0.0
 11
1620.380097238028
 21
1074.287270713658
 31
0.0
  0
LINE
  5
70B
330
1F
100
AcDbEntity
  8
C4
 62
     0
100
AcDbLine
 10
1620.380097238028
 20
1074.287270713658
 30
0.0
 11
1632.380097238028
 21
1074.287270713658
 31
0.0
  0
LINE
  5
70C
330
1F
100
AcDbEntity
  8
C2
 62
     0
 48
20.0
100
AcDbLine
 10
1626.380097238028
 20
1065.952651597584
 30
0.0
 11
1626.380097238028
 21
1088.430906475073
 31
0.0
  0
INSERT
  5
70D
330
1F
100
AcDbEntity
  8
C寸法
 62
     0
100
AcDbBlockReference
  2
A$C04E33B21
 10
1614.880076104151
 20
990.3082498600367
 30
0.0
  0
DIMENSION
  5
70E
330
1F
100
AcDbEntity
  8
C寸法
 62
     0
370
    18
100
AcDbDimension
280
     0
  2
*D48
 10
1474.380097238028
 20
984.0023812294118
 30
0.0
 11
1409.880097238028
 21
1001.502381229412
 31
0.0
 70
    32
 71
     5
 42
15.0
 73
     0
 74
     0
 75
     0
  3
Standard
100
AcDbAlignedDimension
 13
1489.380097238028
 23
990.287270713658
 33
0.0
 14
1474.380097238028
 24
990.287270713658
 34
0.0
100
AcDbRotatedDimension
1001
ACAD
1000
DSTYLE
1002
{
1070
   340
1005
F3
1070
    40
1040
7.0
1070
    41
1040
3.0
1070
    42
1040
2.0
1070
    43
1040
1.0
1070
    44
1040
1.0
1070
    48
1040
0.000000001
1070
    73
1070
     0
1070
    74
1070
     0
1070
    77
1070
     1
1070
    78
1070
     8
1070
    90
1070
     2
1070
   140
1040
3.0
1070
   141
1040
0.0
1070
   147
1040
1.0
1070
   271
1070
     2
1070
   272
1070
     2
1070
   341
1005
90
1070
   342
1005
90
1002
}
  0
LINE
  5
70F
330
1F
100
AcDbEntity
  8
C5
 62
     0
 48
0.5
100
AcDbLine
 10
306.1782250738815
 20
1075.287270713658
 30
0.0
 11
751.178225073882
 21
1075.287270713658
 31
0.0
  0
LINE
  5
710
330
1F
100
AcDbEntity
  8
C5
 62
     0
 48
0.5
100
AcDbLine
 10
751.178225073882
 20
1075.287270713658
 30
0.0
 11
751.178225073882
 21
995.2872707136579
 31
0.0
  0
LINE
  5
711
330
1F
100
AcDbEntity
  8
C5
 62
     0
 48
0.5
100
AcDbLine
 10
751.178225073882
 20
995.2872707136579
 30
0.0
 11
306.1782250738815
 21
995.2872707136579
 31
0.0
  0
LINE
  5
712
330
1F
100
AcDbEntity
  8
C5
 62
     0
 48
0.5
100
AcDbLine
 10
306.1782250738815
 20
995.2872707136579
 30
0.0
 11
306.1782250738815
 21
1075.287270713658
 31
0.0
  0
LINE
  5
713
330
1F
100
AcDbEntity
  8
C5
 62
     0
 48
0.5
100
AcDbLine
 10
1499.207972156671
 20
995.6176435508773
 30
0.0
 11
1489.213523086873
 21
995.2844952485561
 31
0.0
  0
LINE
  5
714
330
1F
100
AcDbEntity
  8
C5
 62
     0
 48
0.5
100
AcDbLine
 10
1496.541120458976
 20
1075.623194481081
 30
0.0
 11
1486.546671389179
 21
1075.29004617876
 31
0.0
  0
LINE
  5
715
330
1F
100
AcDbEntity
  8
C4
 62
     0
100
AcDbLine
 10
1241.178225073882
 20
322.3139390274757
 30
0.0
 11
1241.178225073882
 21
315.3139390274757
 31
0.0
  0
LINE
  5
716
330
1F
100
AcDbEntity
  8
C4
 62
     0
100
AcDbLine
 10
1240.178225073882
 20
321.1139390274791
 30
0.0
 11
1240.178225073882
 21
315.3139390274757
 31
0.0
  0
LINE
  5
717
330
1F
100
AcDbEntity
  8
C4
 62
     0
100
AcDbLine
 10
1474.380097238028
 20
555.287270713658
 30
0.0
 11
1481.380097238028
 21
555.287270713658
 31
0.0
  0
LINE
  5
718
330
1F
100
AcDbEntity
  8
C4
 62
     0
100
AcDbLine
 10
1474.380097238028
 20
1105.287270713658
 30
0.0
 11
1481.380097238028
 21
1105.287270713658
 31
0.0
  0
LINE
  5
719
330
1F
100
AcDbEntity
  8
C4
 62
     0
100
AcDbLine
 10
1475.580097238025
 20
1104.087270713658
 30
0.0
 11
1481.380097238028
 21
1104.087270713658
 31
0.0
  0
LINE
  5
71A
330
1F
100
AcDbEntity
  8
C4
 62
     0
100
AcDbLine
 10
1481.380097238028
 20
1105.287270713658
 30
0.0
 11
1481.380097238028
 21
1104.087270713658
 31
0.0
  0
LINE
  5
71B
330
1F
100
AcDbEntity
  8
C4
 62
     0
100
AcDbLine
 10
271.1782250738815
 20
322.3139390274757
 30
0.0
 11
271.1782250738815
 21
315.3139390274757
 31
0.0
  0
LINE
  5
71C
330
1F
100
AcDbEntity
  8
C4
 62
     0
100
AcDbLine
 10
271.1782250738815
 20
315.3139390274757
 30
0.0
 11
272.1782250738816
 21
315.3139390274757
 31
0.0
  0
LINE
  5
71D
330
1F
100
AcDbEntity
  8
C4
 62
     0
100
AcDbLine
 10
272.1782250738816
 20
315.3139390274757
 30
0.0
 11
272.1782250738816
 21
321.1139390274791
 31
0.0
  0
DIMENSION
  5
71E
330
1F
100
AcDbEntity
  8
C寸法
 62
     0
370
    18
100
AcDbDimension
280
     0
  2
*D49
 10
1275.389237169918
 20
322.3139390274758
 30
0.0
 11
1257.889237169918
 21
378.3139390274754
 31
0.0
 70
    32
 71
     5
 42
7.0
 73
     0
 74
     0
 75
     0
  3
Standard
100
AcDbAlignedDimension
 13
1241.178225073882
 23
315.3139390274757
 33
0.0
 14
1241.178225073882
 24
322.3139390274757
 34
0.0
 50
90.0
100
AcDbRotatedDimension
1001
ACAD
1000
DSTYLE
1002
{
1070
    40
1040
7.0
1070
    41
1040
3.0
1070
    42
1040
2.0
1070
    43
1040
1.0
1070
    44
1040
1.0
1070
    48
1040
0.000000001
1070
    69
1070
     1
1070
    73
1070
     0
1070
    74
1070
     0
1070
    77
1070
     1
1070
    78
1070
     8
1070
    79
1070
     2
1070
    90
1070
     2
1070
   140
1040
3.0
1070
   141
1040
0.0
1070
   147
1040
1.0
1070
   172
1070
     1
1070
   179
1070
     2
1070
   271
1070
     2
1070
   272
1070
     2
1070
   340
1005
F3
1070
   341
1005
90
1070
   342
1005
90
1002
}
  0
LINE
  5
720
330
1F
100
AcDbEntity
  8
C4
 62
     0
100
AcDbLine
 10
1481.380097238028
 20
555.287270713658
 30
0.0
 11
1481.380097238028
 21
556.4872707136578
 31
0.0
  0
LINE
  5
721
330
1F
100
AcDbEntity
  8
C4
 62
     0
100
AcDbLine
 10
1481.380097238028
 20
556.4872707136578
 30
0.0
 11
1475.580097238025
 21
556.4872707136578
 31
0.0
  0
DIMENSION
  5
722
330
1F
100
AcDbEntity
  8
C寸法
 62
     0
370
    18
100
AcDbDimension
280
     0
  2
*D50
 10
1323.808579211079
 20
322.3139390274758
 30
0.0
 11
1306.308579211079
 21
222.385877776958
 31
0.0
 70
    32
 71
     5
 42
199.8561225010348
 73
     0
 74
     0
 75
     0
  3
Standard
100
AcDbAlignedDimension
 13
986.1782250738819
 23
122.4578165264408
 33
0.0
 14
1241.178225073882
 24
322.3139390274757
 34
0.0
 50
90.0
100
AcDbRotatedDimension
1001
ACAD
1000
DSTYLE
1002
{
1070
    40
1040
7.0
1070
    41
1040
3.0
1070
    42
1040
2.0
1070
    43
1040
1.0
1070
    44
1040
1.0
1070
    45
1040
1.0
1070
    48
1040
0.000000001
1070
    69
1070
     1
1070
    73
1070
     0
1070
    74
1070
     0
1070
    77
1070
     1
1070
    78
1070
     8
1070
    79
1070
     2
1070
    90
1070
     2
1070
   140
1040
3.0
1070
   141
1040
0.0
1070
   147
1040
1.0
1070
   179
1070
     2
1070
   271
1070
     2
1070
   272
1070
     2
1070
   340
1005
F3
1070
   341
1005
90
1070
   342
1005
90
1002
}
  0
LINE
  5
723
330
1F
100
AcDbEntity
  8
C2
 62
     0
 48
20.0
100
AcDbLine
 10
876.1782250738663
 20
1105.287270713658
 30
0.0
 11
876.1782250738663
 21
850.6167867421661
 31
0.0
  0
LINE
  5
724
330
1F
100
AcDbEntity
  8
C2
 62
     0
 48
20.0
100
AcDbLine
 10
984.4452253534177
 20
960.287270713658
 30
0.0
 11
769.2484130785297
 21
960.287270713658
 31
0.0
  0
TEXT
  5
1147
330
1F
100
AcDbEntity
  8
C寸法
 62
     7
100
AcDbText
 10
1500.54595180125
 20
184.4795971326957
 30
0.0
 40
20.0
  1
水栓デッキ付きシンク
  7
KANJI
100
AcDbText
  0
TEXT
  5
1190
330
1F
100
AcDbEntity
  8
C寸法
 62
     7
100
AcDbText
 10
1499.386507850711
 20
118.9179403082735
 30
0.0
 40
20.0
  1
水切りデッキ付き　オーバー仕様
  7
KANJI
100
AcDbText
  0
TEXT
  5
1196
330
1F
100
AcDbEntity
  8
C寸法
 62
     7
100
AcDbText
 10
1498.121629444971
 20
152.1745582047833
 30
0.0
 40
20.0
  1
ポケットP3-CSI
  7
KANJI
100
AcDbText
  0
DIMENSION
  5
124A
102
{ACAD_XDICTIONARY
360
1253
102
}
102
{ACAD_REACTORS
330
1259
102
}
330
1F
100
AcDbEntity
  8
画層1
100
AcDbDimension
280
     0
  2
*D65
 10
306.1782250738813
 20
590.2872707136582
 30
0.0
 11
367.608126689459
 21
651.7171723292424
 31
0.0
 70
   164
  1
8-<>
 71
     5
 42
10.00000000000034
 73
     0
 74
     0
 75
     0
  3
JIS-1
100
AcDbRadialDimension
 15
299.1071572620159
 25
583.2162029017921
 35
0.0
 40
0.0
1001
ACAD
1000
DSTYLE
1002
{
1070
   340
1005
F3
1070
    40
1040
7.0
1070
   140
1040
3.0
1070
    41
1040
3.0
1070
   288
1070
     1
1002
}
1001
ACAD_DSTYLE_DIMRADIAL_EXTENSION
1070
   387
1070
     1
1070
   388
1040
3.141592653589792
1070
   390
1040
4.712388980384688
  0
ENDSEC
  0
SECTION
  2
OBJECTS
  0
DICTIONARY
  5
C
330
0
100
AcDbDictionary
281
     1
  3
ACAD_CIP_PREVIOUS_PRODUCT_INFO
350
44E
  3
ACAD_COLOR
350
F5
  3
ACAD_DETAILVIEWSTYLE
350
DA
  3
ACAD_GROUP
350
D
  3
ACAD_IMAGE_VARS
350
6A
  3
ACAD_LAYOUT
350
1A
  3
ACAD_MATERIAL
350
97
  3
ACAD_MLEADERSTYLE
350
3F
  3
ACAD_MLINESTYLE
350
17
  3
ACAD_PLOTSETTINGS
350
19
  3
ACAD_PLOTSTYLENAME
350
E
  3
ACAD_SCALELIST
350
40
  3
ACAD_SECTIONVIEWSTYLE
350
DB
  3
ACAD_TABLESTYLE
350
3B
  3
ACAD_VISUALSTYLE
350
431
  3
ACDB_RECOMPOSE_DATA
350
1345
  3
AcDbVariableDictionary
350
3D
  3
APPDATA
350
96
  0
DICTIONARY
  5
260
330
2
100
AcDbDictionary
280
     1
281
     1
  3
ACAD_LAYERSTATES
360
261
  3
ACLYDICTIONARY
360
3E5
  0
DICTIONARY
  5
11A0
330
10
100
AcDbDictionary
280
     1
281
     1
  3
ADSK_XREC_LAYER_RECONCILED
360
11A1
  0
DICTIONARY
  5
11A2
330
DE
100
AcDbDictionary
280
     1
281
     1
  3
ADSK_XREC_LAYER_RECONCILED
360
11A3
  0
DICTIONARY
  5
11A4
330
E3
100
AcDbDictionary
280
     1
281
     1
  3
ADSK_XREC_LAYER_RECONCILED
360
11A5
  0
DICTIONARY
  5
11A6
330
E4
100
AcDbDictionary
280
     1
281
     1
  3
ADSK_XREC_LAYER_RECONCILED
360
11A7
  0
DICTIONARY
  5
11A8
330
3E0
100
AcDbDictionary
280
     1
281
     1
  3
ADSK_XREC_LAYER_RECONCILED
360
11A9
  0
DICTIONARY
  5
11AA
330
5A6
100
AcDbDictionary
280
     1
281
     1
  3
ADSK_XREC_LAYER_RECONCILED
360
11AB
  0
DICTIONARY
  5
CFC
330
46E
100
AcDbDictionary
280
     1
281
     1
  3
ACAD_SORTENTS
360
CFD
  0
DICTIONARY
  5
D1C
330
486
100
AcDbDictionary
280
     1
281
     1
  3
ACAD_SORTENTS
360
D1D
  0
DICTIONARY
  5
D32
330
4A1
100
AcDbDictionary
280
     1
281
     1
  3
ACAD_SORTENTS
360
D33
  0
DICTIONARY
  5
1253
330
124A
100
AcDbDictionary
280
     1
281
     1
  3
ACAD_DIMASSOC
360
1259
  0
XRECORD
  5
44E
102
{ACAD_REACTORS
330
C
102
}
330
C
100
AcDbXrecord
280
     1
300
ACD
300
2022
300

  0
DICTIONARY
  5
F5
102
{ACAD_REACTORS
330
C
102
}
330
C
100
AcDbDictionary
281
     1
  0
DICTIONARY
  5
DA
102
{ACAD_REACTORS
330
C
102
}
330
C
100
AcDbDictionary
281
     1
  3
Metric50
350
44B
  0
DICTIONARY
  5
D
102
{ACAD_REACTORS
330
C
102
}
330
C
100
AcDbDictionary
281
     1
  0
RASTERVARIABLES
  5
6A
102
{ACAD_REACTORS
330
C
102
}
330
C
100
AcDbRasterVariables
 90
        0
 70
     1
 71
     1
 72
     1
  0
DICTIONARY
  5
1A
102
{ACAD_REACTORS
330
C
102
}
330
C
100
AcDbDictionary
281
     1
  3
Model
350
22
  3
Sheet1
350
1E
  3
Sheet2
350
26
  0
DICTIONARY
  5
97
102
{ACAD_REACTORS
330
C
102
}
330
C
100
AcDbDictionary
281
     1
  3
ByBlock
350
99
  3
ByLayer
350
98
  3
Global
350
9A
  0
DICTIONARY
  5
3F
102
{ACAD_REACTORS
330
C
102
}
330
C
100
AcDbDictionary
281
     1
  3
Standard
350
DC
  0
DICTIONARY
  5
17
102
{ACAD_REACTORS
330
C
102
}
330
C
100
AcDbDictionary
281
     1
  3
Standard
350
18
  0
DICTIONARY
  5
19
102
{ACAD_REACTORS
330
C
102
}
330
C
100
AcDbDictionary
281
     1
  0
ACDBDICTIONARYWDFLT
  5
E
102
{ACAD_REACTORS
330
C
102
}
330
C
100
AcDbDictionary
281
     1
  3
Normal
350
F
100
AcDbDictionaryWithDefault
340
F
  0
DICTIONARY
  5
40
102
{ACAD_REACTORS
330
C
102
}
330
C
100
AcDbDictionary
281
     1
  3
A0
350
41
  3
A1
350
42
  3
A2
350
43
  3
A3
350
44
  3
A4
350
45
  3
A5
350
46
  3
A6
350
47
  3
A7
350
48
  3
A8
350
49
  3
A9
350
4A
  3
B0
350
4B
  3
B1
350
4C
  3
B2
350
4D
  3
B3
350
4E
  3
B4
350
4F
  3
B5
350
50
  3
B6
350
51
  3
B7
350
52
  3
B8
350
53
  3
B9
350
54
  3
C0
350
55
  3
C1
350
56
  3
C2
350
57
  3
C3
350
58
  3
C4
350
59
  3
C5
350
5A
  3
C6
350
5B
  3
C7
350
5C
  3
C8
350
5D
  3
C9
350
5E
  3
D0
350
5F
  3
D1
350
60
  3
D2
350
61
  0
DICTIONARY
  5
DB
102
{ACAD_REACTORS
330
C
102
}
330
C
100
AcDbDictionary
281
     1
  3
Metric50
350
44A
  0
DICTIONARY
  5
3B
102
{ACAD_REACTORS
330
C
102
}
330
C
100
AcDbDictionary
281
     1
  3
Standard
350
3C
  0
DICTIONARY
  5
431
102
{ACAD_REACTORS
330
C
102
}
330
C
100
AcDbDictionary
281
     1
  3
2dWireframe
350
437
  3
Basic
350
436
  3
Brighten
350
43D
  3
ColorChange
350
441
  3
Conceptual
350
43A
  3
Dim
350
43C
  3
EdgeColorOff
350
449
  3
Facepattern
350
440
  3
Flat
350
432
  3
FlatWithEdges
350
433
  3
Gouraud
350
434
  3
GouraudWithEdges
350
435
  3
Hidden
350
439
  3
JitterOff
350
447
  3
Linepattern
350
43F
  3
OverhangOff
350
448
  3
Realistic
350
43B
  3
Shaded
350
446
  3
Shaded with edges
350
445
  3
Shades of Gray
350
442
  3
Sketchy
350
443
  3
Thicken
350
43E
  3
Wireframe
350
438
  3
X-Ray
350
444
  0
XRECORD
  5
1345
102
{ACAD_REACTORS
330
C
102
}
330
C
100
AcDbXrecord
280
     1
 90
        1
330
3C
  0
DICTIONARY
  5
3D
102
{ACAD_REACTORS
330
C
102
}
330
C
100
AcDbDictionary
281
     1
  3
CANNOSCALE
350
62
  3
CMLEADERSTYLE
350
3D3
  3
CTABLESTYLE
350
3E
  3
CVIEWDETAILSTYLE
350
113C
  3
CVIEWSECTIONSTYLE
350
113D
  3
EXPORTMODELSPACE
350
11AE
  3
LAYEREVAL
350
1140
  3
LAYERNOTIFY
350
1141
  3
LIGHTINGUNITS
350
113F
  3
LIGHTSINBLOCKS
350
6F
  3
MSLTSCALE
350
113E
  0
DICTIONARY
  5
96
102
{ACAD_REACTORS
330
C
102
}
330
C
100
AcDbDictionary
281
     1
  0
DICTIONARY
  5
261
102
{ACAD_REACTORS
330
260
102
}
330
260
100
AcDbDictionary
281
     1
  3
ARGON_LAYERP_6
350
422
  0
DICTIONARY
  5
3E5
102
{ACAD_REACTORS
330
260
102
}
330
260
100
AcDbDictionary
281
     1
1001
ACAD
1000
<All
  0
XRECORD
  5
11A1
102
{ACAD_REACTORS
330
11A0
102
}
330
11A0
100
AcDbXrecord
280
     1
290
     1
  0
XRECORD
  5
11A3
102
{ACAD_REACTORS
330
11A2
102
}
330
11A2
100
AcDbXrecord
280
     1
290
     1
  0
XRECORD
  5
11A5
102
{ACAD_REACTORS
330
11A4
102
}
330
11A4
100
AcDbXrecord
280
     1
290
     1
  0
XRECORD
  5
11A7
102
{ACAD_REACTORS
330
11A6
102
}
330
11A6
100
AcDbXrecord
280
     1
290
     1
  0
XRECORD
  5
11A9
102
{ACAD_REACTORS
330
11A8
102
}
330
11A8
100
AcDbXrecord
280
     1
290
     1
  0
XRECORD
  5
11AB
102
{ACAD_REACTORS
330
11AA
102
}
330
11AA
100
AcDbXrecord
280
     1
290
     1
  0
SORTENTSTABLE
  5
CFD
102
{ACAD_REACTORS
330
CFC
102
}
330
CFC
100
AcDbSortentsTable
330
46E
  0
SORTENTSTABLE
  5
D1D
102
{ACAD_REACTORS
330
D1C
102
}
330
D1C
100
AcDbSortentsTable
330
486
  0
SORTENTSTABLE
  5
D33
102
{ACAD_REACTORS
330
D32
102
}
330
D32
100
AcDbSortentsTable
330
4A1
  0
DIMASSOC
  5
1259
102
{ACAD_REACTORS
330
1253
102
}
330
1253
100
AcDbDimAssoc
330
124A
 90
        2
 70
     0
 71
     0
  1
AcDbOsnapPointRef
 72
     3
331
679
 73
     2
 91
        0
 40
0.0
 10
0.0
 20
0.0
 30
0.0
 75
     0
  0
ACDBDETAILVIEWSTYLE
  5
44B
102
{ACAD_REACTORS
330
DA
102
}
330
DA
100
AcDbModelDocViewStyle
 70
     0
  3
Metric50
290
     0
300
Metric50
 90
        0
100
AcDbDetailViewStyle
 70
     0
 71
     0
 90
        3
 71
     1
340
11
 62
   256
 40
5.0
340
0
 62
   256
 40
5.0
300

 40
0.0
280
     1
 71
     2
340
16
 90
       25
 62
   256
 71
     3
340
11
 62
   256
 40
5.0
 90
        0
 40
15.0
 90
        1
300
%<\AcVar ViewDetailId>% (%<\AcVar ViewScale \f "%sn">%)
 71
     4
340
16
 90
       25
 62
   256
340
16
 90
       25
 62
   256
280
     0
  0
LAYOUT
  5
22
102
{ACAD_XDICTIONARY
360
11B3
102
}
102
{ACAD_REACTORS
330
1A
102
}
330
1A
100
AcDbPlotSettings
  1

  2
none_device
  4
ISO_A3_(420.00_x_297.00_MM)
  6

 40
7.5
 41
20.0
 42
7.5
 43
20.0
 44
420.0
 45
297.0
 46
9.992452830188652
 47
-0.0000000000000284
 48
0.0
 49
0.0
140
0.0
141
0.0
142
1.0
143
4.675285945165342
 70
  1204
 72
     1
 73
     0
 74
     1
  7
monochrome.ctb
 75
     0
147
0.2138906607485876
 76
     0
 77
     2
 78
   300
148
-219.5871349880679
149
-67.51189516750978
100
AcDbLayout
  1
Model
 70
     1
 71
     0
 10
0.0
 20
0.0
 11
420.0
 21
297.0
 12
0.0
 22
0.0
 32
0.0
 14
85.4002191002171
 24
67.51189516750978
 34
0.0
 15
1885.455878342763
 25
1269.060383075003
 35
0.0
146
0.0
 13
0.0
 23
0.0
 33
0.0
 16
1.0
 26
0.0
 36
0.0
 17
0.0
 27
1.0
 37
0.0
 76
     0
330
1F
331
29
1001
PLOTTRANSPARENCY
1071
        0
  0
LAYOUT
  5
1E
102
{ACAD_REACTORS
330
1A
102
}
330
1A
100
AcDbPlotSettings
  1

  2
none_device
  4

  6

 40
0.0
 41
0.0
 42
0.0
 43
0.0
 44
0.0
 45
0.0
 46
0.0
 47
0.0
 48
0.0
 49
0.0
140
0.0
141
0.0
142
1.0
143
1.0
 70
   688
 72
     0
 73
     0
 74
     5
  7

 75
    16
147
1.0
 76
     0
 77
     2
 78
   300
148
0.0
149
0.0
100
AcDbLayout
  1
Sheet1
 70
     1
 71
     1
 10
0.0
 20
0.0
 11
0.0
 21
0.0
 12
0.0
 22
0.0
 32
0.0
 14
1.000000000000000E+20
 24
1.000000000000000E+20
 34
1.000000000000000E+20
 15
-1.000000000000000E+20
 25
-1.000000000000000E+20
 35
-1.000000000000000E+20
146
0.0
 13
0.0
 23
0.0
 33
0.0
 16
1.0
 26
0.0
 36
0.0
 17
0.0
 27
1.0
 37
0.0
 76
     0
330
1B
  0
LAYOUT
  5
26
102
{ACAD_REACTORS
330
1A
102
}
330
1A
100
AcDbPlotSettings
  1

  2
none_device
  4

  6

 40
0.0
 41
0.0
 42
0.0
 43
0.0
 44
0.0
 45
0.0
 46
0.0
 47
0.0
 48
0.0
 49
0.0
140
0.0
141
0.0
142
1.0
143
1.0
 70
   688
 72
     0
 73
     0
 74
     5
  7

 75
    16
147
1.0
 76
     0
 77
     2
 78
   300
148
0.0
149
0.0
100
AcDbLayout
  1
Sheet2
 70
     1
 71
     2
 10
0.0
 20
0.0
 11
0.0
 21
0.0
 12
0.0
 22
0.0
 32
0.0
 14
0.0
 24
0.0
 34
0.0
 15
0.0
 25
0.0
 35
0.0
146
0.0
 13
0.0
 23
0.0
 33
0.0
 16
1.0
 26
0.0
 36
0.0
 17
0.0
 27
1.0
 37
0.0
 76
     0
330
23
  0
MATERIAL
  5
99
102
{ACAD_REACTORS
330
97
102
}
330
97
100
AcDbMaterial
  1
ByBlock
  0
MATERIAL
  5
98
102
{ACAD_REACTORS
330
97
102
}
330
97
100
AcDbMaterial
  1
ByLayer
  0
MATERIAL
  5
9A
102
{ACAD_REACTORS
330
97
102
}
330
97
100
AcDbMaterial
  1
Global
  0
MLEADERSTYLE
  5
DC
102
{ACAD_REACTORS
330
3F
102
}
330
3F
100
AcDbMLeaderStyle
179
     2
170
     2
171
     1
172
     0
 90
        2
 40
0.0
 41
0.0
173
     1
 91
-1056964608
340
14
 92
       -2
290
     1
 42
2.0
291
     1
 43
8.0
  3
Standard
 44
4.0
300

342
11
174
     1
178
     6
175
     1
176
     0
 93
-1056964608
 45
4.0
292
     0
297
     0
 46
4.0
 94
-1056964608
 47
1.0
 49
1.0
140
1.0
293
     1
141
0.0
294
     1
177
     0
142
1.0
295
     0
296
     0
143
3.75
271
     0
272
     9
273
     9
298
     0
1001
ACAD_MLEADERVER
1070
     2
  0
MLINESTYLE
  5
18
102
{ACAD_REACTORS
330
17
102
}
330
17
100
AcDbMlineStyle
  2
STANDARD
 70
     0
  3

 62
   256
 51
90.0
 52
90.0
 71
     2
 49
0.5
 62
   256
  6
BYLAYER
 49
-0.5
 62
   256
  6
BYLAYER
  0
ACDBPLACEHOLDER
  5
F
102
{ACAD_REACTORS
330
E
102
}
330
E
  0
SCALE
  5
41
102
{ACAD_REACTORS
330
40
102
}
330
40
100
AcDbScale
 70
     0
300
1:1
140
1.0
141
1.0
290
     1
  0
SCALE
  5
42
102
{ACAD_REACTORS
330
40
102
}
330
40
100
AcDbScale
 70
     0
300
1:2
140
1.0
141
2.0
290
     0
  0
SCALE
  5
43
102
{ACAD_REACTORS
330
40
102
}
330
40
100
AcDbScale
 70
     0
300
1:4
140
1.0
141
4.0
290
     0
  0
SCALE
  5
44
102
{ACAD_REACTORS
330
40
102
}
330
40
100
AcDbScale
 70
     0
300
1:5
140
1.0
141
5.0
290
     0
  0
SCALE
  5
45
102
{ACAD_REACTORS
330
40
102
}
330
40
100
AcDbScale
 70
     0
300
1:8
140
1.0
141
8.0
290
     0
  0
SCALE
  5
46
102
{ACAD_REACTORS
330
40
102
}
330
40
100
AcDbScale
 70
     0
300
1:10
140
1.0
141
10.0
290
     0
  0
SCALE
  5
47
102
{ACAD_REACTORS
330
40
102
}
330
40
100
AcDbScale
 70
     0
300
1:16
140
1.0
141
16.0
290
     0
  0
SCALE
  5
48
102
{ACAD_REACTORS
330
40
102
}
330
40
100
AcDbScale
 70
     0
300
1:20
140
1.0
141
20.0
290
     0
  0
SCALE
  5
49
102
{ACAD_REACTORS
330
40
102
}
330
40
100
AcDbScale
 70
     0
300
1:30
140
1.0
141
30.0
290
     0
  0
SCALE
  5
4A
102
{ACAD_REACTORS
330
40
102
}
330
40
100
AcDbScale
 70
     0
300
1:40
140
1.0
141
40.0
290
     0
  0
SCALE
  5
4B
102
{ACAD_REACTORS
330
40
102
}
330
40
100
AcDbScale
 70
     0
300
1:50
140
1.0
141
50.0
290
     0
  0
SCALE
  5
4C
102
{ACAD_REACTORS
330
40
102
}
330
40
100
AcDbScale
 70
     0
300
1:100
140
1.0
141
100.0
290
     0
  0
SCALE
  5
4D
102
{ACAD_REACTORS
330
40
102
}
330
40
100
AcDbScale
 70
     0
300
2:1
140
2.0
141
1.0
290
     0
  0
SCALE
  5
4E
102
{ACAD_REACTORS
330
40
102
}
330
40
100
AcDbScale
 70
     0
300
4:1
140
4.0
141
1.0
290
     0
  0
SCALE
  5
4F
102
{ACAD_REACTORS
330
40
102
}
330
40
100
AcDbScale
 70
     0
300
8:1
140
8.0
141
1.0
290
     0
  0
SCALE
  5
50
102
{ACAD_REACTORS
330
40
102
}
330
40
100
AcDbScale
 70
     0
300
10:1
140
10.0
141
1.0
290
     0
  0
SCALE
  5
51
102
{ACAD_REACTORS
330
40
102
}
330
40
100
AcDbScale
 70
     0
300
100:1
140
100.0
141
1.0
290
     0
  0
SCALE
  5
52
102
{ACAD_REACTORS
330
40
102
}
330
40
100
AcDbScale
 70
     0
300
1/128" = 1'-0"
140
0.0078125
141
12.0
290
     0
  0
SCALE
  5
53
102
{ACAD_REACTORS
330
40
102
}
330
40
100
AcDbScale
 70
     0
300
1/64" = 1'-0"
140
0.015625
141
12.0
290
     0
  0
SCALE
  5
54
102
{ACAD_REACTORS
330
40
102
}
330
40
100
AcDbScale
 70
     0
300
1/32" = 1'-0"
140
0.03125
141
12.0
290
     0
  0
SCALE
  5
55
102
{ACAD_REACTORS
330
40
102
}
330
40
100
AcDbScale
 70
     0
300
1/16" = 1'-0"
140
0.0625
141
12.0
290
     0
  0
SCALE
  5
56
102
{ACAD_REACTORS
330
40
102
}
330
40
100
AcDbScale
 70
     0
300
3/32" = 1'-0"
140
0.09375
141
12.0
290
     0
  0
SCALE
  5
57
102
{ACAD_REACTORS
330
40
102
}
330
40
100
AcDbScale
 70
     0
300
1/8" = 1'-0"
140
0.125
141
12.0
290
     0
  0
SCALE
  5
58
102
{ACAD_REACTORS
330
40
102
}
330
40
100
AcDbScale
 70
     0
300
3/16" = 1'-0"
140
0.1875
141
12.0
290
     0
  0
SCALE
  5
59
102
{ACAD_REACTORS
330
40
102
}
330
40
100
AcDbScale
 70
     0
300
1/4" = 1'-0"
140
0.25
141
12.0
290
     0
  0
SCALE
  5
5A
102
{ACAD_REACTORS
330
40
102
}
330
40
100
AcDbScale
 70
     0
300
3/8" = 1'-0"
140
0.375
141
12.0
290
     0
  0
SCALE
  5
5B
102
{ACAD_REACTORS
330
40
102
}
330
40
100
AcDbScale
 70
     0
300
1/2" = 1'-0"
140
0.5
141
12.0
290
     0
  0
SCALE
  5
5C
102
{ACAD_REACTORS
330
40
102
}
330
40
100
AcDbScale
 70
     0
300
3/4" = 1'-0"
140
0.75
141
12.0
290
     0
  0
SCALE
  5
5D
102
{ACAD_REACTORS
330
40
102
}
330
40
100
AcDbScale
 70
     0
300
1" = 1'-0"
140
1.0
141
12.0
290
     0
  0
SCALE
  5
5E
102
{ACAD_REACTORS
330
40
102
}
330
40
100
AcDbScale
 70
     0
300
1-1/2" = 1'-0"
140
1.5
141
12.0
290
     0
  0
SCALE
  5
5F
102
{ACAD_REACTORS
330
40
102
}
330
40
100
AcDbScale
 70
     0
300
3" = 1'-0"
140
3.0
141
12.0
290
     0
  0
SCALE
  5
60
102
{ACAD_REACTORS
330
40
102
}
330
40
100
AcDbScale
 70
     0
300
6" = 1'-0"
140
6.0
141
12.0
290
     0
  0
SCALE
  5
61
102
{ACAD_REACTORS
330
40
102
}
330
40
100
AcDbScale
 70
     0
300
1'-0" = 1'-0"
140
12.0
141
12.0
290
     0
  0
ACDBSECTIONVIEWSTYLE
  5
44A
102
{ACAD_REACTORS
330
DB
102
}
330
DB
100
AcDbModelDocViewStyle
 70
     0
  3
Metric50
290
     0
300
Metric50
 90
        0
100
AcDbSectionViewStyle
 70
     0
 71
     0
 90
      102
 71
     1
340
11
 62
   256
 40
5.0
340
0
340
0
 62
   256
 40
5.0
300
I, O, Q, S, X, Z
 40
10.0
 90
        0
 40
2.5
 90
        0
 71
     2
340
16
 90
       25
 62
   256
340
16
 90
       50
 62
   256
 40
5.0
 40
2.5
 40
5.0
 71
     3
340
11
 62
   256
 40
5.0
 90
        0
 40
15.0
 90
        1
300
%<\AcVar ViewSectionStartId>%-%<\AcVar ViewSectionEndId>% (%<\AcVar ViewScale \f "%sn">%)
 71
     4
 62
   256
 62
   257
300
ANSI31
 40
1.0
 90
        0
290
     0
290
     0
 90
        6
 40
0.0
 40
1.570796326794896
 40
0.2617993877991494
 40
1.308996938995747
 40
-0.2617993877991494
 40
1.832595714594044
  0
TABLESTYLE
  5
3C
102
{ACAD_XDICTIONARY
360
428
102
}
102
{ACAD_REACTORS
330
3B
102
}
330
3B
100
AcDbTableStyle
280
     0
  3
Standard
 70
     0
 71
     0
 40
1.5
 41
1.5
280
     0
281
     0
  7
Standard
140
4.5
170
     2
 62
     0
 63
     7
283
     0
 90
      512
 91
        0
  1

274
    -2
284
     1
 64
     0
275
    -2
285
     1
 65
     0
276
    -2
286
     1
 66
     0
277
    -2
287
     1
 67
     0
278
    -2
288
     1
 68
     0
279
    -2
289
     1
 69
     0
  7
Standard
140
6.0
170
     5
 62
     0
 63
     7
283
     0
 90
      512
 91
        0
  1

274
    -2
284
     1
 64
     0
275
    -2
285
     1
 65
     0
276
    -2
286
     1
 66
     0
277
    -2
287
     1
 67
     0
278
    -2
288
     1
 68
     0
279
    -2
289
     1
 69
     0
  7
Standard
140
4.5
170
     5
 62
     0
 63
     7
283
     0
 90
      512
 91
        0
  1

274
    -2
284
     1
 64
     0
275
    -2
285
     1
 65
     0
276
    -2
286
     1
 66
     0
277
    -2
287
     1
 67
     0
278
    -2
288
     1
 68
     0
279
    -2
289
     1
 69
     0
  0
VISUALSTYLE
  5
437
102
{ACAD_REACTORS
330
431
102
}
330
431
100
AcDbVisualStyle
  2
2dWireframe
 70
     4
177
     3
291
     0
 70
    58
 90
        0
176
     1
 90
        2
176
     1
 90
        0
176
     1
 90
        0
176
     1
 40
0.6
176
     1
 40
30.0
176
     1
 62
     7
420
 16777215
176
     1
 90
        1
176
     1
 90
        4
176
     1
 62
     7
176
     1
 62
   257
176
     1
 90
        1
176
     1
 90
        1
176
     1
 40
1.0
176
     1
 90
        0
176
     1
 62
   257
176
     1
 40
1.0
176
     1
 90
        1
176
     1
 90
        6
176
     1
 90
        2
176
     1
 62
     7
176
     1
 90
        5
176
     1
 90
        0
176
     1
 90
        0
176
     1
290
     0
176
     1
 90
        1
176
     1
 40
0.0
176
     1
 90
        0
176
     1
290
     1
176
     1
290
     1
176
     1
290
     0
176
     1
290
     0
176
     1
290
     0
176
     1
290
     0
176
     1
290
     0
176
     1
290
     0
176
     1
290
     0
176
     1
 90
       50
176
     1
 40
0.0
176
     1
 40
1.0
176
     1
 90
        0
176
     1
 62
    18
176
     1
 90
       50
176
     1
 90
        3
176
     1
 62
     5
420
      255
176
     1
290
     0
176
     1
 90
       50
176
     1
 90
       50
176
     1
 90
       50
176
     1
290
     0
176
     1
 90
       50
176
     1
 62
   256
176
     0
 40
1.0
176
     0
 90
        2
176
     1
  1
strokes_ogs.tif
176
     1
290
     0
176
     1
 40
1.0
176
     1
 40
1.0
176
     1
  0
VISUALSTYLE
  5
436
102
{ACAD_REACTORS
330
431
102
}
330
431
100
AcDbVisualStyle
  2
Basic
 70
     7
177
     3
291
     1
 70
    58
 90
        1
176
     1
 90
        0
176
     1
 90
        1
176
     1
 90
        0
176
     1
 40
0.6
176
     1
 40
30.0
176
     1
 62
     7
420
 16777215
176
     1
 90
        0
176
     1
 90
        4
176
     1
 62
     7
176
     1
 62
   257
176
     1
 90
        1
176
     1
 90
        1
176
     1
 40
1.0
176
     1
 90
        8
176
     1
 62
     7
176
     1
 40
1.0
176
     1
 90
        1
176
     1
 90
        6
176
     1
 90
        2
176
     1
 62
     7
176
     1
 90
        5
176
     1
 90
        0
176
     1
 90
        0
176
     1
290
     0
176
     1
 90
        1
176
     1
 40
0.0
176
     1
 90
        0
176
     1
290
     0
176
     1
290
     1
176
     1
290
     1
176
     1
290
     0
176
     1
290
     0
176
     1
290
     0
176
     1
290
     0
176
     1
290
     0
176
     1
290
     0
176
     1
 90
       50
176
     1
 40
0.0
176
     1
 40
1.0
176
     1
 90
        0
176
     1
 62
    18
176
     1
 90
       50
176
     1
 90
        3
176
     1
 62
     5
420
      255
176
     1
290
     0
176
     1
 90
       50
176
     1
 90
       50
176
     1
 90
       50
176
     1
290
     0
176
     1
 90
       50
176
     1
 62
   256
176
     0
 40
1.0
176
     0
 90
        2
176
     1
  1
strokes_ogs.tif
176
     1
290
     0
176
     1
 40
1.0
176
     1
 40
1.0
176
     1
  0
VISUALSTYLE
  5
43D
102
{ACAD_REACTORS
330
431
102
}
330
431
100
AcDbVisualStyle
  2
Brighten
 70
    12
177
     3
291
     1
 70
    58
 90
        2
176
     1
 90
        2
176
     1
 90
        0
176
     1
 90
        0
176
     1
 40
0.6
176
     1
 40
30.0
176
     1
 62
     7
420
 16777215
176
     1
 90
        1
176
     1
 90
        4
176
     1
 62
     7
176
     1
 62
   257
176
     1
 90
        1
176
     1
 90
        1
176
     1
 40
1.0
176
     1
 90
        8
176
     1
 62
     7
176
     1
 40
1.0
176
     1
 90
        1
176
     1
 90
        6
176
     1
 90
        2
176
     1
 62
     7
176
     1
 90
        5
176
     1
 90
        0
176
     1
 90
        0
176
     1
290
     0
176
     1
 90
        1
176
     1
 40
50.0
176
     1
 90
        0
176
     1
290
     0
176
     1
290
     1
176
     1
290
     1
176
     1
290
     0
176
     1
290
     0
176
     1
290
     0
176
     1
290
     0
176
     1
290
     0
176
     1
290
     0
176
     1
 90
       50
176
     1
 40
0.0
176
     1
 40
1.0
176
     1
 90
        0
176
     1
 62
    18
176
     1
 90
       50
176
     1
 90
        3
176
     1
 62
     5
420
      255
176
     1
290
     0
176
     1
 90
       50
176
     1
 90
       50
176
     1
 90
       50
176
     1
290
     0
176
     1
 90
       50
176
     1
 62
   256
176
     0
 40
1.0
176
     0
 90
        2
176
     1
  1
strokes_ogs.tif
176
     1
290
     0
176
     1
 40
1.0
176
     1
 40
1.0
176
     1
  0
VISUALSTYLE
  5
441
102
{ACAD_REACTORS
330
431
102
}
330
431
100
AcDbVisualStyle
  2
ColorChange
 70
    16
177
     3
291
     1
 70
    58
 90
        2
176
     1
 90
        2
176
     1
 90
        3
176
     1
 90
        0
176
     1
 40
0.6
176
     1
 40
30.0
176
     1
 62
     8
420
  8421504
176
     1
 90
        1
176
     1
 90
        4
176
     1
 62
     7
176
     1
 62
   257
176
     1
 90
        1
176
     1
 90
        1
176
     1
 40
1.0
176
     1
 90
        8
176
     1
 62
     8
420
  8421504
176
     1
 40
1.0
176
     1
 90
        1
176
     1
 90
        6
176
     1
 90
        2
176
     1
 62
     7
176
     1
 90
        5
176
     1
 90
        0
176
     1
 90
        0
176
     1
290
     0
176
     1
 90
        1
176
     1
 40
0.0
176
     1
 90
        0
176
     1
290
     0
176
     1
290
     1
176
     1
290
     1
176
     1
290
     0
176
     1
290
     0
176
     1
290
     0
176
     1
290
     0
176
     1
290
     0
176
     1
290
     0
176
     1
 90
       50
176
     1
 40
0.0
176
     1
 40
1.0
176
     1
 90
        0
176
     1
 62
    18
176
     1
 90
       50
176
     1
 90
        3
176
     1
 62
     5
420
      255
176
     1
290
     0
176
     1
 90
       50
176
     1
 90
       50
176
     1
 90
       50
176
     1
290
     0
176
     1
 90
       50
176
     1
 62
   256
176
     0
 40
1.0
176
     0
 90
        2
176
     1
  1
strokes_ogs.tif
176
     1
290
     0
176
     1
 40
1.0
176
     1
 40
1.0
176
     1
  0
VISUALSTYLE
  5
43A
102
{ACAD_REACTORS
330
431
102
}
330
431
100
AcDbVisualStyle
  2
Conceptual
 70
     9
177
     3
291
     0
 70
    58
 90
        3
176
     1
 90
        2
176
     1
 90
        0
176
     1
 90
        0
176
     1
 40
0.6
176
     1
 40
30.0
176
     1
 62
     7
420
 16777215
176
     1
 90
        2
176
     1
 90
        2
176
     1
 62
     7
176
     1
 62
   257
176
     1
 90
        1
176
     1
 90
        1
176
     1
 40
179.0
176
     1
 90
        8
176
     1
 62
     7
176
     1
 40
1.0
176
     1
 90
        1
176
     1
 90
        6
176
     1
 90
        2
176
     1
 62
     7
176
     1
 90
        3
176
     1
 90
        0
176
     1
 90
        0
176
     1
290
     0
176
     1
 90
        1
176
     1
 40
0.0
176
     1
 90
        0
176
     1
290
     0
176
     1
290
     1
176
     1
290
     1
176
     1
290
     0
176
     1
290
     0
176
     1
290
     0
176
     1
290
     0
176
     1
290
     0
176
     1
290
     0
176
     1
 90
       50
176
     1
 40
0.0
176
     1
 40
1.0
176
     1
 90
        0
176
     1
 62
    18
176
     1
 90
       50
176
     1
 90
        3
176
     1
 62
     5
420
      255
176
     1
290
     0
176
     1
 90
       50
176
     1
 90
       50
176
     1
 90
       50
176
     1
290
     0
176
     1
 90
       50
176
     1
 62
   256
176
     0
 40
1.0
176
     0
 90
        2
176
     1
  1
strokes_ogs.tif
176
     1
290
     0
176
     1
 40
1.0
176
     1
 40
1.0
176
     1
  0
VISUALSTYLE
  5
43C
102
{ACAD_REACTORS
330
431
102
}
330
431
100
AcDbVisualStyle
  2
Dim
 70
    11
177
     3
291
     1
 70
    58
 90
        2
176
     1
 90
        2
176
     1
 90
        0
176
     1
 90
        0
176
     1
 40
0.6
176
     1
 40
30.0
176
     1
 62
     7
420
 16777215
176
     1
 90
        1
176
     1
 90
        4
176
     1
 62
     7
176
     1
 62
   257
176
     1
 90
        1
176
     1
 90
        1
176
     1
 40
1.0
176
     1
 90
        8
176
     1
 62
     7
176
     1
 40
1.0
176
     1
 90
        1
176
     1
 90
        6
176
     1
 90
        2
176
     1
 62
     7
176
     1
 90
        5
176
     1
 90
        0
176
     1
 90
        0
176
     1
290
     0
176
     1
 90
        1
176
     1
 40
-50.0
176
     1
 90
        0
176
     1
290
     0
176
     1
290
     1
176
     1
290
     1
176
     1
290
     0
176
     1
290
     0
176
     1
290
     0
176
     1
290
     0
176
     1
290
     0
176
     1
290
     0
176
     1
 90
       50
176
     1
 40
0.0
176
     1
 40
1.0
176
     1
 90
        0
176
     1
 62
    18
176
     1
 90
       50
176
     1
 90
        3
176
     1
 62
     5
420
      255
176
     1
290
     0
176
     1
 90
       50
176
     1
 90
       50
176
     1
 90
       50
176
     1
290
     0
176
     1
 90
       50
176
     1
 62
   256
176
     0
 40
1.0
176
     0
 90
        2
176
     1
  1
strokes_ogs.tif
176
     1
290
     0
176
     1
 40
1.0
176
     1
 40
1.0
176
     1
  0
VISUALSTYLE
  5
449
102
{ACAD_REACTORS
330
431
102
}
330
431
100
AcDbVisualStyle
  2
EdgeColorOff
 70
    22
177
     3
291
     1
 70
    58
 90
        2
176
     0
 90
        2
176
     0
 90
        0
176
     0
 90
        0
176
     0
 40
0.6
176
     0
 40
30.0
176
     0
 62
     7
420
 16777215
176
     0
 90
        1
176
     0
 90
        4
176
     0
 62
     7
176
     0
 62
   257
176
     0
 90
        1
176
     0
 90
        1
176
     0
 40
1.0
176
     0
 90
        8
176
     2
 62
     7
176
     0
 40
1.0
176
     0
 90
        1
176
     0
 90
        6
176
     0
 90
        2
176
     0
 62
     7
176
     0
 90
        5
176
     0
 90
        0
176
     0
 90
        0
176
     0
290
     0
176
     0
 90
        1
176
     0
 40
0.0
176
     0
 90
        0
176
     0
290
     0
176
     1
290
     1
176
     1
290
     1
176
     1
290
     0
176
     1
290
     0
176
     1
290
     0
176
     1
290
     0
176
     1
290
     0
176
     1
290
     0
176
     1
 90
       50
176
     0
 40
0.0
176
     0
 40
1.0
176
     0
 90
        0
176
     0
 62
    18
176
     0
 90
       50
176
     0
 90
        3
176
     0
 62
     5
420
      255
176
     0
290
     0
176
     1
 90
       50
176
     0
 90
       50
176
     0
 90
       50
176
     0
290
     0
176
     1
 90
       50
176
     0
 62
   256
176
     0
 40
1.0
176
     0
 90
        2
176
     0
  1
strokes_ogs.tif
176
     0
290
     0
176
     1
 40
1.0
176
     0
 40
1.0
176
     0
  0
VISUALSTYLE
  5
440
102
{ACAD_REACTORS
330
431
102
}
330
431
100
AcDbVisualStyle
  2
Facepattern
 70
    15
177
     3
291
     1
 70
    58
 90
        2
176
     1
 90
        2
176
     1
 90
        0
176
     1
 90
        0
176
     1
 40
0.6
176
     1
 40
30.0
176
     1
 62
     7
420
 16777215
176
     1
 90
        1
176
     1
 90
        4
176
     1
 62
     7
176
     1
 62
   257
176
     1
 90
        1
176
     1
 90
        1
176
     1
 40
1.0
176
     1
 90
        8
176
     1
 62
     7
176
     1
 40
1.0
176
     1
 90
        1
176
     1
 90
        6
176
     1
 90
        2
176
     1
 62
     7
176
     1
 90
        5
176
     1
 90
        0
176
     1
 90
        0
176
     1
290
     0
176
     1
 90
        1
176
     1
 40
0.0
176
     1
 90
        0
176
     1
290
     0
176
     1
290
     1
176
     1
290
     1
176
     1
290
     0
176
     1
290
     0
176
     1
290
     0
176
     1
290
     0
176
     1
290
     0
176
     1
290
     0
176
     1
 90
       50
176
     1
 40
0.0
176
     1
 40
1.0
176
     1
 90
        0
176
     1
 62
    18
176
     1
 90
       50
176
     1
 90
        3
176
     1
 62
     5
420
      255
176
     1
290
     0
176
     1
 90
       50
176
     1
 90
       50
176
     1
 90
       50
176
     1
290
     0
176
     1
 90
       50
176
     1
 62
   256
176
     0
 40
1.0
176
     0
 90
        2
176
     1
  1
strokes_ogs.tif
176
     1
290
     0
176
     1
 40
1.0
176
     1
 40
1.0
176
     1
  0
VISUALSTYLE
  5
432
102
{ACAD_REACTORS
330
431
102
}
330
431
100
AcDbVisualStyle
  2
Flat
 70
     0
177
     3
291
     1
 70
    58
 90
        2
176
     1
 90
        1
176
     1
 90
        1
176
     1
 90
        2
176
     1
 40
0.6
176
     1
 40
30.0
176
     1
 62
     7
420
 16777215
176
     1
 90
        0
176
     1
 90
        0
176
     1
 62
     7
176
     1
 62
   257
176
     1
 90
        1
176
     1
 90
        1
176
     1
 40
1.0
176
     1
 90
        8
176
     1
 62
     7
176
     1
 40
1.0
176
     1
 90
        1
176
     1
 90
        6
176
     1
 90
        2
176
     1
 62
     7
176
     1
 90
        5
176
     1
 90
        0
176
     1
 90
        0
176
     1
290
     0
176
     1
 90
       13
176
     1
 40
0.0
176
     1
 90
        0
176
     1
290
     0
176
     1
290
     1
176
     1
290
     1
176
     1
290
     0
176
     1
290
     0
176
     1
290
     0
176
     1
290
     0
176
     1
290
     0
176
     1
290
     0
176
     1
 90
       50
176
     1
 40
0.0
176
     1
 40
1.0
176
     1
 90
        0
176
     1
 62
    18
176
     1
 90
       50
176
     1
 90
        3
176
     1
 62
     5
420
      255
176
     1
290
     0
176
     1
 90
       50
176
     1
 90
       50
176
     1
 90
       50
176
     1
290
     0
176
     1
 90
       50
176
     1
 62
   256
176
     0
 40
1.0
176
     0
 90
        2
176
     1
  1
strokes_ogs.tif
176
     1
290
     0
176
     1
 40
1.0
176
     1
 40
1.0
176
     1
  0
VISUALSTYLE
  5
433
102
{ACAD_REACTORS
330
431
102
}
330
431
100
AcDbVisualStyle
  2
FlatWithEdges
 70
     1
177
     3
291
     1
 70
    58
 90
        2
176
     1
 90
        1
176
     1
 90
        1
176
     1
 90
        2
176
     1
 40
0.6
176
     1
 40
30.0
176
     1
 62
     7
420
 16777215
176
     1
 90
        1
176
     1
 90
        0
176
     1
 62
     7
176
     1
 62
   257
176
     1
 90
        1
176
     1
 90
        1
176
     1
 40
1.0
176
     1
 90
        0
176
     1
 62
   257
176
     1
 40
1.0
176
     1
 90
        1
176
     1
 90
        6
176
     1
 90
        2
176
     1
 62
     7
176
     1
 90
        5
176
     1
 90
        0
176
     1
 90
        0
176
     1
290
     0
176
     1
 90
       13
176
     1
 40
0.0
176
     1
 90
        0
176
     1
290
     0
176
     1
290
     1
176
     1
290
     1
176
     1
290
     0
176
     1
290
     0
176
     1
290
     0
176
     1
290
     0
176
     1
290
     0
176
     1
290
     0
176
     1
 90
       50
176
     1
 40
0.0
176
     1
 40
1.0
176
     1
 90
        0
176
     1
 62
    18
176
     1
 90
       50
176
     1
 90
        3
176
     1
 62
     5
420
      255
176
     1
290
     0
176
     1
 90
       50
176
     1
 90
       50
176
     1
 90
       50
176
     1
290
     0
176
     1
 90
       50
176
     1
 62
   256
176
     0
 40
1.0
176
     0
 90
        2
176
     1
  1
strokes_ogs.tif
176
     1
290
     0
176
     1
 40
1.0
176
     1
 40
1.0
176
     1
  0
VISUALSTYLE
  5
434
102
{ACAD_REACTORS
330
431
102
}
330
431
100
AcDbVisualStyle
  2
Gouraud
 70
     2
177
     3
291
     1
 70
    58
 90
        2
176
     1
 90
        2
176
     1
 90
        1
176
     1
 90
        2
176
     1
 40
0.6
176
     1
 40
30.0
176
     1
 62
     7
420
 16777215
176
     1
 90
        0
176
     1
 90
        0
176
     1
 62
     7
176
     1
 62
   257
176
     1
 90
        1
176
     1
 90
        1
176
     1
 40
1.0
176
     1
 90
        0
176
     1
 62
     7
176
     1
 40
1.0
176
     1
 90
        1
176
     1
 90
        6
176
     1
 90
        2
176
     1
 62
     7
176
     1
 90
        5
176
     1
 90
        0
176
     1
 90
        0
176
     1
290
     0
176
     1
 90
       13
176
     1
 40
0.0
176
     1
 90
        0
176
     1
290
     0
176
     1
290
     1
176
     1
290
     1
176
     1
290
     0
176
     1
290
     0
176
     1
290
     0
176
     1
290
     0
176
     1
290
     0
176
     1
290
     0
176
     1
 90
       50
176
     1
 40
0.0
176
     1
 40
1.0
176
     1
 90
        0
176
     1
 62
    18
176
     1
 90
       50
176
     1
 90
        3
176
     1
 62
     5
420
      255
176
     1
290
     0
176
     1
 90
       50
176
     1
 90
       50
176
     1
 90
       50
176
     1
290
     0
176
     1
 90
       50
176
     1
 62
   256
176
     0
 40
1.0
176
     0
 90
        2
176
     1
  1
strokes_ogs.tif
176
     1
290
     0
176
     1
 40
1.0
176
     1
 40
1.0
176
     1
  0
VISUALSTYLE
  5
435
102
{ACAD_REACTORS
330
431
102
}
330
431
100
AcDbVisualStyle
  2
GouraudWithEdges
 70
     3
177
     3
291
     1
 70
    58
 90
        2
176
     1
 90
        2
176
     1
 90
        1
176
     1
 90
        2
176
     1
 40
0.6
176
     1
 40
30.0
176
     1
 62
     7
420
 16777215
176
     1
 90
        1
176
     1
 90
        0
176
     1
 62
     7
176
     1
 62
   257
176
     1
 90
        1
176
     1
 90
        1
176
     1
 40
1.0
176
     1
 90
        0
176
     1
 62
   257
176
     1
 40
1.0
176
     1
 90
        1
176
     1
 90
        6
176
     1
 90
        2
176
     1
 62
     7
176
     1
 90
        5
176
     1
 90
        0
176
     1
 90
        0
176
     1
290
     0
176
     1
 90
       13
176
     1
 40
0.0
176
     1
 90
        0
176
     1
290
     0
176
     1
290
     1
176
     1
290
     1
176
     1
290
     0
176
     1
290
     0
176
     1
290
     0
176
     1
290
     0
176
     1
290
     0
176
     1
290
     0
176
     1
 90
       50
176
     1
 40
0.0
176
     1
 40
1.0
176
     1
 90
        0
176
     1
 62
    18
176
     1
 90
       50
176
     1
 90
        3
176
     1
 62
     5
420
      255
176
     1
290
     0
176
     1
 90
       50
176
     1
 90
       50
176
     1
 90
       50
176
     1
290
     0
176
     1
 90
       50
176
     1
 62
   256
176
     0
 40
1.0
176
     0
 90
        2
176
     1
  1
strokes_ogs.tif
176
     1
290
     0
176
     1
 40
1.0
176
     1
 40
1.0
176
     1
  0
VISUALSTYLE
  5
439
102
{ACAD_REACTORS
330
431
102
}
330
431
100
AcDbVisualStyle
  2
Hidden
 70
     6
177
     3
291
     0
 70
    58
 90
        1
176
     1
 90
        2
176
     1
 90
        2
176
     1
 90
        0
176
     1
 40
0.6
176
     1
 40
30.0
176
     1
 62
     7
420
 16777215
176
     1
 90
        2
176
     1
 90
        2
176
     1
 62
     7
176
     1
 62
   257
176
     1
 90
        2
176
     1
 90
        1
176
     1
 40
40.0
176
     1
 90
        0
176
     1
 62
   257
176
     1
 40
1.0
176
     1
 90
        1
176
     1
 90
        6
176
     1
 90
        2
176
     1
 62
     7
176
     1
 90
        3
176
     1
 90
        0
176
     1
 90
        0
176
     1
290
     0
176
     1
 90
        1
176
     1
 40
0.0
176
     1
 90
        0
176
     1
290
     0
176
     1
290
     1
176
     1
290
     1
176
     1
290
     0
176
     1
290
     0
176
     1
290
     0
176
     1
290
     0
176
     1
290
     0
176
     1
290
     0
176
     1
 90
       50
176
     1
 40
0.0
176
     1
 40
1.0
176
     1
 90
        0
176
     1
 62
    18
176
     1
 90
       50
176
     1
 90
        3
176
     1
 62
     5
420
      255
176
     1
290
     0
176
     1
 90
       50
176
     1
 90
       50
176
     1
 90
       50
176
     1
290
     0
176
     1
 90
       50
176
     1
 62
   256
176
     0
 40
1.0
176
     0
 90
        2
176
     1
  1
strokes_ogs.tif
176
     1
290
     0
176
     1
 40
1.0
176
     1
 40
1.0
176
     1
  0
VISUALSTYLE
  5
447
102
{ACAD_REACTORS
330
431
102
}
330
431
100
AcDbVisualStyle
  2
JitterOff
 70
    20
177
     3
291
     1
 70
    58
 90
        2
176
     0
 90
        2
176
     0
 90
        0
176
     0
 90
        0
176
     0
 40
0.6
176
     0
 40
30.0
176
     0
 62
     7
420
 16777215
176
     0
 90
        1
176
     0
 90
        4
176
     0
 62
     7
176
     0
 62
   257
176
     0
 90
        1
176
     0
 90
        1
176
     0
 40
1.0
176
     0
 90
       10
176
     2
 62
     7
176
     0
 40
1.0
176
     0
 90
        1
176
     0
 90
        6
176
     0
 90
        2
176
     0
 62
     7
176
     0
 90
        5
176
     0
 90
        0
176
     0
 90
        0
176
     0
290
     0
176
     0
 90
        1
176
     0
 40
0.0
176
     0
 90
        0
176
     0
290
     0
176
     1
290
     1
176
     1
290
     1
176
     1
290
     0
176
     1
290
     0
176
     1
290
     0
176
     1
290
     0
176
     1
290
     0
176
     1
290
     0
176
     1
 90
       50
176
     0
 40
0.0
176
     0
 40
1.0
176
     0
 90
        0
176
     0
 62
    18
176
     0
 90
       50
176
     0
 90
        3
176
     0
 62
     5
420
      255
176
     0
290
     0
176
     1
 90
       50
176
     0
 90
       50
176
     0
 90
       50
176
     0
290
     0
176
     1
 90
       50
176
     0
 62
   256
176
     0
 40
1.0
176
     0
 90
        2
176
     0
  1
strokes_ogs.tif
176
     0
290
     0
176
     1
 40
1.0
176
     0
 40
1.0
176
     0
  0
VISUALSTYLE
  5
43F
102
{ACAD_REACTORS
330
431
102
}
330
431
100
AcDbVisualStyle
  2
Linepattern
 70
    14
177
     3
291
     1
 70
    58
 90
        2
176
     1
 90
        2
176
     1
 90
        0
176
     1
 90
        0
176
     1
 40
0.6
176
     1
 40
30.0
176
     1
 62
     7
420
 16777215
176
     1
 90
        1
176
     1
 90
        4
176
     1
 62
     7
176
     1
 62
   257
176
     1
 90
        7
176
     1
 90
        7
176
     1
 40
1.0
176
     1
 90
        8
176
     1
 62
     7
176
     1
 40
1.0
176
     1
 90
        1
176
     1
 90
        6
176
     1
 90
        2
176
     1
 62
     7
176
     1
 90
        5
176
     1
 90
        0
176
     1
 90
        0
176
     1
290
     0
176
     1
 90
        1
176
     1
 40
0.0
176
     1
 90
        0
176
     1
290
     0
176
     1
290
     1
176
     1
290
     1
176
     1
290
     0
176
     1
290
     0
176
     1
290
     0
176
     1
290
     0
176
     1
290
     0
176
     1
290
     0
176
     1
 90
       50
176
     1
 40
0.0
176
     1
 40
1.0
176
     1
 90
        0
176
     1
 62
    18
176
     1
 90
       50
176
     1
 90
        3
176
     1
 62
     5
420
      255
176
     1
290
     0
176
     1
 90
       50
176
     1
 90
       50
176
     1
 90
       50
176
     1
290
     0
176
     1
 90
       50
176
     1
 62
   256
176
     0
 40
1.0
176
     0
 90
        2
176
     1
  1
strokes_ogs.tif
176
     1
290
     0
176
     1
 40
1.0
176
     1
 40
1.0
176
     1
  0
VISUALSTYLE
  5
448
102
{ACAD_REACTORS
330
431
102
}
330
431
100
AcDbVisualStyle
  2
OverhangOff
 70
    21
177
     3
291
     1
 70
    58
 90
        2
176
     0
 90
        2
176
     0
 90
        0
176
     0
 90
        0
176
     0
 40
0.6
176
     0
 40
30.0
176
     0
 62
     7
420
 16777215
176
     0
 90
        1
176
     0
 90
        4
176
     0
 62
     7
176
     0
 62
   257
176
     0
 90
        1
176
     0
 90
        1
176
     0
 40
1.0
176
     0
 90
        9
176
     2
 62
     7
176
     0
 40
1.0
176
     0
 90
        1
176
     0
 90
        6
176
     0
 90
        2
176
     0
 62
     7
176
     0
 90
        5
176
     0
 90
        0
176
     0
 90
        0
176
     0
290
     0
176
     0
 90
        1
176
     0
 40
0.0
176
     0
 90
        0
176
     0
290
     0
176
     1
290
     1
176
     1
290
     1
176
     1
290
     0
176
     1
290
     0
176
     1
290
     0
176
     1
290
     0
176
     1
290
     0
176
     1
290
     0
176
     1
 90
       50
176
     0
 40
0.0
176
     0
 40
1.0
176
     0
 90
        0
176
     0
 62
    18
176
     0
 90
       50
176
     0
 90
        3
176
     0
 62
     5
420
      255
176
     0
290
     0
176
     1
 90
       50
176
     0
 90
       50
176
     0
 90
       50
176
     0
290
     0
176
     1
 90
       50
176
     0
 62
   256
176
     0
 40
1.0
176
     0
 90
        2
176
     0
  1
strokes_ogs.tif
176
     0
290
     0
176
     1
 40
1.0
176
     0
 40
1.0
176
     0
  0
VISUALSTYLE
  5
43B
102
{ACAD_REACTORS
330
431
102
}
330
431
100
AcDbVisualStyle
  2
Realistic
 70
     8
177
     3
291
     0
 70
    58
 90
        2
176
     1
 90
        3
176
     1
 90
        0
176
     1
 90
        2
176
     1
 40
0.6
176
     1
 40
30.0
176
     1
 62
     7
420
 16777215
176
     1
 90
        0
176
     1
 90
        0
176
     1
 62
     7
176
     1
 62
   257
176
     1
 90
        1
176
     1
 90
        1
176
     1
 40
1.0
176
     1
 90
        8
176
     1
 62
   257
176
     1
 40
1.0
176
     1
 90
        1
176
     1
 90
        6
176
     1
 90
        2
176
     1
 62
     7
176
     1
 90
        3
176
     1
 90
        0
176
     1
 90
        0
176
     1
290
     0
176
     1
 90
       13
176
     1
 40
0.0
176
     1
 90
        0
176
     1
290
     0
176
     1
290
     1
176
     1
290
     1
176
     1
290
     0
176
     1
290
     0
176
     1
290
     0
176
     1
290
     0
176
     1
290
     0
176
     1
290
     0
176
     1
 90
       50
176
     1
 40
0.0
176
     1
 40
1.0
176
     1
 90
        0
176
     1
 62
    18
176
     1
 90
       50
176
     1
 90
        3
176
     1
 62
     5
420
      255
176
     1
290
     0
176
     1
 90
       50
176
     1
 90
       50
176
     1
 90
       50
176
     1
290
     0
176
     1
 90
       50
176
     1
 62
   256
176
     0
 40
1.0
176
     0
 90
        2
176
     1
  1
strokes_ogs.tif
176
     1
290
     0
176
     1
 40
1.0
176
     1
 40
1.0
176
     1
  0
VISUALSTYLE
  5
446
102
{ACAD_REACTORS
330
431
102
}
330
431
100
AcDbVisualStyle
  2
Shaded
 70
    27
177
     3
291
     0
 70
    58
 90
        2
176
     1
 90
        2
176
     1
 90
        1
176
     1
 90
        2
176
     1
 40
0.6
176
     1
 40
30.0
176
     1
 62
     7
420
 16777215
176
     1
 90
        0
176
     1
 90
        4
176
     1
 62
     7
176
     1
 62
   257
176
     1
 90
        1
176
     1
 90
        1
176
     1
 40
1.0
176
     1
 90
        8
176
     1
 62
   257
176
     1
 40
1.0
176
     1
 90
        1
176
     1
 90
        6
176
     1
 90
        2
176
     1
 62
     8
420
  7895160
176
     1
 90
        3
176
     1
 90
        0
176
     1
 90
        0
176
     1
290
     0
176
     1
 90
        5
176
     1
 40
0.0
176
     1
 90
        0
176
     1
290
     0
176
     1
290
     1
176
     1
290
     1
176
     1
290
     0
176
     1
290
     0
176
     1
290
     0
176
     1
290
     0
176
     1
290
     0
176
     1
290
     0
176
     1
 90
       50
176
     1
 40
0.0
176
     1
 40
1.0
176
     1
 90
        0
176
     1
 62
    18
176
     1
 90
       50
176
     1
 90
        3
176
     1
 62
     5
420
      255
176
     1
290
     0
176
     1
 90
       50
176
     1
 90
       50
176
     1
 90
       50
176
     1
290
     0
176
     1
 90
       50
176
     1
 62
   256
176
     0
 40
1.0
176
     0
 90
        2
176
     1
  1
strokes_ogs.tif
176
     1
290
     0
176
     1
 40
1.0
176
     1
 40
1.0
176
     1
  0
VISUALSTYLE
  5
445
102
{ACAD_REACTORS
330
431
102
}
330
431
100
AcDbVisualStyle
  2
Shaded with edges
 70
    26
177
     3
291
     0
 70
    58
 90
        2
176
     1
 90
        2
176
     1
 90
        1
176
     1
 90
        2
176
     1
 40
0.6
176
     1
 40
30.0
176
     1
 62
     7
420
 16777215
176
     1
 90
        1
176
     1
 90
        2
176
     1
 62
     7
176
     1
 62
   257
176
     1
 90
        2
176
     1
 90
        1
176
     1
 40
1.0
176
     1
 90
        8
176
     1
 62
   257
176
     1
 40
1.0
176
     1
 90
        1
176
     1
 90
        6
176
     1
 90
        2
176
     1
 62
     7
176
     1
 90
        3
176
     1
 90
        0
176
     1
 90
        0
176
     1
290
     0
176
     1
 90
        5
176
     1
 40
0.0
176
     1
 90
        0
176
     1
290
     0
176
     1
290
     1
176
     1
290
     1
176
     1
290
     0
176
     1
290
     0
176
     1
290
     0
176
     1
290
     0
176
     1
290
     0
176
     1
290
     0
176
     1
 90
       50
176
     1
 40
0.0
176
     1
 40
1.0
176
     1
 90
        0
176
     1
 62
    18
176
     1
 90
       50
176
     1
 90
        3
176
     1
 62
     5
420
      255
176
     1
290
     0
176
     1
 90
       50
176
     1
 90
       50
176
     1
 90
       50
176
     1
290
     0
176
     1
 90
       50
176
     1
 62
   256
176
     0
 40
1.0
176
     0
 90
        2
176
     1
  1
strokes_ogs.tif
176
     1
290
     0
176
     1
 40
1.0
176
     1
 40
1.0
176
     1
  0
VISUALSTYLE
  5
442
102
{ACAD_REACTORS
330
431
102
}
330
431
100
AcDbVisualStyle
  2
Shades of Gray
 70
    23
177
     3
291
     0
 70
    58
 90
        2
176
     1
 90
        2
176
     1
 90
        3
176
     1
 90
        0
176
     1
 40
0.6
176
     1
 40
30.0
176
     1
 62
     7
420
 16777215
176
     1
 90
        2
176
     1
 90
        2
176
     1
 62
     7
176
     1
 62
     7
176
     1
 90
        1
176
     1
 90
        1
176
     1
 40
40.0
176
     1
 90
        8
176
     1
 62
     7
176
     1
 40
1.0
176
     1
 90
        1
176
     1
 90
        6
176
     1
 90
        2
176
     1
 62
     7
176
     1
 90
        3
176
     1
 90
        0
176
     1
 90
        0
176
     1
290
     0
176
     1
 90
        1
176
     1
 40
0.0
176
     1
 90
        0
176
     1
290
     0
176
     1
290
     1
176
     1
290
     1
176
     1
290
     0
176
     1
290
     0
176
     1
290
     0
176
     1
290
     0
176
     1
290
     0
176
     1
290
     0
176
     1
 90
       50
176
     1
 40
0.0
176
     1
 40
1.0
176
     1
 90
        0
176
     1
 62
    18
176
     1
 90
       50
176
     1
 90
        3
176
     1
 62
     5
420
      255
176
     1
290
     0
176
     1
 90
       50
176
     1
 90
       50
176
     1
 90
       50
176
     1
290
     0
176
     1
 90
       50
176
     1
 62
   256
176
     0
 40
1.0
176
     0
 90
        2
176
     1
  1
strokes_ogs.tif
176
     1
290
     0
176
     1
 40
1.0
176
     1
 40
1.0
176
     1
  0
VISUALSTYLE
  5
443
102
{ACAD_REACTORS
330
431
102
}
330
431
100
AcDbVisualStyle
  2
Sketchy
 70
    24
177
     3
291
     0
 70
    58
 90
        1
176
     1
 90
        2
176
     1
 90
        2
176
     1
 90
        0
176
     1
 40
0.6
176
     1
 40
30.0
176
     1
 62
     7
420
 16777215
176
     1
 90
        2
176
     1
 90
        2
176
     1
 62
     7
176
     1
 62
     7
176
     1
 90
        1
176
     1
 90
        1
176
     1
 40
40.0
176
     1
 90
       11
176
     1
 62
     7
176
     1
 40
1.0
176
     1
 90
        1
176
     1
 90
        6
176
     1
 90
        2
176
     1
 62
     7
176
     1
 90
        6
176
     1
 90
        0
176
     1
 90
        0
176
     1
290
     0
176
     1
 90
        1
176
     1
 40
0.0
176
     1
 90
        0
176
     1
290
     0
176
     1
290
     1
176
     1
290
     1
176
     1
290
     0
176
     1
290
     0
176
     1
290
     0
176
     1
290
     0
176
     1
290
     0
176
     1
290
     0
176
     1
 90
       50
176
     1
 40
0.0
176
     1
 40
1.0
176
     1
 90
        0
176
     1
 62
    18
176
     1
 90
       50
176
     1
 90
        3
176
     1
 62
     5
420
      255
176
     1
290
     0
176
     1
 90
       50
176
     1
 90
       50
176
     1
 90
       50
176
     1
290
     0
176
     1
 90
       50
176
     1
 62
   256
176
     0
 40
1.0
176
     0
 90
        2
176
     1
  1
strokes_ogs.tif
176
     1
290
     0
176
     1
 40
1.0
176
     1
 40
1.0
176
     1
  0
VISUALSTYLE
  5
43E
102
{ACAD_REACTORS
330
431
102
}
330
431
100
AcDbVisualStyle
  2
Thicken
 70
    13
177
     3
291
     1
 70
    58
 90
        2
176
     1
 90
        2
176
     1
 90
        0
176
     1
 90
        0
176
     1
 40
0.6
176
     1
 40
30.0
176
     1
 62
     7
420
 16777215
176
     1
 90
        1
176
     1
 90
        4
176
     1
 62
     7
176
     1
 62
   257
176
     1
 90
        1
176
     1
 90
        1
176
     1
 40
1.0
176
     1
 90
       12
176
     1
 62
     7
176
     1
 40
1.0
176
     1
 90
        1
176
     1
 90
        6
176
     1
 90
        2
176
     1
 62
     7
176
     1
 90
        5
176
     1
 90
        0
176
     1
 90
        0
176
     1
290
     0
176
     1
 90
        1
176
     1
 40
0.0
176
     1
 90
        0
176
     1
290
     0
176
     1
290
     1
176
     1
290
     1
176
     1
290
     0
176
     1
290
     0
176
     1
290
     0
176
     1
290
     0
176
     1
290
     0
176
     1
290
     0
176
     1
 90
       50
176
     1
 40
0.0
176
     1
 40
1.0
176
     1
 90
        0
176
     1
 62
    18
176
     1
 90
       50
176
     1
 90
        3
176
     1
 62
     5
420
      255
176
     1
290
     0
176
     1
 90
       50
176
     1
 90
       50
176
     1
 90
       50
176
     1
290
     0
176
     1
 90
       50
176
     1
 62
   256
176
     0
 40
1.0
176
     0
 90
        2
176
     1
  1
strokes_ogs.tif
176
     1
290
     0
176
     1
 40
1.0
176
     1
 40
1.0
176
     1
  0
VISUALSTYLE
  5
438
102
{ACAD_REACTORS
330
431
102
}
330
431
100
AcDbVisualStyle
  2
Wireframe
 70
     5
177
     3
291
     0
 70
    58
 90
        0
176
     1
 90
        2
176
     1
 90
        0
176
     1
 90
        0
176
     1
 40
0.6
176
     1
 40
30.0
176
     1
 62
     7
420
 16777215
176
     1
 90
        1
176
     1
 90
        4
176
     1
 62
     7
176
     1
 62
   257
176
     1
 90
        1
176
     1
 90
        1
176
     1
 40
1.0
176
     1
 90
        0
176
     1
 62
   257
176
     1
 40
1.0
176
     1
 90
        1
176
     1
 90
        6
176
     1
 90
        2
176
     1
 62
     7
176
     1
 90
        3
176
     1
 90
        0
176
     1
 90
        0
176
     1
290
     0
176
     1
 90
        1
176
     1
 40
0.0
176
     1
 90
        0
176
     1
290
     0
176
     1
290
     1
176
     1
290
     1
176
     1
290
     0
176
     1
290
     0
176
     1
290
     0
176
     1
290
     0
176
     1
290
     0
176
     1
290
     0
176
     1
 90
       50
176
     1
 40
0.0
176
     1
 40
1.0
176
     1
 90
        0
176
     1
 62
    18
176
     1
 90
       50
176
     1
 90
        3
176
     1
 62
     5
420
      255
176
     1
290
     0
176
     1
 90
       50
176
     1
 90
       50
176
     1
 90
       50
176
     1
290
     0
176
     1
 90
       50
176
     1
 62
   256
176
     0
 40
1.0
176
     0
 90
        2
176
     1
  1
strokes_ogs.tif
176
     1
290
     0
176
     1
 40
1.0
176
     1
 40
1.0
176
     1
  0
VISUALSTYLE
  5
444
102
{ACAD_REACTORS
330
431
102
}
330
431
100
AcDbVisualStyle
  2
X-Ray
 70
    25
177
     3
291
     0
 70
    58
 90
        2
176
     1
 90
        2
176
     1
 90
        1
176
     1
 90
        1
176
     1
 40
0.5
176
     1
 40
30.0
176
     1
 62
     7
420
 16777215
176
     1
 90
        1
176
     1
 90
        0
176
     1
 62
     7
176
     1
 62
   257
176
     1
 90
        1
176
     1
 90
        1
176
     1
 40
1.0
176
     1
 90
        8
176
     1
 62
     7
176
     1
 40
1.0
176
     1
 90
        1
176
     1
 90
        6
176
     1
 90
        2
176
     1
 62
     7
176
     1
 90
        3
176
     1
 90
        0
176
     1
 90
        0
176
     1
290
     0
176
     1
 90
       13
176
     1
 40
0.0
176
     1
 90
        0
176
     1
290
     0
176
     1
290
     1
176
     1
290
     1
176
     1
290
     0
176
     1
290
     0
176
     1
290
     0
176
     1
290
     0
176
     1
290
     0
176
     1
290
     0
176
     1
 90
       50
176
     1
 40
0.0
176
     1
 40
1.0
176
     1
 90
        0
176
     1
 62
    18
176
     1
 90
       50
176
     1
 90
        3
176
     1
 62
     5
420
      255
176
     1
290
     0
176
     1
 90
       50
176
     1
 90
       50
176
     1
 90
       50
176
     1
290
     0
176
     1
 90
       50
176
     1
 62
   256
176
     0
 40
1.0
176
     0
 90
        2
176
     1
  1
strokes_ogs.tif
176
     1
290
     0
176
     1
 40
1.0
176
     1
 40
1.0
176
     1
  0
DICTIONARYVAR
  5
62
102
{ACAD_REACTORS
330
3D
102
}
330
3D
100
DictionaryVariables
280
     0
  1
1:1
  0
DICTIONARYVAR
  5
3D3
102
{ACAD_REACTORS
330
3D
102
}
330
3D
100
DictionaryVariables
280
     0
  1
STANDARD
  0
DICTIONARYVAR
  5
3E
102
{ACAD_REACTORS
330
3D
102
}
330
3D
100
DictionaryVariables
280
     0
  1
STANDARD
  0
DICTIONARYVAR
  5
113C
102
{ACAD_REACTORS
330
3D
102
}
330
3D
100
DictionaryVariables
280
     0
  1
Metric50
  0
DICTIONARYVAR
  5
113D
102
{ACAD_REACTORS
330
3D
102
}
330
3D
100
DictionaryVariables
280
     0
  1
Metric50
  0
DICTIONARYVAR
  5
11AE
102
{ACAD_REACTORS
330
3D
102
}
330
3D
100
DictionaryVariables
280
     0
  1
1
  0
DICTIONARYVAR
  5
1140
102
{ACAD_REACTORS
330
3D
102
}
330
3D
100
DictionaryVariables
280
     0
  1
1
  0
DICTIONARYVAR
  5
1141
102
{ACAD_REACTORS
330
3D
102
}
330
3D
100
DictionaryVariables
280
     0
  1
15
  0
DICTIONARYVAR
  5
113F
102
{ACAD_REACTORS
330
3D
102
}
330
3D
100
DictionaryVariables
280
     0
  1
0
  0
DICTIONARYVAR
  5
6F
102
{ACAD_REACTORS
330
3D
102
}
330
3D
100
DictionaryVariables
280
     0
  1
0
  0
DICTIONARYVAR
  5
113E
102
{ACAD_REACTORS
330
3D
102
}
330
3D
100
DictionaryVariables
280
     0
  1
0
  0
XRECORD
  5
422
102
{ACAD_REACTORS
330
261
102
}
330
261
100
AcDbXrecord
280
     1
 91
     1023
301

290
     0
302
Defpoints
330
10
 90
        8
 62
     7
370
    -3
331
16
  1
Normal
330
7E
 90
        0
 62
     7
370
    -3
331
16
  1
Normal
330
DE
 90
        8
 62
     1
370
    -3
331
E2
  1
Normal
330
E3
 90
        8
 62
     3
370
    -3
331
16
  1
Normal
330
E4
 90
        8
 62
     4
370
    -3
331
16
  1
Normal
330
3E0
 90
        8
 62
     7
370
    -3
331
16
  1
Normal
  0
DICTIONARY
  5
11B3
330
22
100
AcDbDictionary
280
     1
281
     1
  3
AcPublish_PlotSettingsOverride
360
11B4
  0
DICTIONARY
  5
428
330
3C
100
AcDbDictionary
280
     1
281
     1
  3
ACAD_ROUNDTRIP_2008_TABLESTYLE_CELLSTYLEMAP
360
1344
  0
PLOTSETTINGS
  5
11B4
102
{ACAD_REACTORS
330
11B3
102
}
330
11B3
100
AcDbPlotSettings
  1

  2
none_device
  4
ISO_A3_(420.00_x_297.00_MM)
  6

 40
7.5
 41
20.0
 42
7.5
 43
20.0
 44
420.0
 45
297.0
 46
9.988636101349783
 47
0.0
 48
0.0
 49
0.0
140
0.0
141
0.0
142
1.0
143
4.675937471085386
 70
  3252
 72
     1
 73
     0
 74
     1
  7
monochrome.ctb
 75
     0
147
0.2138608581025097
 76
     0
 77
     2
 78
   300
148
-219.3778672501228
149
-67.42942680925715
  0
CELLSTYLEMAP
  5
1344
102
{ACAD_REACTORS
330
428
102
}
330
428
100
AcDbCellStyleMap
 90
        3
300
CELLSTYLE
  1
TABLEFORMAT_BEGIN
 90
        5
170
     1
 91
        0
 92
    32768
 62
   257
 93
        1
300
CONTENTFORMAT
  1
CONTENTFORMAT_BEGIN
 90
        0
 91
        0
 92
      512
 93
        0
300

 40
0.0
140
1.0
 94
        5
 62
     0
340
11
144
6.0
309
CONTENTFORMAT_END
171
     1
301
MARGIN
  1
CELLMARGIN_BEGIN
 40
1.5
 40
1.5
 40
1.5
 40
1.5
 40
0.18
 40
0.18
309
CELLMARGIN_END
 94
        6
 95
        1
302
GRIDFORMAT
  1
GRIDFORMAT_BEGIN
 90
        0
 91
        1
 62
     0
 92
       -2
340
0
 93
        0
 40
0.045
309
GRIDFORMAT_END
 95
        2
302
GRIDFORMAT
  1
GRIDFORMAT_BEGIN
 90
        0
 91
        1
 62
     0
 92
       -2
340
0
 93
        0
 40
0.045
309
GRIDFORMAT_END
 95
        4
302
GRIDFORMAT
  1
GRIDFORMAT_BEGIN
 90
        0
 91
        1
 62
     0
 92
       -2
340
0
 93
        0
 40
0.045
309
GRIDFORMAT_END
 95
        8
302
GRIDFORMAT
  1
GRIDFORMAT_BEGIN
 90
        0
 91
        1
 62
     0
 92
       -2
340
0
 93
        0
 40
0.045
309
GRIDFORMAT_END
 95
       16
302
GRIDFORMAT
  1
GRIDFORMAT_BEGIN
 90
        0
 91
        1
 62
     0
 92
       -2
340
0
 93
        0
 40
0.045
309
GRIDFORMAT_END
 95
       32
302
GRIDFORMAT
  1
GRIDFORMAT_BEGIN
 90
        0
 91
        1
 62
     0
 92
       -2
340
0
 93
        0
 40
0.045
309
GRIDFORMAT_END
309
TABLEFORMAT_END
  1
CELLSTYLE_BEGIN
 90
        1
 91
        1
300
_TITLE
309
CELLSTYLE_END
300
CELLSTYLE
  1
TABLEFORMAT_BEGIN
 90
        5
170
     1
 91
        0
 92
        0
 62
   257
 93
        1
300
CONTENTFORMAT
  1
CONTENTFORMAT_BEGIN
 90
        0
 91
        0
 92
      512
 93
        0
300

 40
0.0
140
1.0
 94
        5
 62
     0
340
11
144
4.5
309
CONTENTFORMAT_END
171
     1
301
MARGIN
  1
CELLMARGIN_BEGIN
 40
1.5
 40
1.5
 40
1.5
 40
1.5
 40
0.18
 40
0.18
309
CELLMARGIN_END
 94
        6
 95
        1
302
GRIDFORMAT
  1
GRIDFORMAT_BEGIN
 90
        0
 91
        1
 62
     0
 92
       -2
340
0
 93
        0
 40
0.045
309
GRIDFORMAT_END
 95
        2
302
GRIDFORMAT
  1
GRIDFORMAT_BEGIN
 90
        0
 91
        1
 62
     0
 92
       -2
340
0
 93
        0
 40
0.045
309
GRIDFORMAT_END
 95
        4
302
GRIDFORMAT
  1
GRIDFORMAT_BEGIN
 90
        0
 91
        1
 62
     0
 92
       -2
340
0
 93
        0
 40
0.045
309
GRIDFORMAT_END
 95
        8
302
GRIDFORMAT
  1
GRIDFORMAT_BEGIN
 90
        0
 91
        1
 62
     0
 92
       -2
340
0
 93
        0
 40
0.045
309
GRIDFORMAT_END
 95
       16
302
GRIDFORMAT
  1
GRIDFORMAT_BEGIN
 90
        0
 91
        1
 62
     0
 92
       -2
340
0
 93
        0
 40
0.045
309
GRIDFORMAT_END
 95
       32
302
GRIDFORMAT
  1
GRIDFORMAT_BEGIN
 90
        0
 91
        1
 62
     0
 92
       -2
340
0
 93
        0
 40
0.045
309
GRIDFORMAT_END
309
TABLEFORMAT_END
  1
CELLSTYLE_BEGIN
 90
        2
 91
        1
300
_HEADER
309
CELLSTYLE_END
300
CELLSTYLE
  1
TABLEFORMAT_BEGIN
 90
        5
170
     1
 91
        0
 92
        0
 62
   257
 93
        1
300
CONTENTFORMAT
  1
CONTENTFORMAT_BEGIN
 90
        0
 91
        0
 92
      512
 93
        0
300

 40
0.0
140
1.0
 94
        2
 62
     0
340
11
144
4.5
309
CONTENTFORMAT_END
171
     1
301
MARGIN
  1
CELLMARGIN_BEGIN
 40
1.5
 40
1.5
 40
1.5
 40
1.5
 40
0.18
 40
0.18
309
CELLMARGIN_END
 94
        6
 95
        1
302
GRIDFORMAT
  1
GRIDFORMAT_BEGIN
 90
        0
 91
        1
 62
     0
 92
       -2
340
0
 93
        0
 40
0.045
309
GRIDFORMAT_END
 95
        2
302
GRIDFORMAT
  1
GRIDFORMAT_BEGIN
 90
        0
 91
        1
 62
     0
 92
       -2
340
0
 93
        0
 40
0.045
309
GRIDFORMAT_END
 95
        4
302
GRIDFORMAT
  1
GRIDFORMAT_BEGIN
 90
        0
 91
        1
 62
     0
 92
       -2
340
0
 93
        0
 40
0.045
309
GRIDFORMAT_END
 95
        8
302
GRIDFORMAT
  1
GRIDFORMAT_BEGIN
 90
        0
 91
        1
 62
     0
 92
       -2
340
0
 93
        0
 40
0.045
309
GRIDFORMAT_END
 95
       16
302
GRIDFORMAT
  1
GRIDFORMAT_BEGIN
 90
        0
 91
        1
 62
     0
 92
       -2
340
0
 93
        0
 40
0.045
309
GRIDFORMAT_END
 95
       32
302
GRIDFORMAT
  1
GRIDFORMAT_BEGIN
 90
        0
 91
        1
 62
     0
 92
       -2
340
0
 93
        0
 40
0.045
309
GRIDFORMAT_END
309
TABLEFORMAT_END
  1
CELLSTYLE_BEGIN
 90
        3
 91
        2
300
_DATA
309
CELLSTYLE_END
  0
ENDSEC
  0
SECTION
  2
ACDSDATA
 70
     2
 71
     8
  0
ACDSSCHEMA
 90
        0
  1
AcDb_Thumbnail_Schema
  2
AcDbDs::ID
280
    10
 91
        8
  2
Thumbnail_Data
280
    15
 91
        0
101
ACDSRECORD
 95
        0
 90
        1
  2
AcDbDs::TreatedAsObjectData
280
     1
291
     1
101
ACDSRECORD
 95
        0
 90
        2
  2
AcDbDs::Legacy
280
     1
291
     1
101
ACDSRECORD
  1
AcDbDs::ID
 90
        3
  2
AcDs:Indexable
280
     1
291
     1
101
ACDSRECORD
  1
AcDbDs::ID
 90
        4
  2
AcDbDs::HandleAttribute
280
     7
282
     1
  0
ACDSSCHEMA
 90
        1
  1
AcDbDs::TreatedAsObjectDataSchema
  2
AcDbDs::TreatedAsObjectData
280
     1
 91
        0
  0
ACDSSCHEMA
 90
        2
  1
AcDbDs::LegacySchema
  2
AcDbDs::Legacy
280
     1
 91
        0
  0
ACDSSCHEMA
 90
        3
  1
AcDbDs::IndexedPropertySchema
  2
AcDs:Indexable
280
     1
 91
        0
  0
ACDSSCHEMA
 90
        4
  1
AcDbDs::HandleAttributeSchema
  2
AcDbDs::HandleAttribute
280
     7
 91
        1
284
     1
  0
ACDSRECORD
 90
        0
  2
AcDbDs::ID
280
    10
320
22
  2
Thumbnail_Data
280
    15
 94
     1760
310
89504E470D0A1A0A0000000D49484452000001000000008108030000001837949D00000300504C5445212830FFFFFF2128300000000000000000000000000000000000000000000000000000330000660000990000CC0000FF0033000033330033660033990033CC0033FF0066000066330066660066990066CC0066FF0099
310
000099330099660099990099CC0099FF00CC0000CC3300CC6600CC9900CCCC00CCFF00FF0000FF3300FF6600FF9900FFCC00FFFF3300003300333300663300993300CC3300FF3333003333333333663333993333CC3333FF3366003366333366663366993366CC3366FF3399003399333399663399993399CC3399FF33CC00
310
33CC3333CC6633CC9933CCCC33CCFF33FF0033FF3333FF6633FF9933FFCC33FFFF6600006600336600666600996600CC6600FF6633006633336633666633996633CC6633FF6666006666336666666666996666CC6666FF6699006699336699666699996699CC6699FF66CC0066CC3366CC6666CC9966CCCC66CCFF66FF0066
310
FF3366FF6666FF9966FFCC66FFFF9900009900339900669900999900CC9900FF9933009933339933669933999933CC9933FF9966009966339966669966999966CC9966FF9999009999339999669999999999CC9999FF99CC0099CC3399CC6699CC9999CCCC99CCFF99FF0099FF3399FF6699FF9999FFCC99FFFFCC0000CC00
310
33CC0066CC0099CC00CCCC00FFCC3300CC3333CC3366CC3399CC33CCCC33FFCC6600CC6633CC6666CC6699CC66CCCC66FFCC9900CC9933CC9966CC9999CC99CCCC99FFCCCC00CCCC33CCCC66CCCC99CCCCCCCCCCFFCCFF00CCFF33CCFF66CCFF99CCFFCCCCFFFFFF0000FF0033FF0066FF0099FF00CCFF00FFFF3300FF3333
310
FF3366FF3399FF33CCFF33FFFF6600FF6633FF6666FF6699FF66CCFF66FFFF9900FF9933FF9966FF9999FF99CCFF99FFFFCC00FFCC33FFCC66FFCC99FFCCCCFFCCFFFFFF00FFFF33FFFF66FFFF99FFFFCCFFFFFF0000000D0D0D1A1A1A2828283535354343435050505D5D5D6B6B6B787878868686939393A1A1A1AEAEAEBB
310
BBBBC9C9C9D6D6D6E4E4E4F1F1F1FFFFFF0000000000000000000000000000000000000000000000000000000000002E4550F10000039B4944415478DAEDDD5976EB200C06606DCAFB5FD5FFDE9C343678C04C12968CFCD49E7B43CC672186044A94B960FCA2DEABBF84472F07700007D006F0C94B2CC9C96E047CAB6F0E00
310
FDB5BE8A00710A1E00869095ECA96D003C9465F5026C4F7F5A80B5FD5B00F8262BC61B81B508E0E805D2197146006B49D0011CC0EC9C88AF17D0B49A83872300831E8B2680E39319F2F893B150112F5211201FE888DE13C9A965F4DB6800E9D9E00E000F031C6E5329000401A81F80B0A7B8ACCB15C085D1F179C8033044C0
310
7E3D2890B2019072008449F0AF00CC04B04D7D43BEC2FD524305C05D16D4D30B507312DCD2C7F69F2F93E0688061E3808B8C39BC09C88E04CB0742BFB7BE7EF7C111D056164E5D42B2A8F3382027A71F2084721340AE56BA01D20DE0062039193208D0150165B57A710E782BC0DD2CCE015E0940BB31DBDD00EEB500A7B9C0
310
6400EB5498A2BE6D2E00FA5F0A885758668B00A2C3C866DE24C80C001B495010801C40FF4088E60408CB2815B7F82280CCC4770600B20E70B8F9C608005905009D3F1720B68B09A08EB716802607C0E411C039197200077000077080370100D303606A00861D0F960158B640DA06983C07481E505009007A0880A6050078EA
310
6F188069C39BD926C0B5E1CF2E00CD0DC0361B300A80C9009ED93495BCA7F22D763AB7CDF5C5C60BF60D1A04F09DA3722B42549F04C9011CC01800EA474E0EA009200C7E5AEFAD7EEEB85B75810A00EA016878C569B79C9208587F160588DE444D04D83C1B55CD515A4F5D7EA4A6033880030897D0952021AD2E0FD0D14324
310
5ECADAE79804C86F28B20E903942269C93B02C06005AB6929735012C301001D40E904B82CB62210204016CE480964F49917B2DD05CB603BCA509407113B0F49752A422A0AF0EBB2670FB82EE381003A87D931B806C0E8072004803BC3A0232DF7A7C7F137000917E763000B503E48BFA4C8896C901167804C45DE27ACCED76
310
366B3C94380E2CA401CA07693D00F13992D1C765DBE75574FEFA5A4425095061CC07A0A709548DD31900CECB46EB330EE15E76CC241BC09826709504B16F04717B181B01E5C5F44CF59200BF639AE38438B217E0A97F4129C8154DC96FE1083701AA1138DCF1AF9CAE0808719FA21404407B31B503E9C21C3014A0AB3BEA07
310
D8FDE3234D00340E00B7CB72B46DE1DAE5A6DC57EEE596C40A2AC1D10428F3675984015A133ED7A2E861F4BF46403C067E0CA04E461C561140679917677287872FBF65461FC01E634A80900AAD010CBC2093BA0C5DB9FAFD01BFC0DA7722C780AD0000000049454E44AE426082
  0
ENDSEC
  0
EOF
